#VERSION:0.83;
#TITLE:The Motorious Zone;
#SUBTITLE:;
#ARTIST:大平勇;
#TITLETRANSLIT:;
#SUBTITLETRANSLIT:;
#ARTISTTRANSLIT:Isamu Ohira;
#GENRE:;
#ORIGIN:;
#CREDIT:;
#BANNER:The Motorious Zone.png;
#BACKGROUND:The Motorious Zone-bg.png;
#PREVIEWVID:;
#JACKET:The Motorious Zone-jacket.png;
#CDIMAGE:;
#DISCIMAGE:;
#LYRICSPATH:;
#CDTITLE:;
#MUSIC:The Motorious Zone.ogg;
#OFFSET:-0.360000;
#SAMPLESTART:19.573179;
#SAMPLELENGTH:19.200003;
#SELECTABLE:YES;
#BPMS:0.000=100.000;
#STOPS:78.000=0.600;
#DELAYS:;
#WARPS:;
#TIMESIGNATURES:0.000=4=4;
#TICKCOUNTS:0.000=4;
#COMBOS:0.000=1;
#SPEEDS:0.000=1.000=0.000=0;
#SCROLLS:0.000=1.000,
119.000=0.500,
127.000=1.000;
#FAKES:;
#LABELS:0.000=Song Start;
#BGCHANGES:;
#KEYSOUNDS:;
#ATTACKS:
;

//---------------dance-single - ----------------
#NOTEDATA:;
#CHARTNAME:;
#STEPSTYPE:dance-single;
#DESCRIPTION:;
#CHARTSTYLE:;
#DIFFICULTY:Challenge;
#METER:14;
#RADARVALUES:0.558694,0.592881,0.117146,0.351437,0.887603,434.000000,421.000000,13.000000,39.000000,0.000000,0.000000,0.000000,0.000000,0.000000,0.558694,0.592881,0.117146,0.351437,0.887603,434.000000,421.000000,13.000000,39.000000,0.000000,0.000000,0.000000,0.000000,0.000000;
#CREDIT:;
#NOTES:
// measure 0
0000
0000
0000
0000
,  // measure 1
0000
0000
0000
0000
,  // measure 2
0000
0000
0000
0000
,  // measure 3
0000
0000
0000
0000
,  // measure 4
1000
0100
1000
0000
1100
0000
0000
0000
0100
0000
0010
0000
0110
0000
0001
0010
,  // measure 5
0001
0100
0001
0000
0101
0000
0000
0000
0100
0000
0010
0000
0110
0000
0000
0000
,  // measure 6
0001
0010
0001
0000
0011
0000
0000
0000
0010
0000
0100
0000
0110
0000
0000
0000
,  // measure 7
1000
0100
0010
0000
0010
0001
0000
1000
0000
1000
0001
0000
0210
0000
0010
0000
,  // measure 8
0301
1000
0000
0001
1000
0100
0000
0010
0000
0100
0010
0001
1000
0010
0100
0001
,  // measure 9
0010
0100
1000
0001
0100
0010
1000
0001
0000
0010
0100
0000
0010
0000
0010
0001
,  // measure 10
1000
0001
0000
1000
0001
0100
0000
0010
0000
0100
0010
1000
0000
1000
0001
0010
,  // measure 11
0100
1000
0010
0000
1000
0100
0000
0010
0000
0001
0100
0000
0001
0000
0010
0100
,  // measure 12
1000
0001
0000
1000
0001
0100
0000
0010
0000
0100
0010
1000
0001
0010
0100
1000
,  // measure 13
0001
0100
0010
1000
0100
0010
0001
1000
0000
0010
0100
0000
0010
0000
0010
1000
,  // measure 14
0001
1000
0000
0001
1000
0100
0000
0010
0000
0100
0010
0001
0000
0001
1000
0010
,  // measure 15
0100
0001
0010
0100
1000
0010
0100
0001
0000
0010
0100
0000
2000
0000
0000
0000
,  // measure 16
3002
0023
0032
0023
0230
0320
0230
0320
2030
3020
2030
3020
0230
0320
0230
0300
,  // measure 17
0200
0320
0230
0320
0230
2300
3200
2300
3002
2003
3002
2003
3020
2030
3002
0023
,  // measure 18
0130
0000
0100
1000
0000
1000
0010
0000
0000
0000
0100
0000
0000
0000
0100
0000
,  // measure 19
0001
0000
1000
0001
1000
0000
0000
0000
0110
0000
0000
0000
1001
0000
0000
1000
,  // measure 20
0001
0010
0000
0100
0000
1000
0001
0000
0210
0000
0000
0000
0301
0000
0001
1000
,  // measure 21
0100
0010
0000
0100
0000
1000
0020
0000
0100
0000
0001
0000
0100
0000
1000
0000
,  // measure 22
0100
0000
0001
0000
0100
0000
1000
0000
0130
0010
0100
0001
1000
0100
0010
0001
,  // measure 23
0000
0001
1000
0010
0100
0001
0010
0000
0010
0100
1000
0100
0010
0000
0010
0001
,  // measure 24
0000
0000
0001
0000
1000
0000
0010
0000
0000
0000
1000
0000
0001
0000
0010
0000
0100
1000
0000
0000
0010
0000
0100
0000
0000
0000
0010
0000
1000
0000
0100
0000
,  // measure 25
0010
0000
0100
0000
1000
0000
0100
0000
0010
0000
0001
0000
0100
0000
0010
0000
1000
0000
0000
0000
0010
1000
0010
1000
0001
0000
0000
0000
0010
0001
0010
0001
,  // measure 26
1000
0001
0010
0100
1000
0000
0010
0100
0000
0010
1000
0001
0010
0100
0010
0001
,  // measure 27
0010
0000
0010
0100
0000
0100
1000
0000
0001
0010
0100
1000
0001
0100
0000
0010
,  // measure 28
0001
0000
1000
0100
0000
0010
1000
0000
0001
0000
1000
0001
1000
0100
0000
0010
,  // measure 29
1000
0000
0001
0100
0000
0010
0001
0000
1000
0000
0000
0000
0001
0010
0000
0010
,  // measure 30
0100
0000
0100
1000
0000
1000
0001
0000
1000
0000
0000
0000
1000
0010
0000
0010
,  // measure 31
0100
0000
0100
0001
0000
0001
1000
0000
0120
0000
0000
0000
2030
0000
0000
0000
,  // measure 32
3001
0000
1000
0000
0100
0000
0010
0000
0000
0000
1000
0000
0010
0000
1000
0000
0000
0000
0010
0000
0100
0000
1000
0000
0001
0100
0000
0000
0010
0000
0100
0000
,  // measure 33
1000
0000
0000
0000
0100
0000
0010
0000
0000
0000
1000
0000
0001
0000
0000
0000
0010
0000
0100
0000
1000
0000
0100
0000
0010
0001
0000
0000
1000
0000
0010
0000
,  // measure 34
0100
0000
0010
1000
0100
0000
0010
0000
0100
0010
0001
1000
0001
0010
0010
1000
,  // measure 35
0100
0100
0001
0010
0010
1000
0100
0100
0001
0010
0010
1000
0001
0010
0100
0010
,  // measure 36
1000
0010
0100
1000
0100
0000
0100
0010
0000
0010
0001
0100
0001
0010
0001
0010
,  // measure 37
0100
1000
0100
0010
0001
0100
0010
0001
1000
0100
0010
0001
1000
0100
0010
1000
,  // measure 38
0000
1000
0100
0010
0000
0010
0001
0000
1000
0010
0100
0010
0001
0010
0100
0001
,  // measure 39
1000
0000
0100
0010
0000
1000
0001
0100
0010
0001
1001
0000
0220
0000
0330
0000
;
