#TITLE:The Monorail Song;
#SUBTITLE:;
#ARTIST:The Simpsons;
#TITLETRANSLIT:;
#SUBTITLETRANSLIT:;
#ARTISTTRANSLIT:;
#GENRE:Musical;
#CREDIT:;
#BANNER:The Monorail Song-bn.png;
#BACKGROUND:The Monorail Song-bg.png;
#LYRICSPATH:;
#CDTITLE:cdtitle.png;
#MUSIC:The Monorail Song.ogg;
#OFFSET:-0.151000;
#SAMPLESTART:19.766001;
#SAMPLELENGTH:16.000000;
#SELECTABLE:YES;
#BPMS:0.000000=118.531998
;
#STOPS:
;
#BGCHANGES:-0.201=The Monorail Song.avi=1.000=1=0=0=StretchNoLoop==CrossFade==,
99999=-nosongbg-=1.000=0=0=0 // don't automatically add -songbackground-
;
#KEYSOUNDS:;
#ATTACKS:;

//---------------dance-single - ----------------
#NOTES:
     dance-single:
     :
     Hard:
     12:
     0.499739,0.585272,0.224242,0.194343,0.597979,234.000000,219.000000,15.000000,13.000000,32.000000,0.000000,0.499739,0.585272,0.224242,0.194343,0.597979,234.000000,219.000000,15.000000,13.000000,32.000000,0.000000:
// measure 0
0000
0000
0000
0000
,  // measure 1
0000
0000
0000
0000
,  // measure 2
0000
0000
0000
0000
,  // measure 3
0000
0000
0000
0000
1000
0000
0001
0000
1000
0000
0100
0010
0001
0000
1000
0000
,  // measure 4
0001
0100
0010
0100
0001
0000
0010
0100
1000
0001
1000
0010
0100
0000
0001
0000
,  // measure 5
1000
0000
0000
0000
0000
0000
0100
0000
0000
0010
0000
0000
0100
0000
0000
0010
0000
0000
0000
0000
0000
0000
0000
0000
0000
0000
0000
0000
0000
0000
0000
0000
000M
0000
0M00
0000
0000
0000
0000
0000
0000
0000
0M00
0000
0M00
0000
0M00
0000
,  // measure 6
0M00
0000
0000
0000
0000
0000
0000
0000
0000
0000
0000
0000
0000
0000
0000
0000
0000
0000
0000
0000
0000
0000
0000
0000
1000
0000
0000
0000
0000
0000
0000
0000
0000
0000
0000
0000
0000
0000
0000
0000
0000
0000
0000
0000
0000
0000
0000
0000
0010
0000
0000
0000
0000
0000
0000
0000
0000
0000
0000
0000
0100
0000
0000
0000
0000
0000
0000
0000
0000
0000
0000
0000
0000
0000
0000
0000
0000
0000
0010
0000
0000
0000
0000
0000
0000
0000
0000
0000
0000
0000
0000
0000
0000
0000
0000
0000
0000
0000
0000
0000
0000
0000
0000
0000
0000
0000
0000
0000
0000
0000
0000
0000
000M
0000
0000
0000
0000
0000
0000
0000
0000
0000
0000
0000
0000
0000
0000
0000
00M0
0000
0000
0000
0000
0000
0000
0000
0000
0000
0000
0000
0000
0000
0000
0000
0000
0000
0000
0000
0000
0000
0000
0000
0M00
0000
0000
0000
0000
0000
0000
0000
0M00
0000
0000
0000
0000
0000
0000
0000
0M00
0000
0000
0000
0000
0000
0000
0000
0M00
0000
0000
0000
0000
0000
0000
0000
0M00
0000
0000
0000
0000
0000
0000
0000
,  // measure 7
0M00
0000
0000
0000
0000
0000
1000
0000
0000
0000
0001
0000
1000
0000
0001
0000
0000
0000
0000
0000
0000
0M00
0000
0000
0000
0000
0000
00M0
0000
0000
0000
0000
0000
0000
0000
0000
M000
0000
0000
0000
0000
0000
000M
0000
0000
0M00
0000
0000
,  // measure 8
000M
000M
000M
000M
000M
000M
011M
0000
0000
0000
0000
0000
1001
0000
0000
0000
0000
0000
0110
0000
0000
0000
0000
0000
,  // measure 9
1001
0000
0000
0000
0110
0000
0000
0000
1001
0000
0000
1000
0100
0000
1000
0000
,  // measure 10
0001
0000
0000
0100
0000
0000
0010
0000
0000
1000
0010
0000
0000
1000
0000
0000
0000
0000
0001
0000
0000
0010
0000
0000
,  // measure 11
1000
0000
0000
0000
0000
0000
0010
0000
0000
0000
0000
0000
0100
0000
0000
0000
0000
0000
0010
0000
0000
0000
0000
0000
0001
0000
0000
0000
0000
0000
0000
0000
0000
0000
0000
0000
1000
0000
0001
0000
0000
0000
0000
0000
0000
0100
0000
0000
,  // measure 12
0010
0000
0000
1000
0001
0000
0100
0000
0001
0000
1000
0000
1100
0000
0000
0000
,  // measure 13
0110
0000
0000
0000
0101
0000
0000
0000
0110
0000
0000
0000
1100
0000
1000
0100
,  // measure 14
1000
0000
0000
0000
0000
0000
0000
0000
0001
0000
0000
0000
0000
0000
0010
0000
0000
0000
0000
0000
0000
0200
0000
0000
0000
0000
0000
0000
0000
0000
0000
0000
0000
0000
0000
0000
1300
0000
0000
0000
0000
0000
0000
0000
0000
0100
0000
0000
,  // measure 15
1000
0100
0000
0000
0010
0000
0001
0020
0000
0000
0000
0000
0031
0000
0100
0000
,  // measure 16
0010
0000
0100
0000
0001
0000
1000
0100
0010
0001
0000
0000
0011
0000
0010
0000
,  // measure 17
1000
0000
0010
0000
0001
0000
1000
0001
2000
0000
3000
0001
0100
0000
0001
0000
,  // measure 18
1000
0000
0010
0000
1000
0100
0000
2000
0000
0000
3000
0000
0001
0000
0010
0000
,  // measure 19
1000
0000
0001
0000
0100
0000
1000
0002
0000
0003
0010
0000
0100
0000
0100
0000
,  // measure 20
1000
1000
0001
0001
0100
0100
0010
0010
,  // measure 21
1000
0000
1000
0000
0100
0000
0100
0000
0010
0000
0010
0000
0001
0010
0001
0020
,  // measure 22
0000
0000
0000
2000
3000
0200
0300
0002
0030
0000
0000
0000
0103
0010
0100
0020
,  // measure 23
0000
0000
0000
0000
0001
0000
0100
0200
0030
0000
0000
0300
0001
0100
1000
0100
,  // measure 24
0001
0000
0100
0000
0001
0000
0010
0100
0000
0010
0001
0000
1000
0000
0010
0000
,  // measure 25
1000
0000
0000
0001
0100
0000
0020
0000
0000
0001
0000
0000
0000
0000
0000
1030
0000
0000
0010
0000
0000
0100
0000
0000
,  // measure 26
0001
1000
0001
0000
0100
0000
0010
0100
0001
0100
0000
0000
0001
0000
1000
0000
,  // measure 27
0100
0010
0100
0000
0010
0000
0001
0000
1000
0001
1000
0000
0010
0000
0100
0000
,  // measure 28
0001
0010
0000
0100
1000
0000
0100
0010
0000
0000
0011
0000
0001
0000
1000
0000
,  // measure 29
0010
0100
0000
0001
0010
0000
0100
1000
0000
0000
1001
0000
0001
0000
0010
0000
,  // measure 30
0001
1000
0001
0000
0010
0100
1000
0001
1000
0000
0100
0010
0000
0110
0000
0000
,  // measure 31
0000
0000
1000
0001
1000
0020
0000
0000
0000
0030
0000
0000
0000
0000
0000
0000
,  // measure 32
M000
0M00
0000
0000
0000
MMMM
0000
0000
;

//---------------dance-single - ----------------
#NOTES:
     dance-single:
     :
     Medium:
     9:
     0.378008,0.438954,0.059798,0.134545,0.142020,177.000000,173.000000,4.000000,9.000000,4.000000,0.000000,0.378008,0.438954,0.059798,0.134545,0.142020,177.000000,173.000000,4.000000,9.000000,4.000000,0.000000:
0000
0000
0000
0000
,
0000
0000
0000
0000
,
0000
0000
0000
0000
,
0000
0000
1000
0100
0001
0100
0010
0001
,
1000
0001
0010
1000
0010
0100
1000
0001
,
1000
0000
0100
0010
0100
0010
0000
0000
0000
0000
0000
0000
0000
0000
0000
0000
,
0000
0000
0000
0000
1000
0000
0000
0000
0100
0000
1000
0000
0000
0100
0000
0000
0000
0000
0000
0000
0000
0000
0000
0000
0000
0000
0000
0000
0000
0000
0000
0000
,
0000
0000
0000
0001
0000
0000
0010
0001
0000
0000
0000
0000
0000
0000
0000
0000
0000
0000
0000
0000
0000
0000
0000
0000
,
0000
1000
0100
0010
,
0001
0100
0010
1000
,
0001
0000
0010
0000
0100
0000
1000
0010
,
0001
0010
0100
0010
1000
0000
0001
0100
,
0010
0100
0001
0010
0100
0010
0001
0000
,
1001
0000
1000
0000
1100
0000
0100
0010
,
0001
1000
0010
0001
0010
1000
0001
0000
,
0011
0000
0010
0000
0101
0000
1000
0100
,
0001
0100
0010
0100
1000
0001
2000
0000
,
0000
0000
0000
0000
0000
0000
3100
0010
,
0100
1000
0001
0100
0010
0100
0002
0000
,
0000
0000
0000
0000
0000
0000
1003
0100
,
0001
0100
1000
0100
0001
0100
1000
0010
,
0001
0010
1000
0010
0001
0010
1000
0100
,
0010
0100
1000
0001
0100
0001
1000
0010
,
0100
0010
0001
0010
1000
0100
0001
0100
,
1000
0010
0100
0010
1000
0001
0010
0100
,
1000
0000
0100
1000
0000
0000
0020
0000
0000
0000
0000
0000
0000
0000
0000
0031
0000
0000
0010
0000
0000
1000
0000
0000
,
0001
0000
0100
0000
0010
0000
1000
0010
0000
2000
0000
0000
3001
0000
0010
0000
,
0100
0000
0000
0010
0100
0000
0010
0000
0001
0020
0000
0030
0001
1000
0001
2000
,
0000
0000
0000
0000
0010
0000
0000
0000
0100
0000
3100
0000
1000
0100
1000
0200
,
0000
0000
0000
0000
1000
0000
0000
0000
0010
0000
0310
0000
0010
0001
0010
0002
,
0000
0000
0000
0000
1000
0000
0000
0000
0100
0000
0000
0000
0000
2000
0000
3000
,
0003
0000
0000
1000
0001
1000
0001
0000
0000
0000
0000
0000
0000
0000
0000
0000
,
0000
0000
0000
0000
0000
MMMM
0000
0000
;

//---------------dance-single - ----------------
#NOTES:
     dance-single:
     :
     Easy:
     5:
     0.286176,0.422136,0.164444,0.059798,0.014949,134.000000,123.000000,11.000000,4.000000,0.000000,0.000000,0.286176,0.422136,0.164444,0.059798,0.014949,134.000000,123.000000,11.000000,4.000000,0.000000,0.000000:
0000
0000
0000
0000
,
0000
0000
0000
0000
,
0000
0000
0000
0000
,
0000
0000
0000
0000
0000
0001
0000
0010
,
0000
0100
0000
1000
0000
0010
0000
0100
,
0010
0100
0000
0000
0000
0000
0000
0000
,
0000
0001
0000
0000
0000
0000
0000
0000
,
0000
1000
0000
0000
0000
0000
0000
0000
,
0000
1001
0000
0110
,
0000
1001
0000
0110
,
0001
1000
0001
1000
,
0100
0000
0010
0001
0010
0000
0101
0000
,
0100
0010
0100
0001
,
0010
0100
1000
0010
,
0100
0010
1000
0001
,
0010
0000
0100
0000
1000
0000
0001
0010
,
0100
0010
0001
1000
0001
0100
0101
0000
,
0000
0000
0000
0000
0000
0000
1000
0100
,
0010
0100
1000
0001
0100
0010
0110
0000
,
0000
0000
0000
1000
,
0100
0010
0100
0000
1000
0000
0001
0000
,
0100
0010
0100
0000
0001
0000
0010
0001
,
1000
0000
0010
1000
0001
0000
0010
0001
,
1000
0000
0010
1000
0001
0000
0010
0001
,
1000
0000
0010
1000
0001
0100
0010
0100
,
0001
0010
0100
1000
0010
0100
0002
0000
,
0100
0023
0001
0230
,
1000
2300
0010
3001
,
1000
0000
0001
0000
0100
0101
0000
0001
,
0010
0100
1000
0001
1000
1001
0000
1000
,
0010
0000
0100
0000
0010
0000
1000
0000
0001
0000
0010
0001
0000
0011
0000
0000
,
0000
0000
0000
0110
0000
0000
0000
0000
;

//---------------dance-single - ----------------
#NOTES:
     dance-single:
     :
     Beginner:
     2:
     0.113189,0.211068,0.044848,0.000000,0.000000,53.000000,50.000000,3.000000,0.000000,0.000000,0.000000,0.113189,0.211068,0.044848,0.000000,0.000000,53.000000,50.000000,3.000000,0.000000,0.000000,0.000000:
0000
0000
0000
0000
,
0000
0000
0000
0000
,
0000
0000
0000
0000
,
0000
0000
0000
0000
,
0000
0000
0000
0000
,
0000
0000
0000
0000
,
0000
0000
0000
0000
,
0000
0000
0000
0000
,
0000
1000
0000
0100
,
0000
1000
0000
0100
,
0000
0010
0000
0001
,
0000
0010
0000
0001
,
0000
0100
0000
0010
,
0000
0100
0000
0010
,
0000
1000
0000
0001
,
0000
1000
0000
0001
,
0000
0010
0000
0100
,
0000
0010
0000
0100
,
0000
1000
0000
0001
,
0000
1000
0000
0010
,
0100
0010
0100
0001
,
0010
0001
0010
0100
,
0000
1000
0000
0100
,
0000
1000
0000
0001
,
0000
0100
0000
0010
,
0000
0100
0000
0001
,
0000
0010
0000
0100
,
0000
1000
0000
0001
,
0000
0000
0100
0000
0000
0101
0000
0000
,
0000
0000
0001
0000
0000
1001
0000
0000
,
1000
0000
0000
0000
,
0000
0000
0000
1001
0000
0000
0000
0000
;
