#TITLE:The Messenger (not decorated);
#SUBTITLE:;
#ARTIST:orangenoise shortcut;
#TITLETRANSLIT:;
#SUBTITLETRANSLIT:;
#ARTISTTRANSLIT:;
#GENRE:;
#CREDIT:;
#MUSIC:The Messenger (not decorated).ogg;
#BANNER:The Messenger (not decorated).png;
#BACKGROUND:09e8d5431b6288777854e889170e6b6f72b0eb80_s2_n1.png;
#CDTITLE:;
#SAMPLESTART:59.369;
#SAMPLELENGTH:15.000;
#SELECTABLE:YES;
#OFFSET:-0.084;
#BPMS:0.000=168.000;
#STOPS:;
#BGCHANGES:;
#FGCHANGES:;

//--------------- dance-single - PenTA ----------------
#NOTES:
     dance-single:
     PenTA:
     Beginner:
     4:
     0.161082,0.238781,0.066328,0.198984,0,119,112,7,21,0,0,0.161082,0.238781,0.066328,0.198984,0,119,112,7,21,0,0:
0000
0000
0000
0000
,
0001
0000
0001
0000
,
0010
0000
0000
0000
,
1000
0000
1000
0000
,
0010
0000
0000
0000
,
0001
0000
0001
0000
,
0100
0000
0100
0000
,
0010
0010
0010
0000
,
2002
0000
0000
0000
,
3003
0000
1000
0000
,
1000
0000
1000
0000
,
0010
0000
1000
0000
,
0100
0000
0020
0000
,
0030
0000
0001
0000
,
0001
0000
0001
0000
,
0010
0000
0001
0000
,
0100
0000
0020
0000
,
0030
0000
1000
0000
,
0100
0000
0001
0000
,
0001
0000
0100
0000
,
1000
0000
2000
0000
,
3000
0000
0001
0000
,
0010
0000
0100
0000
,
1000
0000
0100
0000
,
0010
0000
0001
0001
,
0100
0000
1001
0000
,
0000
0000
0010
0000
,
0010
0000
0100
0000
,
0200
0000
0000
0000
,
0300
0000
0001
0000
,
0001
0000
1000
0000
,
1000
0000
0100
0000
,
0020
0000
0000
0000
,
0030
0000
0001
0001
,
0010
0000
2002
0000
,
3003
0000
1000
1000
,
0010
0000
2002
0000
,
3003
0000
1000
0000
,
0000
0000
0001
0000
,
0000
0000
0100
0000
,
0010
0000
0100
0100
,
0000
0000
0020
0000
,
0000
0030
0010
0000
,
1000
1000
0200
0000
,
0000
0000
0300
0000
,
0000
0000
0020
0000
,
0000
0030
0010
0000
,
0001
0001
0200
0000
,
0000
0000
0300
0000
,
0000
0000
0010
0000
,
0010
0000
1001
0000
,
0000
0000
0100
0100
,
0010
0000
2002
0000
,
0000
0000
3003
0000
,
0000
0000
0002
0000
,
0003
0000
2000
0000
,
3000
0000
0001
0001
,
0010
0000
0100
0000
,
0000
0000
1000
1000
,
0010
0000
0100
0000
,
0000
0000
0001
0000
,
0001
0000
0001
0000
,
0100
0000
1000
0000
,
1000
0000
1000
0000
,
0100
0000
0001
0000
,
0001
0000
0001
0000
,
0010
0000
0100
0100
,
0010
0000
2002
0000
,
0000
0000
0000
0000
,
0000
0000
0000
0000
,
0000
0000
0000
0000
,
0000
0000
0000
0000
,
3003
0000
0000
0000
;

//--------------- dance-single - PenTA ----------------
#NOTES:
     dance-single:
     PenTA:
     Easy:
     7:
     0.262605,0.375227,0.066328,0.388493,0,194,187,7,41,0,0,0.262605,0.375227,0.066328,0.388493,0,194,187,7,41,0,0:
0000
0000
0000
0000
,
0001
0000
1000
0000
,
0001
0000
1000
1000
,
0100
0000
0010
0000
,
0100
0000
0010
0010
,
0001
0000
1000
0000
,
0001
0000
1000
0000
,
0010
0010
0100
0000
,
2002
0000
0000
0000
,
3003
0000
1000
1000
,
1000
1000
0010
0010
,
0010
0010
0100
0100
,
0100
0100
0002
0000
,
2003
0000
3100
0100
,
0100
0100
0010
0010
,
0010
0010
0001
0001
,
0001
0001
0200
0000
,
0320
0000
1030
0000
,
0001
0000
1000
0010
,
0100
0100
0010
1000
,
0001
0000
2002
0000
,
3003
0000
0002
0000
,
0103
0000
2000
0000
,
3100
0000
0010
0010
,
0001
1000
0010
0010
,
0100
0100
1001
0000
,
0010
0000
0100
0001
,
1000
0001
0020
0000
,
0230
0000
0320
0000
,
0032
0000
1003
0010
,
1000
0100
1000
1000
,
1000
0010
0200
0000
,
0320
0000
2030
0000
,
3001
0000
0010
0000
0001
0001
0001
0000
,
0000
0100
0000
0200
0000
0000
0300
0000
,
1001
0000
0000
0000
1000
1000
1000
0000
,
0000
0010
0000
0020
0000
0000
0000
0000
,
0030
0000
0001
0100
,
0001
0000
1000
0010
,
1000
0000
0100
0100
,
0010
0000
0010
0000
0001
0000
0001
0001
,
0000
0000
2000
0000
,
0000
0000
3010
0010
,
0100
0100
0002
0000
,
0013
0000
2000
0000
,
3100
0100
0020
0000
,
0000
0000
0130
1000
,
0001
1000
0020
0000
,
0230
0000
0302
0000
,
1003
0000
2000
0000
,
3001
0001
0000
0110
0000
0000
0100
0000
,
0100
1000
0100
0100
,
0010
0010
0000
2002
0000
0000
0000
0000
,
0000
0000
0000
0000
,
3003
0000
0001
0010
,
0001
0000
1000
0100
,
1000
0000
1000
0010
,
1000
0010
0100
0001
,
0100
0001
1000
0001
,
1000
0000
0001
0000
0000
0010
0010
0020
,
0000
0030
0200
0000
,
0320
0000
0032
0000
,
1003
1000
0020
0000
,
0230
0000
0302
0000
,
1003
0001
0020
0000
,
0230
0000
2300
0000
,
3100
0010
0001
0001
,
0100
0010
0000
2002
0000
0000
0000
0000
,
0000
0000
0000
0000
,
0000
0000
0000
0000
,
0000
0000
0000
0000
,
0000
0000
0000
0000
,
3003
0000
0000
0000
;

//--------------- dance-single - PenTA ----------------
#NOTES:
     dance-single:
     PenTA:
     Medium:
     10:
     0.45076,0.511674,0.198984,0.492723,0,333,312,21,52,0,0,0.45076,0.511674,0.198984,0.492723,0,333,312,21,52,0,0:
0000
0000
0000
0000
,
1000
0000
1000
0010
0000
0010
0100
0000
,
0100
0001
0000
0001
1000
0100
0010
0000
,
0001
0000
0001
0010
0000
0010
0100
0000
,
0100
1000
0000
1000
0001
0100
0010
0010
,
1000
0000
1000
0010
0000
0010
0100
0000
,
0100
0001
0000
0001
2000
0000
3002
0000
,
0013
0010
0100
1000
0001
0001
0000
2002
,
0000
0000
0000
3003
,
0001
1000
0001
0000
1010
0000
1000
0010
,
1000
0000
0100
0000
1000
0000
0010
1000
,
0010
0000
0100
0000
1000
0000
0100
0001
,
0000
0001
0000
0020
0000
0000
1000
0000
,
0100
0000
0130
0000
0011
0000
0001
0010
,
0001
0000
0100
0000
0001
0000
0010
0001
,
0010
0000
0100
0001
0100
0000
0010
0001
,
0000
1000
0000
2002
0000
0000
0003
0000
,
0010
0000
3010
0000
0100
0000
0100
0001
,
1000
0000
1000
0100
0010
0001
1000
0001
,
0100
0001
0010
0001
0200
0000
0010
0320
,
0000
1030
0000
2001
0000
0000
0000
0000
,
0100
3100
0020
0001
,
0100
0031
2000
0100
,
0001
0000
3100
0000
0010
1000
0010
0000
,
0100
0001
0100
0000
0001
0010
0100
1000
,
0001
0001
0001
0000
1000
0000
1010
0000
,
0100
0001
1000
0001
0100
0000
0010
0010
,
0000
1000
0100
0000
0020
0000
0031
1000
,
0020
0000
0001
0100
,
1000
0130
0002
0023
,
0230
0000
2300
0000
3010
0100
0001
0000
,
0001
0100
0010
1000
0002
0000
0013
0010
,
0200
0000
1000
0001
,
0010
0000
0310
0000
0001
0001
0001
1000
,
0100
0010
0000
0220
0000
0000
0330
0000
,
1000
0000
0010
0000
0100
0100
0010
0010
,
1000
0001
1000
0002
0000
0000
0000
0000
,
0010
0013
0100
1000
,
0100
1000
0001
0100
,
0001
0100
0010
1010
,
0100
0000
0101
0000
0001
0010
0100
2000
,
0000
3000
1000
1001
,
0001
0100
0001
0010
0200
0000
0310
0020
,
0000
0031
1000
0100
2000
0000
0010
0000
,
0001
3100
0002
0100
,
1000
0000
0013
0010
0200
0000
1000
0000
,
0001
0000
0310
0100
0010
0000
0001
0001
,
0000
0101
0000
1010
0000
1000
0100
0000
,
0012
1003
2010
3100
,
0010
0010
0010
0000
0002
0000
0000
1003
,
0010
0100
0000
0020
0000
0000
1030
0000
,
1100
0000
0101
0000
0001
0010
0100
1000
,
0001
0010
0000
0220
0000
0000
0000
0000
,
0000
0000
0000
0000
,
0000
0330
0000
0000
0001
0000
0001
0100
,
0010
0010
0000
1001
0000
0110
0000
1001
,
0000
0001
2000
0000
3100
0010
0001
0000
,
1000
0010
0100
0000
1000
0100
0010
0000
,
1000
0001
0010
0000
0100
0010
1000
0000
,
0010
0001
0100
0020
0000
0100
0100
0200
,
0000
0000
0330
0000
2000
0000
0000
3020
,
0000
0000
0032
0000
0000
0023
0000
0000
,
0130
0001
1000
0100
0020
0000
0000
0032
,
0000
0000
2003
0000
0000
3200
0000
0000
,
1300
0010
1000
0001
0200
0000
0000
2300
,
0000
0000
3200
0000
0000
0320
0000
0000
,
0130
0001
1000
0100
0010
0010
0001
1000
,
0100
0010
0000
2002
0000
0000
0000
0000
,
0000
0000
0000
0000
,
0000
0000
0000
0000
,
0000
0000
0000
0000
,
0000
0000
0000
0000
,
3003
0000
0000
0000
;

//--------------- dance-single - PenTA ----------------
#NOTES:
     dance-single:
     PenTA:
     Hard:
     14:
     0.640269,0.716343,0.492723,0.521149,0.180033,473,421,52,55,0,0,0.640269,0.716343,0.492723,0.521149,0.180033,473,421,52,55,0,0:
0000
0000
0000
0000
,
1010
0000
0100
0101
0000
0010
1010
0000
,
0100
0000
0101
0000
0000
0000
0001
0010
0001
0000
0100
0000
0010
0000
0010
0000
,
1000
0000
1000
1100
0000
0010
0011
0000
,
0100
0000
1100
0000
0010
0000
0001
0000
1000
0001
1000
0000
0010
0000
0010
0000
,
0100
0000
0001
1001
0000
0010
0110
0000
,
1000
0000
1001
0000
0010
0100
0010
0000
0100
0000
0010
0000
1000
0000
0001
0000
,
0010
0010
0100
1000
1010
0011
0000
2002
,
0000
0000
0000
3000
,
0100
0100
0103
0000
0010
0000
0010
1000
,
0100
0000
0100
0010
1000
0000
1000
0010
,
0100
0000
0000
0100
0010
0000
0010
0000
0002
0000
0000
0000
0103
0000
0200
0000
,
0000
0310
0000
2001
0000
0000
0000
0000
,
3001
0000
0000
0001
0010
0000
0010
0000
0100
0000
0000
0000
0100
0000
0010
0000
,
0001
0000
0001
0100
0010
0000
0010
1000
,
0001
0000
0000
0001
0100
0000
0100
0000
0020
0000
0000
0000
1030
0000
2000
0000
,
0000
3100
0000
0022
0000
0000
0033
0000
,
0001
0000
0000
0001
0100
0000
0010
0000
2000
0000
0000
0000
3001
0000
0100
0000
,
2000
0000
3001
0010
2000
0000
3100
0010
,
0001
0001
0010
0100
1100
0000
1000
1010
,
0000
0101
0000
1002
0000
1003
0001
0100
,
0100
0000
0000
0010
1000
0000
0100
0000
0020
0000
0000
0000
0031
0000
1000
0000
,
0020
0000
0031
1000
0200
0000
0301
1000
,
0200
0000
0310
0100
1100
0010
0001
0000
,
0101
0010
1000
0000
1010
0000
0011
0000
,
0001
0000
0100
0000
1001
0000
0000
0000
0020
0000
0000
0000
1030
0000
0100
1000
,
0100
0010
0001
0001
0200
0000
1300
0200
,
0000
0000
0010
0000
0302
0000
1003
1000
,
0020
0000
0000
0000
0100
0000
0130
0000
0001
1000
0001
0000
0010
0000
0100
0000
,
1000
0100
1000
0000
0100
0000
0010
0000
0002
0000
0000
0000
0103
0000
0010
1000
,
0010
0100
0001
0001
1000
0000
1100
0000
,
0010
0001
0101
0000
0002
0000
0013
0100
,
2000
0000
0000
0000
0001
0000
3001
0000
0100
0001
0100
0000
0010
0000
0010
0000
,
1000
0000
0000
0001
1000
0000
0000
0000
0010
1000
0010
1000
0001
0000
0001
0000
,
1000
1100
0000
0202
0000
0000
0303
0000
,
0010
0000
1000
0000
0001
0000
1000
0000
0001
0000
1000
0000
0010
0000
0000
0010
0000
0000
0100
0000
0000
0001
0000
0000
,
1000
0000
0100
0000
0100
0000
2002
0000
0000
0000
0000
0000
3003
0000
1000
0010
,
1000
0001
0100
0001
0000
0000
0120
0000
0000
1000
0000
0000
,
0001
0130
0210
1000
,
0001
0000
0310
0000
1100
1000
0010
0000
,
0101
0001
0010
0200
0000
0010
0010
0020
,
0000
0000
0000
0000
0330
0000
0000
0000
0001
0000
0000
0000
1001
0000
0000
1000
,
0010
0000
0100
0000
0001
0000
0001
0000
0010
1000
0010
0000
0100
0000
2000
0000
,
0000
3001
0100
0020
1000
0000
0001
0000
,
0100
0130
0000
1001
0000
1000
0010
0100
,
0001
1000
0001
0020
1000
0000
0100
0000
,
0001
0000
0130
0010
0011
0000
1000
1010
,
0000
0101
0000
0001
1000
0010
1000
0010
,
0100
0000
0001
0000
0100
0000
0010
0000
1000
0100
1000
0000
0001
0000
0100
0000
,
0001
0010
0001
0000
1001
0000
0000
0000
0200
0000
0000
0000
0310
0000
0010
0000
,
1000
1010
0000
0102
0000
0013
0020
0000
,
0230
0000
2300
0000
3001
0001
0001
0100
,
0010
0110
0000
2001
0000
0000
0000
0100
,
3002
0000
0000
0000
0000
0000
0100
0000
0013
0000
0010
0100
1000
0000
0001
0100
,
0010
0010
0000
0000
1001
0000
1000
0010
,
0100
0100
0000
0101
0000
1010
0000
1100
,
0000
0100
0020
0000
0031
0001
0100
0001
,
1000
0010
0100
0000
0010
0000
0000
0000
1000
0000
1000
0000
0001
0000
0100
0000
,
0001
1000
0100
0000
0010
0000
0000
0000
0100
0000
0100
0000
1000
0000
0010
0000
,
1000
0100
0010
0000
0001
0000
2000
0000
0000
0000
0010
0000
0010
0000
3020
0000
,
0000
0000
0000
0000
0130
0000
0100
0000
0001
0000
1000
0100
1000
0000
0001
0000
,
0010
0000
0001
0000
0201
0000
0000
0000
0010
0000
0320
0000
0000
0000
1030
0001
,
1000
0001
0100
0010
2000
0000
3100
0120
,
0000
0000
0031
0000
0002
0000
0000
0000
0103
0000
1000
0000
0100
0000
0010
1000
,
0010
0000
0100
0001
0100
0000
0001
0000
0020
0000
0000
0000
0130
0000
1000
0000
,
1000
0000
0001
0000
0200
0000
0000
0000
0301
0000
0001
0000
0010
0001
0010
0000
,
0100
1000
0100
0000
1000
0000
0001
0000
0100
0000
0100
0000
0010
0000
1000
0000
,
1100
0101
0000
2002
0000
0000
0000
0000
,
0000
0000
0000
0000
,
0000
0000
0000
0000
,
0000
0000
0000
0000
,
0000
0000
0000
0000
,
3003
0000
0000
0000
;
