#TITLE:The Great Divide;
#SUBTITLE:(Crash Cove Remix);
#ARTIST:Rebecca Black;
#TITLETRANSLIT:;
#SUBTITLETRANSLIT:;
#ARTISTTRANSLIT:;
#GENRE:;
#CREDIT:;
#BANNER:The Great Divide (Crash Cove Remix).png;
#BACKGROUND:The Great Divide (Crash Cove Remix)-bg.png;
#LYRICSPATH:;
#CDTITLE:;
#MUSIC:The Great Divide (Crash Cove Remix).ogg;
#OFFSET:1.361834;
#SAMPLESTART:74.341774;
#SAMPLELENGTH:14.769226;
#LASTBEATHINT:0.716164;
#SELECTABLE:YES;
#BPMS:0.000000=130.000000
;
#STOPS:
;
#BGCHANGES:;
#KEYSOUNDS:;
#ATTACKS:;

//---------------dance-single - ----------------
#NOTES:
     dance-single:
     :
     Hard:
     10:
     0.356437,0.433646,0.039857,0.239143,0.031886,313.000000,308.000000,5.000000,30.000000,0.000000,0.000000,0.356437,0.433646,0.039857,0.239143,0.031886,313.000000,308.000000,5.000000,30.000000,0.000000,0.000000:
0000
0000
0000
0000
,
0000
0000
0000
0000
,
0000
0000
0000
0000
,
0000
0000
0000
0000
,
0000
0000
0000
0000
,
0010
0000
0000
0010
0000
0000
1000
0100
,
0010
0000
0000
0010
0000
0000
0000
0010
,
0100
1000
0100
1000
0010
1000
0001
0000
,
0100
0000
0000
0001
0000
0000
0100
0000
0010
0000
0000
1000
0000
0000
0001
0000
,
0100
0000
0000
0100
0000
0001
0001
0010
,
0100
0000
0000
0100
0000
0000
0000
0100
,
0010
0001
0010
0001
0100
0010
1000
0000
,
1000
0000
0000
0100
0000
0000
0010
0000
0001
0000
0000
0100
0000
0000
0001
0000
,
1000
0010
0000
1000
0001
0000
0001
0010
,
0000
0001
1000
0000
0100
0000
2000
0000
,
3000
0002
0203
0320
2030
3000
0200
0000
,
0010
0310
0000
0010
0001
0000
0000
1000
,
0001
0100
0000
0001
1000
0000
1000
0100
,
0000
1000
0001
0000
0010
0000
0002
0000
,
0003
2000
3020
0230
0302
0003
0020
0000
,
0100
0130
0000
0100
1000
0000
0000
0000
,
2000
0000
0000
0010
0000
0000
3010
0000
,
0200
0000
0000
0001
0000
0000
0301
0000
,
0010
0001
0010
0100
1000
0010
1000
0100
,
0020
0000
0030
0000
,
0002
0000
0000
0100
0000
0000
0103
0000
,
0020
0000
0000
1000
0000
0000
1030
0000
,
0100
1000
0100
0010
0001
0100
0001
0010
,
0100
0000
0000
0000
0000
0000
0000
0000
1001
0000
0000
1001
0000
0000
0001
0000
,
1000
0000
0010
1000
0001
0000
0100
0000
,
0001
0010
0000
0010
0001
0000
1000
0000
,
0001
0000
0100
0001
1000
0000
0010
0000
,
1000
0100
0000
0100
1000
0000
0010
0100
,
0001
0000
1000
0100
1000
0000
0010
0000
,
0100
0000
0001
0010
0001
0000
1000
0000
,
0010
1000
0010
0100
0001
0010
0001
1000
,
0100
0000
0010
0001
0010
0000
0100
0000
,
1000
0010
1000
0010
0100
0010
0100
0010
,
0100
0001
0100
0001
0010
0001
0010
0001
,
2000
0000
0000
0000
,
3000
0000
0000
0000
0001
0010
0100
1000
,
0010
1000
0001
1000
0010
0000
0100
0001
,
1000
0001
0100
0000
0010
1000
0100
0010
,
0001
1000
0100
1000
0001
0000
1000
0010
,
1000
0001
0010
0100
2000
0000
3020
0000
,
0130
0001
1000
0001
0100
0000
0010
1000
,
0001
1000
0010
0000
0100
0001
0010
0100
,
1000
0001
0010
0001
1000
0000
0001
0100
,
0001
0000
1000
0000
0010
0000
0100
0000
0001
0000
0000
0010
0000
0000
0100
0000
,
1000
0000
0010
0100
1002
0000
0023
0000
,
0130
1000
0001
0100
0010
1000
0010
0100
,
0001
0000
0010
0000
0100
0000
0010
0000
0001
0000
0000
1000
0000
0000
0010
0000
,
1000
0000
0010
0000
0100
0000
0001
0000
1000
0000
0000
0100
0000
0000
0100
0000
,
0010
0100
1000
0100
0010
0000
0100
0010
,
0001
0010
0100
0000
1000
0001
0100
0010
,
1000
0100
0010
0100
1000
0000
0001
0010
,
0001
0010
0100
1000
0001
0100
0010
1000
,
1020
0000
0000
1000
0000
0000
0130
0000
,
0200
0000
0000
0010
0000
0000
0301
0000
,
0002
0000
0000
0010
0000
0000
1003
0000
,
2000
0000
0000
0100
0000
0000
3010
0000
,
0020
0000
0000
0001
0000
0000
1030
0000
,
0200
0000
0000
0001
0000
0000
1300
0000
,
2002
0000
0000
0000
,
3003
0000
0000
0000
;

//---------------dance-single - ----------------
#NOTES:
     dance-single:
     :
     Medium:
     7:
     0.230033,0.306103,0.023914,0.143486,0.007971,202.000000,199.000000,3.000000,18.000000,0.000000,0.000000,0.230033,0.306103,0.023914,0.143486,0.007971,202.000000,199.000000,3.000000,18.000000,0.000000,0.000000:
0000
0000
0000
0000
,
0000
0000
0000
0000
,
0000
0000
0000
0000
,
0000
0000
0000
0000
,
0000
0000
0000
0000
,
1000
0000
0000
1000
0000
0000
0100
0000
,
0001
0000
0000
0001
0000
0000
0000
0000
,
0010
0000
0001
0000
1000
0001
1000
0000
,
0100
0000
0010
0000
,
0001
0000
0000
0001
0000
0000
0100
0000
,
1000
0000
0000
1000
0000
0000
0000
0000
,
0010
0000
1000
0000
0100
1000
0100
0000
,
0010
0000
0001
0000
,
0010
0000
0000
0001
0000
0000
1000
0000
,
0001
0000
0000
1000
0000
0000
0100
0000
,
1000
0010
0100
0001
,
2000
0000
3002
0000
,
0103
0000
0000
0001
0000
0000
1000
0000
,
0010
0000
0000
1000
0000
0000
0001
0000
,
0010
0001
1000
0100
,
0020
0000
0230
0000
,
1300
0000
0010
0000
,
0100
0000
0001
0000
,
0010
0001
0010
0000
0100
0010
0100
0000
,
2000
0000
3000
0000
,
0001
0000
0010
0000
,
0100
0000
1000
0000
,
0010
1000
0010
0000
0100
0010
0100
0000
,
0002
0000
0000
0000
0000
0000
0000
0000
1003
0000
0000
1000
0000
0000
1000
0000
,
0000
0000
0000
0000
0000
0000
0000
0000
0001
0000
0000
0001
0000
0000
0001
0000
,
0000
0000
0010
0001
,
1000
0000
0001
1000
0001
0000
0100
0000
,
0010
0000
1000
0000
,
0100
0000
0010
0000
,
0001
0000
1000
0000
,
0001
0100
0001
0000
0100
0010
0100
0000
,
0010
0000
1000
0000
,
0010
1000
0100
0010
,
0001
1000
0010
0100
,
0001
0000
0000
0000
,
0000
0000
0000
0000
0001
1000
0000
0000
,
0010
0000
0010
1000
0010
0000
0010
0000
,
1000
0001
1000
0000
0100
0000
0010
0000
,
0001
0000
0001
0100
0001
0000
0001
0000
,
0010
0000
0100
1000
0200
0000
0000
0000
,
0310
0000
0010
0001
0010
0000
0010
0000
,
0001
1000
0001
0000
0100
0000
0010
0000
,
1000
0000
1000
0010
1000
0000
0100
0000
,
0010
0001
1000
0010
,
0100
1001
0220
0330
,
1000
0000
0100
0000
0010
0001
0010
0000
,
0001
0000
1000
0001
1000
0000
0010
0000
,
0100
0000
0001
1000
0002
0000
0003
0000
,
0100
0000
0100
0001
0100
0000
0010
0000
,
0010
1000
0010
0000
1000
0001
1000
0000
,
0100
0000
0100
0010
0100
0000
0010
0000
,
0001
0000
1000
0010
1000
0000
0000
0000
,
0002
0000
0000
1003
0000
0000
0000
0000
,
2000
0000
0000
0001
0000
0000
3001
0000
,
0020
0000
0000
0130
0000
0000
0000
0000
,
0200
0000
0000
0010
0000
0000
0310
0000
,
0002
0000
0000
0013
0000
0000
0000
0000
,
2000
0000
0000
3100
0000
0000
0010
0000
,
2002
0000
0000
0000
,
3003
0000
0000
0000
;

//---------------dance-single - ----------------
#NOTES:
     dance-single:
     :
     Easy:
     4:
     0.162845,0.204069,0.023914,0.111600,0.000000,143.000000,140.000000,3.000000,14.000000,0.000000,0.000000,0.162845,0.204069,0.023914,0.111600,0.000000,143.000000,140.000000,3.000000,14.000000,0.000000,0.000000:
0000
0000
0000
0000
,
0000
0000
0000
0000
,
0000
0000
0000
0000
,
0000
0000
0000
0000
,
0000
0000
0000
0000
,
0001
0000
1000
0000
,
0001
0010
0001
0000
,
1000
0000
0100
0100
,
0100
0000
0000
0000
,
1000
0000
0001
0000
,
1000
0010
1000
0000
,
0010
0000
0100
0100
,
0100
0000
0001
0000
,
0010
0000
0000
0010
0000
0000
0000
0000
,
0001
0000
0000
0001
0000
0000
0001
0000
,
1000
1000
1000
0000
,
0010
0000
1000
0000
,
0001
0000
0000
0001
0000
0000
0000
0000
,
1000
0000
0000
1000
0000
0000
1000
0000
,
0001
0001
0001
0000
,
0010
0000
0100
0000
,
2000
0000
3001
0000
,
0002
0000
0013
0000
,
0100
0010
0100
0010
,
0100
0000
0000
0000
,
0002
0000
0103
0000
,
2000
0000
3010
0000
,
0001
1000
0001
1000
,
0001
0000
0010
0010
,
0010
0000
0100
0100
,
0100
0000
1000
0000
,
0010
0000
1000
0001
,
1000
0000
0000
0000
,
0020
0000
1030
0000
,
2000
0000
3001
0000
,
0010
0100
0010
0100
,
0010
0000
0000
0000
,
0001
0001
1000
0000
,
1000
1000
0010
0000
,
0100
0000
0000
0000
,
0000
0000
1001
0000
,
0001
1000
0001
0000
,
1000
0010
1000
0000
,
0001
0100
0001
0000
,
0010
0100
1000
0000
,
0010
1000
0010
0000
,
0100
0001
0100
0000
,
0001
1000
0001
0000
,
0100
0001
0010
0000
,
0100
0000
0110
0000
,
1000
0001
1000
0000
,
0001
0010
0001
0000
,
1000
0010
0100
0000
,
0001
0100
0001
0000
,
1000
0010
1000
0000
,
0001
0010
0001
0000
,
0010
0100
1000
0000
,
0002
0000
0000
0000
,
0023
0000
0100
0000
,
0230
0000
0000
0000
,
2300
0000
0000
0000
,
3020
0000
0000
0000
,
2030
0000
3000
0000
,
2002
0000
0000
0000
,
3003
0000
0000
0000
;

//---------------dance-single - ----------------
#NOTES:
     dance-single:
     :
     Beginner:
     1:
     0.116155,0.175770,0.015943,0.000000,0.000000,102.000000,100.000000,2.000000,0.000000,0.000000,0.000000,0.116155,0.175770,0.015943,0.000000,0.000000,102.000000,100.000000,2.000000,0.000000,0.000000,0.000000:
// measure 0
0000
0000
0000
0000
,  // measure 1
0000
0000
0000
0000
,  // measure 2
0000
0000
0000
0000
,  // measure 3
0000
0000
0000
0000
,  // measure 4
0000
0000
0000
0000
,  // measure 5
1000
0000
0000
0000
,  // measure 6
0001
0000
0000
0000
,  // measure 7
0010
0000
0010
0000
,  // measure 8
0010
0000
0000
0000
,  // measure 9
0001
0000
0000
0000
,  // measure 10
1000
0000
0000
0000
,  // measure 11
0100
0000
0100
0000
,  // measure 12
0100
0000
0000
0000
,  // measure 13
0010
0000
0100
0000
,  // measure 14
0010
0000
0010
0000
,  // measure 15
0000
0000
0000
0000
,  // measure 16
0001
0000
0000
0000
,  // measure 17
0100
0000
0010
0000
,  // measure 18
0100
0000
0100
0000
,  // measure 19
0000
0000
0000
0000
,  // measure 20
0010
0000
0000
0000
,  // measure 21
1000
0000
0001
0000
,  // measure 22
1000
0000
0001
0000
,  // measure 23
0010
0000
0010
0010
,  // measure 24
0010
0000
0000
0000
,  // measure 25
0001
0000
1000
0000
,  // measure 26
0001
0000
1000
0000
,  // measure 27
0001
0000
0100
0100
,  // measure 28
0100
0000
0010
0000
,  // measure 29
0010
0000
1000
0000
,  // measure 30
1000
0000
0001
0000
,  // measure 31
0001
0000
0100
0000
,  // measure 32
0100
0000
0000
0000
,  // measure 33
0001
0000
0010
0000
,  // measure 34
0001
0000
0010
0000
,  // measure 35
0001
0000
1000
1000
,  // measure 36
1000
0000
0000
0000
,  // measure 37
0010
0000
1000
0000
,  // measure 38
0010
0000
1000
0000
,  // measure 39
0001
0000
0000
0000
,  // measure 40
0000
0000
0000
0000
,  // measure 41
0010
0000
0010
0000
,  // measure 42
0001
0000
0001
0000
,  // measure 43
1000
0000
1000
0000
,  // measure 44
0001
0001
0001
0000
,  // measure 45
1000
0000
1000
0000
,  // measure 46
0010
0000
0010
0000
,  // measure 47
1000
0000
1000
0000
,  // measure 48
0001
0001
0001
0000
,  // measure 49
0100
0000
1001
0000
,  // measure 50
0001
0000
0001
0000
,  // measure 51
1000
0000
1000
0000
,  // measure 52
0100
0100
0100
0000
,  // measure 53
0010
0000
0010
0000
,  // measure 54
0100
0000
0100
0000
,  // measure 55
0010
0000
0010
0000
,  // measure 56
0001
0001
0001
0000
,  // measure 57
1000
0000
0000
0000
,  // measure 58
0001
0000
0000
0000
,  // measure 59
0010
0000
0000
0000
,  // measure 60
0100
0000
0000
0000
,  // measure 61
1000
0000
0000
0000
,  // measure 62
0001
0000
0000
0000
,  // measure 63
1001
0000
0000
0000
;
