#VERSION:0.83;
#TITLE:The Ghost;
#SUBTITLE:;
#ARTIST:NIVIRO;
#TITLETRANSLIT:;
#SUBTITLETRANSLIT:;
#ARTISTTRANSLIT:;
#GENRE:;
#ORIGIN:;
#CREDIT:Pilgrimsito;
#BANNER:The Ghost.png;
#BACKGROUND:The Ghost-bg.png;
#PREVIEWVID:;
#JACKET:The Ghost-jacket.png;
#CDIMAGE:;
#DISCIMAGE:;
#LYRICSPATH:;
#CDTITLE:cdtitle.png;
#MUSIC:The Ghost.ogg;
#OFFSET:-0.100000;
#SAMPLESTART:61.970425;
#SAMPLELENGTH:14.760003;
#SELECTABLE:YES;
#BPMS:0.000=64.000,
41.000=128.000,
73.000=64.000,
81.000=128.000,
122.000=64.000,
124.000=128.000,
152.000=64.000,
154.000=128.000,
160.000=64.000;
#STOPS:40.000=0.940,
93.000=1.400;
#DELAYS:;
#WARPS:32.000=8.000;
#TIMESIGNATURES:0.000=4=4;
#TICKCOUNTS:0.000=4;
#COMBOS:0.000=1;
#SPEEDS:0.000=1.000=0.000=0,
91.000=5.000=2.000=0,
93.000=1.000=0.000=0;
#SCROLLS:0.000=1.000,
139.500=0.000,
139.750=2.000,
140.000=1.000,
160.000=0.000,
160.500=2.000,
161.000=1.000,
177.000=0.000,
177.250=2.000,
177.500=0.000,
177.750=2.000,
178.000=0.000,
178.250=2.000,
178.500=0.000,
178.750=2.000,
179.000=0.000,
179.250=2.000,
179.500=0.000,
179.750=2.000,
180.000=0.000,
180.250=2.000,
180.500=0.000,
180.750=2.000,
181.000=0.000,
181.250=2.000,
181.500=0.000,
182.000=0.500,
183.000=1.000;
#FAKES:;
#LABELS:0.000=Song Start;
#BGCHANGES:;
#KEYSOUNDS:;
#ATTACKS:
;

//---------------dance-single - ----------------
#NOTEDATA:;
#CHARTNAME:;
#STEPSTYPE:dance-single;
#DESCRIPTION:;
#CHARTSTYLE:;
#DIFFICULTY:Hard;
#METER:14;
#RADARVALUES:0.462329,0.584450,0.161815,0.110716,0.327888,380.000000,361.000000,19.000000,13.000000,28.000000,0.000000,2.000000,0.000000,8.000000,0.462329,0.584450,0.161815,0.110716,0.327888,380.000000,361.000000,19.000000,13.000000,28.000000,0.000000,2.000000,0.000000,8.000000;
#CREDIT:Pilgrimsito;
#NOTES:
// measure 0
0000
0000
0000
0000
1010
0001
0010
0001
,  // measure 1
0100
0001
0010
0100
1000
0001
1000
0010
,  // measure 2
0100
0001
1000
0000
1100
0001
0010
0100
,  // measure 3
0001
0100
0010
0100
1000
0010
0100
0010
,  // measure 4
2000
0000
3000
0000
1001
0100
0010
0001
,  // measure 5
1000
0001
0100
0001
0010
0100
0010
0001
,  // measure 6
0100
0010
1000
0000
0101
1000
0001
0010
,  // measure 7
1000
0010
0001
0100
0010
1000
0100
1000
,  // measure 8
0002
0000
0000
0000
M0M3
0000
M000
000M
M000
0000
0M00
0000
00M0
0000
0000
0000
,  // measure 9
0000
0000
0000
0000
,  // measure 10
0000
0000
0000
0000
1010
0000
1000
0001
1000
0000
0100
0000
0010
0000
0001
1000
,  // measure 11
0001
0000
0100
0000
0010
0000
1000
0100
1000
0000
0010
0000
0001
0000
0010
0000
,  // measure 12
1000
0000
0010
0000
0100
0000
0001
0010
0001
0000
0100
0000
0010
0000
1000
0100
,  // measure 13
1000
0000
0010
0000
0100
0000
0001
0010
0100
0000
0100
0010
0001
0000
0100
0000
,  // measure 14
0010
0000
1000
0000
0001
0000
0100
0010
0100
0000
0010
0000
1000
0000
0100
0010
,  // measure 15
0100
0000
0010
0000
0001
0000
1000
0010
1000
0000
0100
0000
0001
0000
0100
0000
,  // measure 16
0010
0000
0001
0000
0100
0000
0010
1000
0010
0000
1000
0000
0100
0000
0010
0001
,  // measure 17
0010
0000
0001
0000
0100
0000
0010
1000
0100
0000
0100
1000
0010
0000
0100
0000
,  // measure 18
0001
0010
1200
0000
0000
0000
0000
0000
,  // measure 19
0000
0001
0000
0000
,  // measure 20
0300
0000
0000
0000
100M
0100
0010
0100
1000
0000
1000
0100
0010
0100
1000
0000
,  // measure 21
0101
0000
0101
0000
1000
0010
0001
0010
1000
0000
1000
0010
0001
0010
1000
0000
,  // measure 22
0110
0000
0110
0000
0001
0100
0010
1000
0100
0010
0001
1000
0040
0M00
0M00
0M00
,  // measure 23
0M00
0M00
0M00
0M00
0M30
0000
0000
0000
2010
0000
0000
0000
3001
0000
0010
0100
,  // measure 24
0010
0000
0001
0000
0100
0000
1000
0000
0100
0001
0100
0000
0010
0000
1000
0001
,  // measure 25
0010
0000
0001
1000
0010
0000
0100
0000
0102
0000
0000
0000
0013
0000
0100
1000
,  // measure 26
0100
0000
0010
0000
0001
0000
0100
0000
0001
0010
M00M
0010
1000
0000
1000
0100
,  // measure 27
M00M
0100
0001
0000
1000
0000
0040
0000
0230
0000
0000
0000
0301
0000
1000
0100
,  // measure 28
1000
0000
0010
0000
0100
0000
0001
0000
0010
0100
0010
0000
0001
0000
1000
0100
,  // measure 29
0001
0000
0001
0100
1000
0000
0100
0000
0210
0000
0000
0000
1300
0000
0001
0010
,  // measure 30
0001
0000
0100
0000
0010
0000
0100
0000
0001
0010
0100
1000
0010
0100
0002
0000
,  // measure 31
1003
0100
0010
0001
0100
0010
0001
0010
,  // measure 32
1000
0100
0010
1000
0010
0001
0100
0010
,  // measure 33
1000
0001
1000
0100
0001
0100
0010
0001
,  // measure 34
0010
0100
0010
0001
0010
0000
0100
1000
0100
0010
0100
1000
0001
0000
MMMM
0000
,  // measure 35
0012
0000
0000
0000
1003
0000
0010
0100
0010
0000
1000
0000
0100
0000
0001
0000
,  // measure 36
0100
1000
0100
0000
0010
0000
0001
1000
0010
0000
1000
0001
0010
0000
0100
0000
,  // measure 37
2100
0000
0000
0000
3010
0000
0100
0001
0100
0000
0010
0000
1000
0000
0100
0000
,  // measure 38
0010
0000
0000
0100
1000
0000
0000
0010
0100
0000
0000
0001
1000
0000
0000
0000
1002
0000
0000
0000
0000
0000
0000
0000
0000
0000
0000
0000
0000
0000
0000
0000
,  // measure 39
0203
0000
0000
0000
0000
0000
0000
0000
0000
0000
0000
0000
0320
0000
0000
0000
1000
0000
0000
0000
1000
0030
0000
0000
,  // measure 40
0110
0000
0000
0000
1001
0000
0000
1000
0100
0000
0000
1000
0001
0000
0000
0100
,  // measure 41
0010
0000
0000
0000
0000
0000
0000
0000
1000
0000
0000
1000
0100
0000
0000
0100
1000
0000
0000
1000
0010
0000
0000
0010
0100
0000
0000
0100
0001
0000
0000
0001
,  // measure 42
0010
0000
0000
0000
1001
0000
0000
0100
0010
0000
0000
1000
0100
0000
0000
0010
,  // measure 43
0100
0000
1000
0000
0001
0000
0000
0100
0010
0000
0000
1000
0100
0000
1000
0000
,  // measure 44
0020
0030
01M0
0M10
01M0
0M10
100M
M001
,  // measure 45
100M
M001
01M0
0M10
0000
0000
01M0
0000
;

//---------------dance-single - ----------------
#NOTEDATA:;
#CHARTNAME:;
#STEPSTYPE:dance-single;
#DESCRIPTION:;
#CHARTSTYLE:;
#DIFFICULTY:Medium;
#METER:11;
#RADARVALUES:0.364996,0.409115,0.127749,0.034066,0.080908,300.000000,285.000000,15.000000,4.000000,8.000000,0.000000,1.000000,0.000000,6.000000,0.364996,0.409115,0.127749,0.034066,0.080908,300.000000,285.000000,15.000000,4.000000,8.000000,0.000000,1.000000,0.000000,6.000000;
#CREDIT:Pilgrimsito;
#NOTES:
0000
0000
0000
0000
1000
0010
1000
0010
,
0100
0001
0100
0001
1000
0010
0100
0001
,
1000
0100
0010
0000
0100
1000
0100
1000
,
0010
1000
0010
1000
0001
0010
0100
1000
,
0100
0000
0000
0000
0001
0010
0001
0010
,
0100
1000
0100
1000
0001
0010
0100
1000
,
0001
0100
0010
0000
0100
0001
0100
0001
,
0010
0001
0010
0001
1000
0010
0100
0001
,
1000
0000
000M
0000
000M
0M00
00M0
0000
,
00M0
0000
0000
0000
,
0000
0000
M001
0000
0001
0100
0010
0000
,
0010
0100
0001
0000
0001
1000
0100
0010
,
0001
0010
0100
0000
0100
1000
0010
0000
,
0010
1000
0100
0000
0100
1000
0001
0100
,
1000
0100
0001
0000
0001
0010
0100
0000
,
0100
0010
0001
0000
0001
1000
0010
0100
,
0001
0100
0010
0000
0010
1000
0100
0000
,
0100
1000
0010
0000
0010
1000
0001
0010
,
1000
0010
M001
0000
0000
0000
0000
0000
,
0000
1000
0000
0000
,
0000
0000
M001
0010
0100
0010
0001
0010
,
0110
0110
0100
1000
0100
0010
0100
1000
,
1001
1001
0200
0000
0000
0000
0040
0000
,
0000
0000
0330
0000
1001
0000
0100
1000
,
0010
1000
0100
1000
0001
0100
0100
0010
,
1000
0000
0000
0001
0000
0000
1000
0000
1100
0000
0000
0000
0001
0000
0100
0000
,
0010
0000
0100
0000
0001
0000
0001
0000
1001
0000
0000
0100
0000
0000
1001
0000
,
0000
0010
0000
0000
1001
0000
0000
0000
0011
0000
0000
0000
0100
0000
1000
0000
,
0010
0100
0010
1000
0001
0010
0010
0100
,
1000
0000
0000
0010
0000
0000
1000
0000
1001
0000
0000
0000
0001
0000
0100
0000
,
1000
0000
0100
0000
0001
0000
1000
0000
001M
0100
0010
0100
0010
0100
0010
0000
,
100M
0100
1000
0100
0010
0001
0010
0001
,
0100
0010
0100
0010
1000
0001
1000
0001
,
1000
0100
0010
0001
1000
0010
0100
0001
,
1000
1000
1000
0010
0010
0010
0100
0001
,
1001
0000
0100
1000
0010
1000
0100
1000
,
0001
0000
0100
0000
0100
0000
0010
0000
1000
0000
0000
0001
0000
0000
1000
0000
,
1100
0000
0001
0100
0010
0100
0001
0001
,
1M00
0000
0000
0001
1000
0000
0000
0001
1000
0000
0000
0001
1000
0000
0000
0000
02M0
0000
0000
0000
0000
0000
0000
0000
0000
0000
0000
0000
0000
0000
0000
0000
,
0320
0000
0032
0000
,
1M03
0000
0000
0000
1001
0000
0000
0100
1000
0000
0000
1000
0100
0000
0000
0100
,
0010
0000
0001
0001
0010
0010
0100
0100
,
1000
0000
0000
0000
1001
0000
0000
0100
0010
0000
0000
0010
0100
0000
0000
0100
,
1000
0000
0001
0000
0100
0000
0000
0100
0010
0000
0000
0010
1000
0000
0100
0000
,
0010
0000
0001
0001
1000
1000
0001
0001
,
1000
1000
0001
0001
0000
0000
1000
0000
;

//---------------dance-single - ----------------
#NOTEDATA:;
#CHARTNAME:;
#STEPSTYPE:dance-single;
#DESCRIPTION:;
#CHARTSTYLE:;
#DIFFICULTY:Easy;
#METER:6;
#RADARVALUES:0.215348,0.253262,0.102199,0.093682,0.000000,177.000000,165.000000,12.000000,11.000000,7.000000,0.000000,0.000000,0.000000,5.000000,0.215348,0.253262,0.102199,0.093682,0.000000,177.000000,165.000000,12.000000,11.000000,7.000000,0.000000,0.000000,0.000000,5.000000;
#CREDIT:Pilgrimsito;
#NOTES:
0000
0000
1000
0010
,
0100
0001
0100
0010
,
1000
0000
1000
0100
,
0010
0001
0010
0100
,
1000
0000
0001
0100
,
1000
0100
0001
0010
,
0100
0000
1000
0010
,
0001
0010
1000
0100
,
0010
M000
M000
000M
,
000M
0000
0000
0000
,
0000
100M
1000
0001
,
0001
0010
0010
0100
,
0100
1000
1000
0001
,
0001
0100
0100
0010
,
0010
1000
0001
1000
,
0001
0010
0100
0010
,
0100
1000
0100
0010
,
0001
1000
0001
0010
,
0100
100M
0000
0000
,
0000
0001
0000
0000
,
0000
100M
0100
1000
,
0010
0100
0001
0010
,
0001
0200
0000
0020
,
0000
0330
1001
1000
,
0100
0000
0010
0000
0100
1000
0100
0000
,
1000
0001
1000
0000
1010
0000
0010
0000
,
0100
0000
0001
0000
1001
0000
0000
0110
,
0000
1001
0011
0001
,
0010
0000
0100
0000
0010
0001
0010
0000
,
0001
1000
0001
0000
0101
0000
0100
0000
,
0010
1000
00M2
0203
,
M301
0100
1000
0100
,
0001
0010
1000
0010
,
0001
0100
0010
1000
,
0100
0010
0100
0010
0100
0010
0100
0000
,
1001
1000
0100
0010
,
0100
1000
0100
0000
1000
0001
1000
0000
,
1010
0010
0100
0001
,
20M0
3200
130M
0000
,
0010
0000
0100
0000
,
0101
1001
1000
0100
,
0010
0002
1000
1000
,
1003
1010
0010
0100
,
0001
2000
3200
0320
,
0032
1003
0001
0100
,
0010
1000
0000
0001
;
