#TITLE:The Fox [No Split Timing];
#SUBTITLE:;
#ARTIST:Ylvis;
#TITLETRANSLIT:;
#SUBTITLETRANSLIT:;
#ARTISTTRANSLIT:;
#GENRE:Dead Meme;
#CREDIT:Haley Halcyon;
#MUSIC:The Fox.ogg;
#BANNER:The Fox.png;
#BACKGROUND:The Fox-bg.png;
#CDTITLE:cdtitle.png;
#SAMPLESTART:35.625;
#SAMPLELENGTH:9.375;
#SELECTABLE:YES;
#OFFSET:0.000;
#BPMS:0.000=128.000;
#STOPS:;
#BGCHANGES:;
#FGCHANGES:;

//--------------- dance-single - Haley Halcyon ----------------
#NOTES:
     dance-single:
     Haley Halcyon:
     Beginner:
     1:
     0,0,0,0,0:
0000
0000
0000
0000
,
0000
0000
0000
0000
,
0000
0000
0000
0000
,
0000
0000
0000
0000
,
1000
0000
0001
0000
,
0001
0000
0100
0000
,
0100
0000
0010
0000
,
0010
0000
1000
0000
,
1000
0000
0001
0000
,
0001
0000
0010
0000
,
0010
0000
0000
0000
,
0100
0000
0100
0000
,
1000
0000
1000
0000
,
0001
0000
0001
0000
,
0010
0000
0010
0000
,
0001
0000
0001
0000
,
1000
1000
1000
0000
,
0001
0001
0001
0000
,
0100
0100
0100
0000
,
0001
0000
1000
0000
,
0001
0000
0001
0000
,
1000
0000
1000
0000
,
0001
0000
0001
0000
,
0010
0000
0100
0000
,
1000
0000
1000
0000
,
0001
0000
0001
0000
,
1000
0000
1000
0000
,
0010
0000
0100
0000
,
0001
0000
0001
0000
,
0100
0000
0100
0000
,
0001
0000
0001
0000
,
1000
0000
0100
0000
,
1000
0000
1000
0000
,
0100
0000
0100
0000
,
1000
0000
1000
0000
,
0001
0000
1000
0000
,
0020
0000
0000
0030
,
1000
0000
1000
0000
,
0002
0000
0000
0003
,
0100
0000
0100
0000
,
0020
0000
0000
0030
,
1000
0000
1000
0000
,
0200
0000
0000
0300
,
0010
0000
0010
0000
,
0001
0000
1000
0000
,
0001
0000
1000
0000
,
0010
0000
1000
0000
,
0010
0000
1000
0000
,
0001
0000
0100
0000
,
0001
0000
0100
0000
,
0001
0000
1000
0000
,
0001
0000
1000
0000
,
0001
0000
1000
0000
,
0001
0000
0001
0000
,
1000
0000
0001
0000
,
1000
0000
1000
0000
,
0010
0000
1000
0000
,
0010
0000
0010
0000
,
0100
0000
0001
0000
,
0100
0000
0100
0000
,
0001
0000
0100
0000
,
0010
0000
0100
0000
,
0001
0000
0010
0000
,
0100
0000
0100
0000
,
1000
0000
0010
0000
,
0100
0000
0010
0000
,
1000
0000
0100
0000
,
0010
0000
0100
0000
,
2000
0000
0000
0000
,
3000
0000
0000
0000
;

//--------------- dance-single - Haley Halcyon ----------------
#NOTES:
     dance-single:
     Haley Halcyon:
     Easy:
     4:
     0,0,0,0,0:
0000
0000
0000
0000
,
0000
0000
0000
0000
,
0000
0000
0000
0000
,
0000
0000
0000
0000
,
0000
0000
1000
1000
,
0001
0000
0001
0001
,
1000
0000
1000
1000
,
0010
0010
0100
0100
,
0001
0000
1000
1000
,
0001
0000
0010
0010
,
0200
0000
0000
0000
0300
1000
0000
1000
,
0000
0001
0000
0001
0000
0100
0000
0010
,
0000
0000
0001
2000
,
0000
3000
0001
0020
,
0000
0000
0000
0000
0030
0100
0000
1000
,
0000
0001
0000
0100
0000
0100
0000
0100
,
0000
0000
0001
2000
,
0000
3000
0100
0020
,
0000
0000
0000
0000
,
0030
0001
0000
0001
1000
0000
0000
0000
,
0001
0100
0010
0000
,
1000
0100
0010
0000
,
0001
0100
0010
0000
,
1000
0000
0001
0000
,
1000
0010
0100
0000
,
0001
0010
0100
0000
,
1000
0010
0100
0000
,
0001
0000
1000
0001
,
1000
1000
1000
0000
,
0001
0001
0001
0000
,
1000
1000
1000
0000
,
0001
0000
1000
0000
,
0001
0001
0010
0010
,
0001
0001
1000
1000
,
0100
0100
1000
1000
,
0001
0000
1000
0001
,
1000
1000
1000
1000
,
0100
0000
0100
0010
0000
0001
0000
0020
,
0000
0000
0000
0030
,
0001
0000
0001
1000
0000
0010
0000
0200
,
0000
0000
0000
0300
,
0001
0000
0001
1000
0000
0100
0000
0020
,
0000
0000
0000
0000
0000
0000
0000
0030
,
0001
0000
0001
1000
0000
0020
0000
0000
,
1030
0001
1000
0001
,
1000
0000
0000
0100
0000
0010
0000
0020
,
0000
0000
0000
0030
,
0001
0000
0000
0100
0000
0100
0000
0020
,
0000
0000
0000
0030
,
1000
0000
0001
0000
0100
0010
0000
0020
,
0000
0000
0000
0030
,
2000
0000
3000
0002
0000
0003
1000
0000
,
0101
1100
0101
0001
,
1100
0101
1100
1000
,
1010
0011
1010
1000
,
2000
0000
3000
0001
0000
0010
0000
0100
,
0000
2000
0000
0000
0000
0000
3000
0000
,
0001
0000
0001
0010
0000
0100
0000
2000
,
0000
0000
0000
3000
,
2000
0000
3000
0001
0000
0010
0000
0200
,
0000
0000
0000
0000
1300
0100
1000
0000
,
0001
0000
1000
0000
0001
0100
0001
0000
,
1000
0000
0001
0000
1000
0010
1000
0000
,
0001
0000
0010
0100
0000
1000
0000
0200
,
0000
0000
1300
0000
0010
1000
0010
0000
,
2000
0000
3000
0001
0000
1000
0000
0001
,
0020
0000
0030
0100
0000
0010
0000
0100
,
2000
0000
3000
0001
0000
1000
0000
0002
,
0000
0000
0000
0000
,
0003
0000
0000
0000
;

//--------------- dance-single - Haley Halcyon ----------------
#NOTES:
     dance-single:
     Haley Halcyon:
     Medium:
     9:
     0,0,0,0,0:
0000
0000
0000
0000
,
0000
0000
0000
0000
,
0000
0000
0000
0000
,
0000
0000
0000
0000
,
1000
0001
1000
0100
,
0110
0000
0100
0010
,
1001
0000
1000
0010
,
0110
0100
0001
1000
,
1001
0000
0001
0010
,
1010
0000
0010
0001
,
2001
0000
0000
0000
3000
0100
1000
0001
,
0000
1000
0000
0100
0000
0010
0000
0001
,
1000
0000
1000
0000
0001
0100
0020
0000
,
1000
0030
1000
0100
1000
0010
0200
0000
,
0001
0000
0001
0300
0001
1000
0100
0010
,
0000
0100
0000
1100
0000
0101
0000
1100
,
0000
0000
0000
0001
1000
0100
0020
0000
,
0000
0000
0030
0100
1000
0001
0100
0020
,
0000
0000
0000
0030
,
1000
0001
1000
0001
0010
0000
0200
0000
,
1300
0000
0001
0000
1000
0000
0001
0000
0010
0000
0000
0010
0000
0000
0010
0000
,
0000
0000
0001
0000
1000
0000
0001
0000
0100
0000
0000
0100
0000
0000
0100
0000
,
0001
0000
1000
0000
0001
0000
1000
0000
0010
0000
0000
0010
0000
0000
0010
0000
,
1000
0000
0001
1000
0010
0000
0101
0000
,
0001
0000
0001
0000
1000
0000
1000
0000
0100
0000
0100
1000
0000
0000
0000
0000
,
0000
0000
1000
0000
0001
0000
0001
0000
0100
0000
0100
0001
0000
0000
0000
0000
,
0001
0000
0001
0000
1000
0000
1000
0000
0010
0000
0010
1000
0000
0000
0000
0000
,
0000
0000
1000
0001
0100
0000
1020
0000
,
1030
0000
0100
0000
1000
0000
0100
0000
1000
0000
0100
0020
0000
0000
0000
0000
,
0031
0000
0100
0000
0001
0000
0100
0000
0001
0000
0100
0020
0000
0000
0000
0000
,
1030
0000
0100
0000
1000
0000
0100
0000
1000
0000
0100
0020
0000
0000
0000
0000
,
0030
0000
0001
1000
0010
0000
0101
0000
,
0001
0000
0001
0000
1000
0000
1000
0000
0100
0000
0100
0010
0000
0010
0100
0000
,
0000
0000
1000
0000
0001
0000
0001
0000
0100
0000
0100
0010
0000
0010
0100
0000
,
0001
0000
0001
0000
1000
0000
1000
0000
0100
0000
0100
0010
0000
0010
0100
0000
,
0000
0000
1000
0001
0100
0000
0120
0000
,
1030
1000
1000
1000
,
0001
0000
0001
0100
0000
0001
0000
2000
,
0100
0000
0100
0000
0100
0000
0100
3000
,
0001
0000
0001
1000
0000
0100
0010
0100
,
2000
0000
0010
0000
0010
0000
0010
3000
,
0001
0000
0001
1000
0000
0100
0010
0002
,
0100
0000
0100
0000
0100
0000
0103
0001
,
0020
0030
0100
2000
3000
0001
2000
0000
,
3001
0100
0001
0000
1000
0100
1000
0000
,
0002
0000
0003
2000
3000
0020
0030
0200
,
0001
0000
0001
0000
0001
0300
0001
0000
,
2000
3000
0001
0200
0300
0020
0030
2000
,
3100
1000
0100
0000
1000
0100
1000
0000
,
0001
0100
0001
0000
1000
0010
1000
0000
,
0001
1000
0001
1000
0001
1000
0001
1000
,
0020
0000
0030
0200
0300
0002
0003
2000
,
3001
0100
0001
1000
0001
0100
0001
0000
,
1000
0100
1000
0001
1000
0100
1000
0000
,
0001
0010
0001
1000
0001
0010
0001
0000
,
2000
3000
0100
0020
0030
0002
0003
2000
,
3000
0002
0100
0000
1000
0000
0100
0003
,
2000
3000
0010
0200
0300
0001
0100
0010
,
2000
0000
0100
0000
0001
0000
0100
3000
,
0002
0000
0003
0200
0300
0020
0030
2000
,
0002
0000
3000
0000
0003
0000
1000
0000
0001
0000
0001
0000
0020
0000
0000
0031
,
0000
0000
0000
0000
1000
0000
0010
0000
0100
0000
0100
0000
0002
0000
0000
1003
,
0000
0000
0000
0000
0000
0000
1000
0000
0100
0000
0100
0000
0020
0000
0000
0031
,
0020
0030
0001
2000
3000
0100
0010
0100
,
2000
0000
0000
0000
3001
0000
0001
0100
0000
0010
0000
0200
0000
0000
0301
0000
,
2000
0000
0000
3200
0000
0302
0000
0203
,
2300
0000
0000
3020
0000
0032
0000
0023
,
2030
0000
0000
3200
0000
0320
0000
0032
,
2000
0003
0000
0000
0000
0000
0000
0000
,
3000
0000
0000
0000
;

//--------------- dance-single - Haley Halcyon ----------------
#NOTES:
     dance-single:
     Haley Halcyon:
     Hard:
     13:
     0,0,0,0,0:
0000
0000
0000
0000
,
0000
0000
0000
0000
,
0000
0000
0000
0000
,
0000
0000
0000
0000
,
1000
0001
0000
0001
2000
0000
3200
0000
,
0302
0100
0003
0100
2000
0000
3020
0000
,
0032
0010
0003
0010
2000
0000
3200
0000
,
0320
0230
0302
0203
,
2300
0001
3000
0001
0200
0000
0320
0000
,
0032
0010
0003
0010
0200
0000
0302
0000
,
2003
0100
3000
0100
0010
0001
1000
0020
,
0000
0230
0000
2300
0000
3200
0000
0302
,
1000
0003
1000
0000
1000
0100
0020
0000
,
0031
0000
0001
1000
0100
0010
2000
3020
,
0001
0000
0001
0000
0031
0100
0010
2000
,
0000
3002
0000
2003
3010
0002
0013
2000
,
3001
0001
0100
0100
0010
1000
0010
0010
,
1000
1000
0100
0010
0001
1000
0001
0100
,
0010
1000
0010
1000
0001
0100
0001
0100
,
0001
1000
0001
1000
0001
1000
0001
1000
0001
0000
0000
0000
0000
0000
0000
0000
,
1000
0000
0100
0000
0010
0000
0100
0000
0001
0000
0100
1000
0000
0001
1000
0000
,
0000
0001
0100
0000
0010
0000
0100
0000
1000
0000
0100
0010
0000
1000
0001
0000
,
1000
0000
0100
0000
0010
0000
0100
0000
0001
0000
0100
0010
0000
0001
1000
0000
,
0001
0000
0001
0000
0100
0001
0000
0100
0010
0000
0000
1000
0001
0000
1000
0000
,
1001
0000
0001
0000
1001
0000
1000
0000
1100
0000
0100
0001
0000
0000
0000
0000
,
0000
0100
1000
0000
1001
0000
0001
0000
0101
0000
0100
1000
0000
0000
0000
0100
,
0001
0000
0001
0000
1001
0000
1000
0000
1100
0000
0100
0001
0000
0000
0000
0000
,
0100
0100
1000
0001
0100
0000
0002
0000
,
1003
0000
0100
0000
0010
0000
0100
0000
1000
0000
0100
0002
0000
0000
0000
0000
,
1003
0000
0010
0000
0100
0000
0010
0000
1000
0000
0010
0002
0000
0000
0000
0000
,
1003
0000
0010
0000
0100
0000
0010
0000
1000
0000
0010
0002
0000
0000
0000
0000
,
0013
0000
0010
0000
1000
0000
0001
0000
0010
0000
0100
0000
0001
0100
1000
0001
,
1000
0000
1000
0000
1001
0000
0001
0000
0100
0000
0010
1000
0000
0010
0100
0000
,
0000
0000
0001
0000
1001
0000
1000
0000
0100
0000
0010
0001
0000
0010
0100
0000
,
1001
0000
1000
0000
1001
0000
0001
0000
0100
0000
0010
1000
0000
0010
0100
0000
,
0001
0000
0001
0000
1000
0000
0100
0000
0010
0000
0000
0000
0020
0000
0000
0030
,
0001
0000
0001
0000
0001
0000
0001
1000
,
0200
0000
0310
0002
0000
0203
0000
0320
,
1000
0000
1000
0030
1000
0000
1000
0000
,
0002
0000
0203
0320
0000
0032
0023
2030
,
3002
0000
1000
0000
1000
0003
1000
0000
,
2000
0000
3200
0320
0000
2030
3010
0020
,
0032
0000
1000
0000
1000
0003
1000
0002
,
0203
0000
0320
2030
0000
3002
0000
0000
,
1003
1000
0001
0001
1000
1000
0001
0001
,
1000
1000
0010
0001
0010
1000
0100
0010
,
0001
0001
1000
1000
0001
0001
1000
1000
,
0010
0100
0010
1000
0100
0001
0100
1000
,
0001
0001
0010
0010
0001
0001
0010
0100
,
0001
0100
1000
0010
0100
0001
1000
0010
,
0100
0001
0100
0000
0001
0100
0001
0000
0100
0001
0100
0000
0001
0100
0001
0000
,
1000
0100
1000
0100
1000
0000
0001
0100
0001
0100
0001
0000
0020
0000
0000
0000
,
0031
0000
1000
0010
0000
0100
0010
0000
0001
0010
0000
0010
1000
0100
1000
0000
,
0001
0000
1000
0100
0000
0010
0001
0000
1000
0010
0100
1000
0000
0100
0001
0000
,
1000
0000
0001
0010
0000
0100
0010
0000
1000
0010
0100
0000
1000
0001
0100
0000
,
0002
0000
0203
0320
0000
2030
3200
0302
,
0000
0000
0203
0000
1000
0000
0300
0000
1000
0100
1000
0010
0000
0100
0010
0100
,
0002
0000
2003
3020
0000
0032
0023
2030
,
3001
1000
0100
0010
0000
0001
0100
0000
0000
1000
0100
0000
0000
0010
0100
0000
,
0001
1000
0010
0100
0000
1000
0100
0000
0010
0000
1010
0000
0101
0000
0001
0000
,
1001
0000
0000
0000
0000
0000
0000
0000
0000
0000
0000
0000
0000
0000
0000
0000
0000
0000
0000
0000
0000
0000
0000
0000
1000
0000
0000
0000
0000
0000
0000
0100
0000
0000
0000
0000
1000
0000
0000
0000
0000
0000
0000
0000
0000
0000
0000
0000
0100
0000
0000
0000
0000
0000
0000
0000
0000
0000
0000
0000
0100
0000
0000
0000
0000
0000
0000
0000
0000
0000
0000
0000
0010
0000
0000
0002
0000
0000
0000
0000
0000
0000
0000
0000
0000
0000
0000
0000
0000
0000
0000
0013
0000
0000
0000
0000
,
0000
0000
0000
0000
0000
0000
0000
0000
0000
0000
0000
0000
0000
0000
0000
0000
0000
0000
0000
0000
0000
0000
0000
0000
0001
0000
0000
0000
0000
0000
0000
0100
0000
0000
0000
0000
0010
0000
0000
0000
0000
0000
0000
0000
0000
0000
0000
0000
0010
0000
0000
0000
0000
0000
0000
0000
0000
0000
0000
0000
1000
0000
0000
0000
0000
0000
0000
0000
0000
0000
0000
0000
0100
0000
0000
0020
0000
0000
0000
0000
0000
0000
0000
0000
0000
0000
0000
0000
0000
0000
0000
0130
0000
0000
0000
0000
,
0000
0000
0000
0000
0000
0000
0000
0000
0000
0000
0000
0000
0000
0000
0000
0000
0000
0000
0000
0000
0000
0000
0000
0000
0000
0000
0000
0000
0000
0000
0000
1000
0000
0000
0000
0000
0001
0000
0000
0000
0000
0000
0000
0000
0000
0000
0000
0000
0100
0000
0000
0000
0000
0000
0000
0000
0000
0000
0000
0000
0010
0000
0000
0000
0000
0000
0000
0000
0000
0000
0000
0000
0010
0000
0000
0002
0000
0000
0000
0000
0000
0000
0000
0000
0000
0000
0000
0000
0000
0000
0000
0013
0000
0000
0000
0000
,
2000
0000
3200
0320
0000
2030
3020
0032
,
2003
0000
0000
0000
0000
0000
0000
0000
0000
0000
0000
0000
0000
0000
0000
0000
0000
0000
0000
0000
0000
0000
0000
0000
3001
0000
0000
0000
0000
0000
0000
1000
0000
0000
0000
0000
0001
0000
0000
0000
0000
0000
0000
0100
0000
0000
0000
0000
0000
0000
0000
0000
0000
0000
0000
0100
0000
0000
0000
0000
0000
0000
0000
0000
0000
0000
0000
0001
0000
0000
0020
0000
0000
0000
0000
0000
0000
0000
0000
0000
0000
0000
0000
0000
0130
0000
0000
0000
0000
0000
0000
0000
0000
0000
0000
0000
,
2000
0000
0000
0000
0000
0000
0000
0000
0000
0000
0000
0000
0000
0000
0000
0000
0000
0000
0000
0000
0000
0000
0000
0000
3200
0000
0000
0000
0000
0000
0000
0000
0000
0000
0000
0000
0320
0000
0000
0000
0000
0000
0000
0000
0000
0000
0000
0000
0031
0000
0000
0000
0000
0000
0000
0100
0000
0000
0000
0000
0001
0000
0000
0000
0000
0000
0000
0000
0000
0000
0000
0000
0100
0000
0000
0020
0000
0000
0000
0000
0000
0000
0000
0000
0000
0000
0000
0000
0000
0000
0000
0130
0000
0000
0000
0000
,
0002
0000
0203
0320
0230
2300
3200
0320
,
2030
0000
3200
0320
0230
0302
0203
0320
,
0032
0000
0000
0000
0000
0000
0000
0000
0000
0000
0000
0000
0000
0000
0000
0000
0003
0000
0000
1000
0000
0000
0000
0000
0001
0000
0000
0000
0000
0000
0000
1000
0000
0000
0000
0000
0001
0000
0000
0000
0000
0000
0000
0100
0000
0000
0000
0000
0000
0000
0000
0000
0000
0000
0000
0100
0000
0000
0000
0000
0000
0000
0000
0000
0000
0000
0000
0000
0000
0000
0000
0000
0100
0000
0000
0002
0000
0000
0000
0000
0000
0000
0000
0000
0000
0000
0000
0000
0000
0000
0000
1003
0000
0000
0000
0000
;

//--------------- dance-single - Please don't review this one ----------------
#NOTES:
     dance-single:
     Please don't review this one:
     Challenge:
     25:
     0,0,0,0,0:
0000
0000
0000
0000
,
0000
0000
0000
0000
,
0000
0000
0000
0000
,
0000
0000
0000
0000
,
1000
0000
0001
0000
0100
0000
0001
0000
2000
3000
0100
0000
0020
0030
0100
0000
,
1000
0000
0100
0000
1000
0000
0100
0000
1000
0000
0100
0000
1000
0000
0000
0000
0000
0000
0001
0000
0000
0000
0000
0000
0200
0000
0000
0300
0000
0000
0010
0000
0000
0000
0000
0000
0002
0000
0000
0003
0000
0000
0010
0000
0000
0000
0000
0000
,
1000
0000
0001
0000
1000
0000
0001
0000
1000
0000
0001
0000
1000
0000
0000
0000
0000
0000
0100
0000
0000
0000
0000
0000
0020
0000
0000
0030
0000
0000
0001
0000
0000
0000
0000
0000
2000
0000
0000
3000
0000
0000
0010
0000
0000
0000
0000
0000
,
0100
0000
0010
0000
0100
0000
0010
0000
0100
0000
0010
0000
0100
0000
0000
0000
0000
0000
0001
0000
0000
0000
0000
0000
2000
0000
0000
3000
0000
0000
0100
0000
0000
0000
0000
0000
0002
0000
0000
0003
0000
0000
0100
0000
0000
0000
0000
0000
,
0100
0000
1000
0000
0010
0000
1000
0000
0100
0000
1000
0000
0010
0000
0000
0000
0000
0000
0100
0000
0000
0000
0000
0000
0002
0000
0000
0003
0000
0000
1000
0000
0000
0000
0000
0000
0200
0000
0000
0300
0000
0000
1000
0000
0000
0000
0000
0000
,
0010
0000
0100
0000
0010
0000
1000
0000
0010
0000
0100
0000
0010
0000
0000
0000
0000
0000
1000
0000
0000
0000
0000
0000
0200
0000
0000
0300
0000
0000
0001
0000
0000
0000
0000
0000
0200
0000
0000
0300
0000
0000
1000
0000
0000
0000
0000
0000
,
0001
0000
0100
0000
0010
0000
0100
0000
0001
0000
0100
0000
0010
0000
1000
0000
0001
0000
0100
0000
0010
0000
1000
0000
0001
0000
0000
0000
0000
0000
1000
0000
0000
0000
0000
0000
0100
0000
0000
0000
0000
0000
0002
0000
0000
0003
0000
0000
,
0100
0000
0000
0000
0000
0000
0020
0000
0000
0030
0000
0000
0100
0000
0000
0000
0000
0000
2000
0000
0000
3000
0000
0000
0001
0000
0000
0000
0000
0000
0200
0000
0000
0300
0000
0000
0001
0000
0000
0000
0000
0000
1000
0000
0001
0000
0100
0000
,
0010
1000
0001
0100
0010
1000
0001
0000
0000
1000
0000
0000
0100
0000
0000
0010
0000
0000
0001
0010
0100
1000
0100
0010
,
0001
0000
0000
1000
0000
0000
0010
0000
0000
0100
0000
0000
0001
0000
0000
1000
0000
0000
0100
0010
0100
0001
0100
0010
,
0100
1000
0100
1000
0100
1000
0100
1000
0100
1000
0100
1000
0100
0000
0000
1000
0000
0000
0001
0000
0000
0100
0000
0000
,
0010
0000
0000
0000
1000
0000
0000
0000
0010
0000
0000
0000
0100
0001
0100
0001
0100
0000
0000
0000
0010
1000
0010
1000
0010
0000
0000
0000
1000
0001
1000
0001
,
1000
0100
0010
0100
1000
0001
0100
0010
1000
0010
1000
0001
0010
0100
1000
0001
,
0010
0001
0100
0010
0100
0001
1000
0100
0010
0100
0010
0001
0010
0100
1000
0001
,
0100
0010
0100
0010
1000
0001
1000
0001
0010
0100
1000
0001
0100
0010
0100
0001
,
1000
0100
0010
0001
1000
0100
0010
0001
1000
0000
0000
0000
0000
0000
0000
0000
,
0001
1000
0001
1000
0001
0100
0001
0100
0010
0100
0010
0100
0010
1000
0010
1000
0001
0010
0100
1000
0001
0100
0001
0010
0100
1000
0001
0100
0001
0010
0100
1000
,
0001
0000
0001
0000
1000
0010
1000
0010
0100
0010
0100
0010
0100
0001
0100
0001
1000
0100
0010
0001
1000
0010
1000
0100
0010
0001
1000
0010
1000
0100
0010
0001
,
1000
0010
1000
0010
1000
0001
1000
0001
0010
0001
0010
0001
0010
0100
0010
0100
1000
0010
0100
0001
0010
0001
1000
0010
0100
0001
0010
0001
1000
0010
0100
0001
,
1000
0000
1000
0000
0001
0000
0100
0000
0010
0000
0100
0000
0001
1000
0001
1000
,
0001
0010
0001
0000
1000
0010
1000
0000
0001
0100
0001
0000
1000
0100
1000
0000
0001
0010
0100
0010
0001
0000
1000
0010
0100
0010
1000
0000
0000
0000
0000
0000
,
M000
0000
1000
0000
0001
0100
0001
0000
1000
0010
1000
0000
0001
0010
0001
0000
1000
0100
0010
0100
1000
0000
0001
0010
0100
0010
0001
0000
0000
0000
1000
0000
,
1000
0010
1000
0000
0001
0100
0001
0000
1000
0100
1000
0000
0001
0010
0001
0000
1000
0100
0010
0100
1000
0000
0001
0010
0100
0010
0001
1000
0010
0100
0001
1000
,
0001
0001
1000
0100
0010
0000
2002
3003
,
1000
0100
0001
0100
1000
0100
0001
0100
1000
0100
0001
0200
0000
0000
1300
0000
,
0001
0100
1000
0100
0001
0100
1000
0100
0001
0100
1000
0200
0000
0000
0301
0000
,
1000
0100
0001
0100
1000
0100
0001
0100
1000
0100
0001
0200
0000
0000
1300
0000
,
0001
0000
0001
0000
1000
0000
0100
0000
0010
0000
0100
0000
0010
0001
1000
0001
,
1000
0100
0010
0001
1000
0010
0100
0001
1000
0100
0010
0001
1000
0010
0100
0001
1000
0100
0010
0001
1000
0001
1000
0010
0100
0001
1000
0001
1000
0100
0010
0001
,
1000
0000
0000
0000
0001
0010
0100
1000
0001
0100
0010
1000
0001
0010
0100
1000
0001
0100
0010
1000
0001
1000
0001
0010
0100
1000
0001
1000
0001
0100
0010
1000
,
0001
0010
0100
1000
0001
0100
0010
1000
0001
0010
0100
1000
0001
0100
0010
1000
0001
0010
0100
1000
0001
1000
0001
0100
0010
1000
0001
1000
0001
0010
0100
1000
,
0001
0001
1000
0010
0100
0000
0002
0000
,
1003
0100
0010
0100
0010
0001
1000
0010
0100
0010
0100
0001
1000
0010
0100
0010
,
2000
3100
0010
0100
2000
3100
0020
0130
1000
0100
0020
0130
1000
0100
0020
0031
,
0100
0001
0010
0100
0010
0001
1000
0001
0010
0100
0010
0001
1000
0100
0010
0100
,
2000
3010
0100
0010
2000
3001
0020
0031
1000
0001
0020
0031
1000
0001
0010
0100
,
2000
3001
0100
0010
0100
0001
1000
0001
0010
0100
0010
0001
1000
0100
0010
0001
,
2000
3001
0100
0010
2000
3100
0020
0130
1000
0100
0020
0031
0200
0301
0020
0130
,
2000
3010
0100
0001
1000
0010
1000
0100
0010
0001
1000
0001
1000
0100
0020
0031
,
2000
3100
0010
0001
0200
0301
0020
0130
0010
0001
0200
0310
0100
0001
1000
0100
,
1000
1000
0001
0001
1000
1000
0001
0001
,
0010
0100
0010
0100
1000
0000
0001
0100
0001
0100
0010
1000
0010
1000
0001
1000
,
0001
1000
0001
1000
0001
0000
0001
0000
1000
0000
1000
0000
0001
0000
0001
0000
,
1000
0100
0010
0100
1000
0000
0001
0100
0001
0100
0010
0100
0010
0100
0001
0010
,
0001
0001
1000
1000
0001
0001
1000
1000
,
0100
0010
0001
0010
0100
1000
0100
1000
0010
0100
0001
0100
0001
0100
0010
1000
,
0001
0010
0100
1000
0001
0010
0100
1000
0001
0100
0010
1000
0001
0100
0010
1000
,
0001
1000
0001
1000
0001
1000
0001
0010
0100
1000
0100
1000
0100
1000
0100
0010
0100
0010
0200
0000
0000
2300
0000
0000
,
3001
1000
0001
1000
0001
1000
0001
1000
0001
0000
0010
0000
0001
0000
0100
0000
0010
0000
1000
0000
0100
0000
0010
0000
0100
0000
1000
0000
0001
0000
0100
0000
,
0001
1000
0001
1000
0001
1000
0001
1000
0001
0000
0100
0000
0010
0000
1000
0000
0100
0000
0010
0000
0100
0000
1000
0000
0001
0000
0010
0000
0100
0000
1000
0000
,
0001
1000
0001
1000
0001
1000
0001
1000
0001
0000
0100
0000
0010
0000
0100
0000
0010
0000
1000
0000
0100
0000
0010
0000
0001
0000
0010
0000
0100
0000
1000
0000
,
0001
1000
0001
1000
0001
0000
1000
0000
0100
1000
0100
0000
1000
0001
1000
0001
1000
0000
0100
0000
0010
0100
0010
0100
0010
0000
0001
0000
1000
0100
1000
0100
,
1000
0000
0010
0000
0100
0010
0100
0010
0100
0010
0100
0010
0100
0000
0001
0000
1000
0000
0100
0000
1000
0000
0001
0000
0100
0000
0001
0000
0010
0000
0001
0000
,
1000
0001
1000
0001
1000
0000
0100
0000
0010
0100
0010
0000
0001
0010
0001
0010
0001
0000
1000
0000
0010
1000
0010
1000
0010
0000
1000
0000
0100
1000
0100
1000
,
0100
1000
0100
1000
0100
0000
0010
0000
0100
0000
1000
0000
0001
0000
0100
0000
0010
0000
1000
0000
0010
0000
0100
0000
0001
0000
0100
0000
0010
0000
1000
0000
,
0001
1000
0001
1000
0001
0000
0100
0000
0010
0000
1000
0000
0001
1000
0001
1000
0001
0000
0010
0000
0100
1000
0100
1000
0100
0000
0010
0000
0100
0010
0100
0010
,
0001
0000
1000
0000
0100
0000
0010
0000
0001
0000
0100
0001
1000
0001
0100
0010
0100
0001
0100
0001
1000
0001
1000
0001
1000
0200
0000
0000
0000
0000
1300
0000
,
0001
0000
0100
0000
0010
0000
1000
0000
0100
0010
0100
0010
0001
0010
0001
0010
0001
1000
0001
1000
0010
0100
0010
0100
0001
0020
0000
0000
0000
0000
0130
0000
,
1000
0000
0001
0000
1000
0000
0010
0000
0100
0000
0001
0100
0001
1000
0001
1000
0100
0010
0001
0010
0100
1000
0100
0010
0001
0200
0000
0000
0000
0000
0310
0000
,
1000
0100
0010
0001
1000
0001
0100
0010
1000
0010
0100
0001
1000
0001
0010
0100
,
1000
0000
0001
0000
1000
0000
0010
0000
0100
0001
0100
0010
0100
0001
1000
0100
0010
0100
1000
0001
0100
0001
0010
0100
1000
0002
0000
0000
0103
0000
0000
0000
,
0001
0000
0010
0000
0100
0000
0010
0000
0001
0000
1000
0000
0001
0000
0100
0000
0001
0010
0001
1000
0100
0010
0100
1000
0001
0200
0000
0000
0000
0000
0310
0000
,
1000
0100
0010
0001
1000
0001
0100
0010
0100
0001
0010
0100
0010
0001
2000
0000
,
3001
0100
0010
1000
0001
0100
0010
0100
0001
0010
0100
0010
0001
1000
0100
0010
,
0002
0000
0000
0000
0000
0000
1003
0001
1000
0100
0010
0100
1000
0001
0100
0010
1000
0001
0100
0010
1000
0001
0010
0200
0000
0000
0000
0000
0000
0000
1300
0000
;
