#TITLE:The End Of Anthem;
#SUBTITLE:;
#ARTIST:RoughSketch;
#TITLETRANSLIT:;
#SUBTITLETRANSLIT:;
#ARTISTTRANSLIT:;
#GENRE:;
#CREDIT:;
#BANNER:The End Of Anthem.png;
#BACKGROUND:The End Of Anthem-bg.png;
#LYRICSPATH:;
#CDTITLE:;
#MUSIC:The End Of Anthem.ogg;
#OFFSET:-0.032000;
#SAMPLESTART:76.115028;
#SAMPLELENGTH:15.000000;
#SELECTABLE:YES;
#BPMS:0.000000=145.000000
;
#STOPS:120.000000=0.413792
;
#BGCHANGES:;
#KEYSOUNDS:;
#ATTACKS:;

//---------------dance-single - ----------------
#NOTES:
     dance-single:
     :
     Hard:
     13:
     0.590585,0.706241,0.738231,0.369116,0.139444,504.000000,414.000000,90.000000,45.000000,0.000000,0.000000,0.590585,0.706241,0.738231,0.369116,0.139444,504.000000,414.000000,90.000000,45.000000,0.000000,0.000000:
0000
0000
0000
0000
,
0000
0000
0000
0000
,
0000
0000
0000
0000
,
0000
0000
0000
0000
,
0001
0100
0010
0100
1000
0100
0010
1000
,
0001
0010
0100
0010
1000
0010
0100
1000
,
0001
0010
0001
0000
1000
0100
1000
0000
0001
0100
0001
0000
1000
0010
1000
0000
,
0002
0023
0230
1300
,
1001
0000
1100
0000
0110
0000
0012
1000
,
0103
0000
1001
0000
0101
0000
1010
1000
,
1100
0000
1001
0000
0101
0000
0110
0010
,
1010
0001
1100
0001
1000
1000
0001
0001
,
0101
0000
0110
0000
1001
0000
2100
0001
,
3010
0000
0011
0000
1100
1001
0101
0000
,
1010
0000
0011
0000
0110
0000
1100
0001
,
2000
0000
0000
0000
3001
0100
0001
0100
0010
0000
0110
0000
0002
0000
0000
0000
,
0023
0000
0000
0000
0032
0000
0000
0000
1003
0000
0100
1000
0002
0000
0003
1000
,
0001
0000
0100
0000
0010
1000
0010
1000
0001
0000
0100
0000
0002
0000
0000
0000
,
2003
0000
0000
0000
3002
0000
0000
0000
0103
0000
0010
0100
0002
0000
0003
1000
,
0002
0000
0000
0000
1003
0100
1000
0000
1100
0000
1001
0000
0021
0000
0000
0000
,
0230
0000
0000
0000
2300
0000
0000
0000
3001
0000
0010
0001
2000
0000
3000
0001
,
2000
0000
0000
0000
3010
0000
0100
0001
0100
0000
0110
0000
2010
0000
0000
0000
,
3002
0000
0000
0000
2003
0000
0000
0000
3001
0000
0100
0000
2000
0000
3000
0100
,
0020
0000
0000
0000
1030
0001
1000
0000
0010
0000
1000
0000
0001
0000
1000
0000
,
0200
0000
0300
0000
0100
0000
0100
1000
,
0010
1000
0000
1000
0000
1000
0000
1000
,
0001
0000
0001
0000
0001
0000
0010
0001
,
0010
0100
0000
0100
0000
0100
1000
0001
,
1000
0000
1000
0000
1000
0000
0001
0100
,
0001
0010
0000
0010
0000
0010
0000
0010
,
0100
0000
1001
0000
0001
1000
0000
0011
,
0000
1100
0000
0001
1000
0100
0010
0000
,
1100
0000
1001
0000
1000
0100
0001
0100
,
0010
0001
0100
1000
0100
0010
1000
0000
,
1010
0000
1001
0000
0001
0100
1000
0001
,
0010
0100
0001
0010
1000
0001
0100
0000
,
0110
0000
0011
0000
1000
0010
0001
0010
,
0100
0001
0010
1000
0010
0100
1000
0000
,
1001
0000
0110
0000
0001
1000
0000
1100
,
0000
0101
0000
0001
0100
0010
1000
1000
,
0000
0010
0000
1000
0000
0001
1000
0010
,
1000
0200
0000
0000
0000
0000
0310
0010
,
0000
0001
0000
1000
0000
0001
1000
0001
,
0010
0200
0000
0000
0000
0000
1300
0000
,
1001
0000
0000
0000
1100
0000
0000
0000
0100
0010
0100
0010
0001
0000
0000
0000
,
1001
0000
0000
0000
0101
0000
0000
0000
0001
0100
0001
1000
0010
0000
0000
0000
,
1001
0000
0000
0000
1000
0000
0001
0000
1001
0000
0000
1000
0010
0000
0000
0000
,
1000
0001
1000
0001
0100
0000
0110
0000
1002
0000
0000
0000
0103
0000
0000
0000
,
1010
0000
0000
0000
0001
0000
0100
0010
1000
0000
0010
0000
0100
0000
0001
0000
,
0010
0100
0000
0220
0000
0330
1100
0000
,
0011
0000
0000
0000
0010
0000
0001
0000
1000
0000
0000
0010
1000
0000
0100
0000
,
0010
0100
0000
2002
0000
3003
0011
0000
,
0101
0000
0000
0000
1000
0000
0001
1000
0010
0000
0110
0000
0010
0000
1000
0000
,
0100
1100
0000
0022
0000
0033
1001
0000
,
0110
0000
0000
0000
1001
0000
1001
0000
1001
0000
0001
1000
0100
0000
0010
0000
,
0001
1000
0001
1000
0010
0000
0100
0000
0220
0000
0330
0000
0101
0000
0001
0000
,
0100
0010
1000
0010
0100
0001
1000
0100
,
1000
0002
0000
0000
0003
0000
0011
0010
,
0100
1000
0001
0100
0001
1000
0010
0100
,
0010
2000
0000
0000
3000
0000
1010
0010
,
0100
0001
0100
0010
0100
0001
0010
0100
,
1000
0200
0000
0000
0300
0000
1100
0001
,
1000
0001
0010
0001
1000
0100
0010
0100
,
1000
0002
0000
0000
0000
0000
1003
0000
,
1100
0000
0000
0000
1010
0000
0000
0000
0101
0000
0001
0100
0010
0000
0100
0000
,
0010
0000
0000
0000
0110
0000
0000
0000
1001
0000
1000
0001
0100
0000
0000
0000
,
0101
0000
0000
0000
0011
0000
0000
0000
0110
0000
0010
0100
1000
0000
0002
0000
,
1003
0002
0203
0000
0320
0000
1030
0000
,
1000
0010
0010
0110
,
0100
0001
0001
1001
,
0101
0000
0110
0000
1010
0000
1001
0100
,
1001
0010
1001
0100
1001
0000
0110
0000
;

//---------------dance-single - ----------------
#NOTES:
     dance-single:
     :
     Medium:
     9:
     0.410129,0.529681,0.623395,0.451141,0.000000,350.000000,274.000000,76.000000,55.000000,0.000000,0.000000,0.410129,0.529681,0.623395,0.451141,0.000000,350.000000,274.000000,76.000000,55.000000,0.000000,0.000000:
0000
0000
0000
0000
,
0000
0000
0000
0000
,
0000
0000
0000
0000
,
0000
0000
0000
0000
,
1100
1100
1001
1001
,
0101
0101
1001
1001
,
1000
0100
1000
0100
0010
0001
0010
0001
,
2000
3002
2003
3001
,
0101
0101
0110
0110
,
1010
1010
0110
0110
,
0101
0101
1001
1001
,
0011
0011
1001
1001
,
1100
1100
0110
0110
,
0011
0011
0110
0110
,
1001
1001
0011
1010
,
2002
0000
0000
3003
,
0002
0000
1003
0000
0001
1000
0001
0000
,
1000
0000
0100
0000
0010
0100
0010
0000
,
0001
0000
0100
0000
0001
0100
0010
0000
,
0100
0000
0001
0000
1000
0010
1000
0000
,
0220
0330
0202
0303
,
0022
0033
2200
3300
,
1002
0100
0010
1003
,
1001
0000
1000
0010
0100
0001
2000
0000
,
3002
0000
0000
0000
0000
0000
0003
0100
,
0000
0010
0000
0010
0000
0010
0000
0010
,
2000
0000
0000
0000
0000
0000
3000
0100
,
0000
0010
0000
0010
0000
0010
0100
0010
,
0002
0000
0000
0000
0000
0000
0003
0100
,
0000
0010
0000
0010
0000
0010
0000
0010
,
1000
0000
1000
0000
0001
0100
0000
0010
,
0000
0100
0000
0010
1000
0001
2000
0000
,
0100
0000
0001
0000
3100
0010
0000
0100
,
0000
0100
0000
0100
0000
0010
0002
0000
,
0010
0000
1000
0000
0013
0100
0000
0100
,
0000
0100
0000
0100
0010
0001
2000
0000
,
0100
0000
0001
0000
3100
1000
0000
0001
,
0000
0001
0000
0001
0000
0001
0010
0000
,
0110
0000
1001
0000
0110
0000
0000
1000
,
0000
1000
0000
1000
0010
0100
0002
0000
,
0000
0000
0000
0000
0003
0000
0001
0100
,
0001
0020
0000
0000
0000
0000
0230
0000
,
0000
0000
0000
0000
0300
0000
0100
0010
,
0100
2000
0000
0000
0000
0000
3001
0000
,
0101
1001
0101
1001
,
1100
1001
1100
0220
,
0000
0000
0000
0000
,
0000
0000
0330
1100
,
1100
0000
0011
0000
0011
0000
0010
0001
,
0010
0200
0000
0020
0330
0000
0011
0000
,
0011
0000
1010
0000
1010
0000
0010
1000
,
0001
2000
0000
0200
3300
0000
0101
0000
,
0101
0000
1010
0000
1010
0000
1000
0001
,
0100
0002
0000
0020
0033
0000
0110
0000
,
0110
0000
1001
0000
1001
0000
0001
0100
,
1000
0000
1000
0100
0002
0000
1003
0100
,
0000
0010
0000
0001
0000
0001
0010
0100
,
1000
0200
0000
0000
1300
0000
0001
0100
,
0000
0010
0000
1000
0000
1000
0010
0100
,
0001
0020
0000
0000
0031
0000
1000
0100
,
0000
0010
0000
0100
0000
1000
0001
0100
,
0010
2000
0000
0000
0000
0000
3001
0000
,
0101
1001
1100
1001
,
0011
0220
0330
0200
,
2300
3002
0023
0032
,
0203
0000
0320
0000
1030
0001
2000
0000
,
3020
0032
0203
2300
,
3002
2003
3001
0001
,
0001
0100
0100
0010
,
0010
1000
1000
0001
,
0010
0100
1000
0100
,
0100
0100
0200
0310
;

//---------------dance-single - ----------------
#NOTES:
     dance-single:
     :
     Easy:
     6:
     0.247249,0.294267,0.049215,0.237875,0.000000,211.000000,205.000000,6.000000,29.000000,0.000000,0.000000,0.247249,0.294267,0.049215,0.237875,0.000000,211.000000,205.000000,6.000000,29.000000,0.000000,0.000000:
0000
0000
0000
0000
,
0000
0000
0000
0000
,
0000
0000
0000
0000
,
0000
0000
0000
0000
,
1000
0100
1000
0001
,
0100
0001
1000
0100
,
0010
0001
1000
0010
,
0200
0000
0000
0300
,
0001
0001
0100
0100
,
0001
0001
1000
1000
,
0010
0010
1000
1000
,
0001
0001
2002
3003
,
1000
1000
0100
0100
,
0010
0010
0100
0100
,
1000
1000
0001
0001
,
0100
0010
0100
0010
,
1000
0010
0100
0010
,
1000
0001
0100
0010
,
1000
0001
0010
0001
,
0010
0100
0010
0001
,
2000
3000
0002
0003
,
2000
3000
0002
0003
,
0010
0010
0100
0100
,
0010
0001
1000
0001
,
0200
0000
0000
0000
,
0000
0000
0000
0000
,
0300
0000
0000
0000
,
0000
0000
0000
0000
,
1000
0000
1000
0100
,
0010
0100
0010
0001
,
0100
0000
0000
0000
0000
0001
0000
1000
,
0000
0002
0000
0000
0003
0000
1000
0000
,
1000
0000
1000
0000
0000
0100
0000
0100
,
0000
0100
0000
0100
0000
0000
0010
0000
,
0010
0000
0010
0000
0000
0001
0000
0001
,
0000
0001
0000
0001
0000
0000
0100
0000
,
0100
0000
0100
0000
0000
0010
0000
0010
,
0000
0010
0000
0010
0000
0000
2000
0000
,
3020
0230
0302
1003
,
0000
0000
0000
1000
,
0000
0100
0000
0000
0000
0000
0100
0000
,
0000
0010
0000
0000
0000
0000
0001
0000
,
0000
0100
0000
0000
0000
0000
0010
0000
,
0000
0010
0000
0000
0000
0000
1000
0000
,
1000
0100
0100
0010
,
0010
0001
0001
1001
,
0000
0000
0000
0000
,
0000
0000
0002
1003
,
0010
1000
0010
0100
,
0000
0001
0000
0001
0000
0000
0001
0000
,
0010
0001
0010
0100
,
0000
1000
0000
1000
0000
0000
1000
0000
,
0010
0100
0001
0100
,
0000
0010
0000
0010
0000
0000
0001
0000
,
0010
0001
1000
0100
,
0100
0200
0300
1000
,
0001
2000
3000
0010
,
0000
0200
0000
0000
0300
0000
0001
0000
,
1000
0002
0003
0100
,
0000
0020
0000
0000
0030
0000
1000
0000
,
0001
2000
3000
1001
,
0000
2002
0000
0000
3003
0000
0001
0000
,
1000
0200
0300
0110
,
0000
0220
0000
0000
0330
0000
1000
0000
,
1000
0100
0100
1000
,
1000
0001
0001
1000
,
1000
0010
0010
0200
,
0320
0230
0300
0001
,
0001
0001
0001
1000
,
1000
1000
1000
0002
,
0000
0000
0003
0001
,
0100
0001
1000
0010
;

//---------------dance-single - ----------------
#NOTES:
     dance-single:
     :
     Beginner:
     2:
     0.126554,0.176560,0.041013,0.000000,0.000000,108.000000,103.000000,5.000000,0.000000,0.000000,0.000000,0.126554,0.176560,0.041013,0.000000,0.000000,108.000000,103.000000,5.000000,0.000000,0.000000,0.000000:
// measure 0
0000
0000
0000
0000
,  // measure 1
0000
0000
0000
0000
,  // measure 2
0000
0000
0000
0000
,  // measure 3
0000
0000
0000
0000
,  // measure 4
1000
0000
0000
0000
,  // measure 5
0001
0000
0000
0000
,  // measure 6
0010
0000
0000
0000
,  // measure 7
0100
0100
0100
0100
,  // measure 8
1000
0000
0000
0000
,  // measure 9
1000
0000
1000
0000
,  // measure 10
0001
0000
0000
0000
,  // measure 11
0001
0000
0001
0000
,  // measure 12
0100
0000
0000
0000
,  // measure 13
0100
0000
0100
0000
,  // measure 14
0010
0000
0000
0000
,  // measure 15
0010
0010
0010
0010
,  // measure 16
0010
0000
0000
0000
,  // measure 17
1000
0000
0001
0000
,  // measure 18
0100
0000
0001
0000
,  // measure 19
1000
0000
0001
0000
,  // measure 20
1000
0000
0100
0000
,  // measure 21
1000
0000
0001
0000
,  // measure 22
0100
0000
0000
0000
,  // measure 23
0010
0010
0010
0010
,  // measure 24
0000
0000
0000
0000
,  // measure 25
0000
0000
0000
0000
,  // measure 26
0000
0000
0000
0000
,  // measure 27
0000
0000
0000
0000
,  // measure 28
1000
0000
0000
0000
,  // measure 29
0001
0000
0000
0000
,  // measure 30
1001
0000
0000
0000
,  // measure 31
0000
0000
0000
0001
,  // measure 32
0000
0000
0000
0001
,  // measure 33
0000
0100
0000
0010
,  // measure 34
0000
0000
0000
0010
,  // measure 35
0000
1000
0000
0100
,  // measure 36
0000
0000
0000
0100
,  // measure 37
0000
0010
0000
0001
,  // measure 38
0000
0000
0000
1000
,  // measure 39
0000
0000
0000
1001
,  // measure 40
0000
0000
0000
0000
,  // measure 41
0000
0000
0000
0110
,  // measure 42
0000
0000
0000
0000
,  // measure 43
0000
0000
0000
0001
,  // measure 44
0000
0100
0000
0010
,  // measure 45
0000
1000
0000
1001
,  // measure 46
0000
0000
0000
0000
,  // measure 47
0000
0000
1000
1000
,  // measure 48
0000
0100
0000
1000
,  // measure 49
0000
0100
0000
0010
,  // measure 50
0000
0001
0000
0010
,  // measure 51
0000
0001
0000
0100
,  // measure 52
0000
0001
0000
0100
,  // measure 53
0000
0001
0000
1000
,  // measure 54
0000
0010
0000
0100
,  // measure 55
0100
0100
0100
0000
,  // measure 56
0001
0000
0001
0000
,  // measure 57
1000
0000
1000
0000
,  // measure 58
0001
0000
0001
0000
,  // measure 59
1000
0000
1000
0000
,  // measure 60
0100
0000
0100
0000
,  // measure 61
0010
0000
0010
0010
,  // measure 62
0000
0000
0000
0110
,  // measure 63
0000
0000
0000
0001
,  // measure 64
0000
0000
0000
0001
,  // measure 65
0000
0000
0000
1000
,  // measure 66
0000
0000
0000
1000
,  // measure 67
0000
0000
0000
0010
,  // measure 68
0000
0000
0000
0010
,  // measure 69
0000
0000
0000
0100
,  // measure 70
0000
0000
0000
0100
,  // measure 71
0100
0100
0100
0010
;
