#VERSION:0.83;
#TITLE:The Clock Song;
#SUBTITLE:;
#ARTIST:ぶどうとう;
#TITLETRANSLIT:;
#SUBTITLETRANSLIT:;
#ARTISTTRANSLIT:Budoutou;
#GENRE:;
#ORIGIN:;
#CREDIT:;
#BANNER:The Clock Song.png;
#BACKGROUND:The Clock Song-bg.png;
#PREVIEWVID:;
#JACKET:The Clock Song-jacket.png;
#CDIMAGE:;
#DISCIMAGE:;
#LYRICSPATH:;
#CDTITLE:;
#MUSIC:The Clock Song.ogg;
#OFFSET:-0.070000;
#SAMPLESTART:0.079000;
#SAMPLELENGTH:2.400000;
#SELECTABLE:YES;
#BPMS:0.000=150.000;
#STOPS:;
#DELAYS:;
#WARPS:103.000=12.000;
#TIMESIGNATURES:0.000=4=4;
#TICKCOUNTS:0.000=4;
#COMBOS:0.000=1;
#SPEEDS:0.000=1.000=0.000=0;
#SCROLLS:0.000=1.000,
72.000=0.000,
75.000=1.000,
76.000=0.100,
76.750=3.700,
77.000=0.100,
77.750=3.700,
78.000=0.100,
78.750=3.700,
79.000=0.100,
79.750=3.700,
80.000=0.000,
83.000=1.000,
84.000=0.100,
84.750=3.700,
85.000=0.100,
85.750=3.700,
86.000=0.100,
86.750=3.700,
87.000=0.100,
87.750=3.700,
88.000=1.000,
89.000=0.100,
89.250=1.900,
89.500=0.100,
89.750=1.900,
90.000=1.000,
91.000=0.100,
91.250=1.900,
91.500=0.100,
91.750=1.900,
92.000=0.100,
92.750=3.700,
93.000=0.100,
93.750=3.700,
94.000=0.100,
94.750=3.700,
95.000=0.100,
95.750=3.700,
96.000=0.100,
96.750=3.700,
97.000=0.100,
97.750=3.700,
98.000=0.100,
98.750=3.700,
99.000=0.100,
99.750=3.700,
100.000=0.100,
100.750=3.700,
101.000=0.100,
101.750=3.700,
102.000=0.100,
102.750=3.700,
103.000=1.000,
115.000=0.100,
115.750=3.700,
116.000=0.350;
#FAKES:;
#LABELS:0.000=Song Start;
#BGCHANGES:2.833=The Clock Song.avi=1.000=0=0=0=StretchNoLoop====,
99999=-nosongbg-=1.000=0=0=0 // don't automatically add -songbackground-
;
#KEYSOUNDS:;
#ATTACKS: TIME=41.68:LEN=50.00:MODS=*1000 100% Boost,*1000 200% Dizzy,*0.5 100% Dark: TIME=43.88:LEN=50.00:MODS=*1000 100% Invert: TIME=51.68:LEN=50.00:MODS=*1 no dark, *0.7 no dizzy;

//---------------dance-single - ----------------
#NOTEDATA:;
#CHARTNAME:;
#STEPSTYPE:dance-single;
#DESCRIPTION:;
#CHARTSTYLE:;
#DIFFICULTY:Hard;
#METER:10;
#RADARVALUES:0.182314,0.326168,0.253429,0.000000,0.004526,141.000000,113.000000,28.000000,0.000000,20.000000,0.000000,0.000000,0.000000,0.000000,0.182314,0.326168,0.253429,0.000000,0.004526,141.000000,113.000000,28.000000,0.000000,20.000000,0.000000,0.000000,0.000000,0.000000;
#CREDIT:;
#ATTACKS:;
#NOTES:
// measure 0
0000
0000
0000
0000
,  // measure 1
0000
0000
0000
0000
,  // measure 2
1100
0000
0100
0010
0001
0000
1000
0010
,  // measure 3
0100
0100
1000
0100
0001
0000
0010
0010
,  // measure 4
0100
0000
1000
0100
1000
0000
0001
0100
,  // measure 5
1000
0100
0010
1010
,  // measure 6
0101
0000
0100
0010
1000
0000
0001
0010
,  // measure 7
0100
0100
0001
0100
1000
0000
0010
0010
,  // measure 8
0100
0000
0001
0100
0001
0000
1000
0100
,  // measure 9
0001
0100
0010
0000
,  // measure 10
0011
0000
0010
0100
1000
0000
0001
0100
,  // measure 11
0010
0001
0010
1000
0001
0000
1000
0100
,  // measure 12
0010
0000
0001
0010
0001
0000
1000
0010
,  // measure 13
0001
0000
0010
0000
0100
0000
0001
1000
,  // measure 14
0100
0000
0010
0010
0000
0000
0010
0100
,  // measure 15
0010
0000
0010
0000
0010
0000
0001
1000
,  // measure 16
0010
0000
0100
0010
0001
0000
0010
1000
,  // measure 17
0001
0010
0010
0100
,  // measure 18
MMMM
0000
0000
0000
,  // measure 19
1100
0011
0101
1010
,  // measure 20
MMMM
0000
0000
0000
,  // measure 21
0101
1010
1100
0011
,  // measure 22
MMMM
0000
1001
1010
MMMM
0000
1001
0011
,  // measure 23
1001
1010
0110
0101
,  // measure 24
1001
1100
0110
0011
,  // measure 25
1001
0110
1001
0000
,  // measure 26
0000
0000
0000
0000
,  // measure 27
0000
0000
0000
0000
,  // measure 28
0000
0000
0000
MMMM
,  // measure 29
0000
0000
0000
0000
,  // measure 30
0000
0000
0000
0000
,  // measure 31
0000
0000
0000
0000
,  // measure 32
0000
0000
0000
0000
,  // measure 33
0000
0000
0000
0000
,  // measure 34
0000
0000
0000
0000
,  // measure 35
0000
0000
0000
0000
,  // measure 36
0000
0000
0000
0000
0000
0000
0000
1001
0000
0000
0000
0000
0000
0000
0000
0000
0000
0000
0000
0000
0000
0000
0000
0000
0000
0000
0000
0000
0000
0000
0000
0000
0000
0000
0000
0000
0000
0000
0000
0000
0000
0000
0000
0000
0000
0000
0000
0000
0000
0000
0000
0000
0000
0000
0000
0000
0000
0000
0000
0000
0000
0000
0000
0000
0000
0000
0000
0000
0000
0000
0000
0000
0000
0000
0000
0000
0000
0000
0000
0000
0000
0000
0000
0000
0000
0000
0000
0000
0000
0000
0000
0000
0000
0000
0000
0000
0000
0000
0000
0000
0000
0000
0000
0000
0000
0000
0000
0000
0000
0000
0000
0000
0000
0000
0000
0000
0000
0000
0000
0000
0000
0000
0000
0000
0000
0000
0000
0000
0000
0000
0000
0000
0000
0000
0000
0000
0000
0000
0000
0000
0000
0000
0000
0000
0000
0000
0000
0000
0000
0000
0000
0000
0000
0000
0000
0000
0000
0000
0000
0000
0000
0000
0000
0000
0000
0000
0000
0000
0000
0000
0000
0000
0000
0000
0000
0000
0000
0000
0000
0000
0000
0000
0000
0000
0000
0000
0000
0000
0000
0000
0000
0000
;

//---------------pump-couple - ----------------
#NOTEDATA:;
#CHARTNAME:;
#STEPSTYPE:pump-couple;
#DESCRIPTION:;
#CHARTSTYLE:;
#DIFFICULTY:Beginner;
#METER:1;
#RADARVALUES:0.023274,0.562070,0.063357,0.000000,0.000000,18.000000,9.000000,7.000000,0.000000,0.000000,2.000000,0.000000,0.000000,0.000000,0.033618,0.811879,0.072408,0.000000,0.000000,26.000000,9.000000,8.000000,0.000000,0.000000,8.000000,0.000000,0.000000,0.000000;
#CREDIT:;
#ATTACKS:;
#NOTES:
0000000000
0000000000
0000000000
0000000000
,
0000000000
0000000000
0000000000
0000000000
,
0000000000
0000000000
0000000000
0000000000
,
0000000000
0000000000
0000000000
0000000000
,
0000000000
0000000000
0000000000
0000000000
,
0000000000
0000000000
0000000000
0000000000
,
0000000000
0000000000
0000000000
0000000000
,
0000000000
0000000000
0000000000
0000000000
,
0000000000
0000000000
0000000000
0000000000
,
0000000000
0000000000
0000000000
0000000000
,
0000000000
0000000000
0000000000
0000000000
,
0000000000
0000000000
0000000000
0000000000
,
0000000000
0000000000
0000000000
0000000000
,
0000000000
0000000000
0000000000
0000000000
,
0000000000
0000000000
0000000000
0000000000
,
0000000000
0000000000
0000000000
0000000000
,
0000000000
0000000000
0000000000
0000000000
,
0000000000
0000000000
0000000000
0000000000
,
0000000000
0000000000
0000000000
0000000000
,
0000000000
0000000000
0000000000
0000000000
,
0000000000
0000000000
0000000000
0000000000
,
0000000000
0000000000
0000000000
0000000000
,
0000000000
0000000000
0000000000
0000000000
,
0000000000
0000000000
0000000000
0000000000
,
0000000000
0000000000
0000000000
0000000000
,
0000000000
0000000000
0000000000
0000000000
,
0000000000
0000000000
0000000000
0000000000
,
0000000000
0000000000
0000000000
0000000000
,
0000000000
0000000000
0000000000
0000000000
,
0000000000
0000000000
0000000000
0000000000
,
0000000000
0000000000
0000000000
0000000000
,
0000000000
0000000000
0000000000
0000000000
,
0000000000
0000000000
0000000000
0000000000
,
0000000000
0000000000
0000000000
0000000000
,
0000000000
0000000000
0000000000
0000000000
,
0000000000
0000000000
0000000000
0000000000
,
0000000000
0000000000
0000000000
0000000000
,
0000000000
0000000000
0000000000
0000000000
,
0000000000
0000000000
0000000000
0000000000
,
0000000000
0000000000
0000000000
0000000000
,
0000000000
0000000000
0000000000
0000000000
,
0000000000
0000000000
0000000000
0000000000
,
0000000000
0000000000
0000000000
0000000000
,
0000000000
0000000000
0000000000
0000000000
,
0000000000
0000000000
0000000000
0000000000
,
0000000000
0000000000
0000000000
0000000000
,
0000000000
0000000000
0000000000
0000000000
,
0000000000
0000000000
0000000000
0000000000
,
0000000000
0000000000
0000000000
0000000000
,
0000000000
0000000000
0000000000
0000000000
,
0000000000
0000000000
0000000000
0000000000
,
0000000000
0000000000
0000000000
0000000000
,
0000000000
0000000000
0000000000
0000000000
,
0000000000
0000000000
0000000000
0000000000
,
0000000000
0000000000
0000000000
0000000000
,
0000000000
0000000000
0000000000
0000000000
,
0000000000
0000000000
0000000000
0000000000
,
0000000000
0000000000
0000000000
0000000000
,
0000000000
0000000000
0000000000
0000000000
,
0000000000
0000000000
0000000000
0000000000
,
0000000000
0000000000
0000000000
0000000000
,
0000000000
0000000000
0000000000
0000000000
,
0000000000
0000000000
0000000000
0000000000
,
0000000000
0000000000
0000000000
0000000000
,
0000000000
0000000000
0000000000
0000000000
,
0000000000
0000000000
0000000000
0000000000
,
0000000000
0000000000
0000000000
0000000000
,
0000000000
0000000000
0000000000
0000000000
,
0100010011
1010101011
1000101011
1000101011
1100011011
1010001011
1010001000
1010101011
,
0100010011
0000000000
0000000000
0000000000
;
