#TITLE:The Blue;
#SUBTITLE:;
#ARTIST:Blacklolita;
#TITLETRANSLIT:;
#SUBTITLETRANSLIT:;
#ARTISTTRANSLIT:;
#GENRE:;
#CREDIT:;
#MUSIC:The Blue.ogg;
#BANNER:The Blue.png;
#BACKGROUND:The Blue-bg.png;
#CDTITLE:;
#SAMPLESTART:75.594;
#SAMPLELENGTH:15.000;
#SELECTABLE:YES;
#OFFSET:1.206;
#BPMS:0.000=150.000;
#STOPS:;
#BGCHANGES:;
#FGCHANGES:;

//--------------- dance-single - Talkion ----------------
#NOTES:
     dance-single:
     Talkion:
     Beginner:
     3:
     0,0,0,0,0:
0000
0000
0000
0000
,
0000
0000
0000
0000
,
0000
0000
0000
0000
,
0000
0000
0000
0000
,
0000
0000
0000
0000
,
0000
0000
0000
0000
,
0000
0000
0000
0000
,
0000
0000
0000
0000
,
0000
0000
0000
0000
,
1000
0000
0000
0000
0000
1000
0000
0000
,
0001
0000
0000
0000
0000
0001
0000
0000
,
1000
0000
0000
0000
0000
1000
0000
0000
,
0001
0000
0000
0000
,
0010
0000
0000
0000
0000
0010
0000
0000
,
0100
0000
0000
0000
0000
0100
0000
0000
,
0010
0000
0000
0000
0000
0010
0000
0000
,
0000
0000
0000
0000
,
0001
0000
0000
0001
0000
0000
0000
0000
,
1000
0000
0000
1000
0000
0000
0000
0000
,
0010
0000
0000
0010
0000
0000
0000
0000
,
0100
0000
0100
0000
,
0001
0000
0000
0001
0000
0000
0000
0000
,
1000
0000
0000
1000
0000
0000
0000
0000
,
0100
0000
0000
0100
0000
0000
0000
0000
,
0010
0000
0010
0000
,
0001
0000
0000
1000
0000
0000
0000
0000
,
0001
0000
0000
0100
0000
0000
0000
0000
,
0001
0000
0000
1000
0000
0000
0000
0000
,
0001
0000
0001
0000
,
1000
0000
0000
0001
0000
0000
0000
0000
,
1000
0000
0000
0100
0000
0000
0000
0000
,
1000
0000
0000
0001
0000
0000
0000
0000
,
1000
0000
1000
0000
,
0020
0000
0000
0030
0000
0000
0000
0000
,
0200
0000
0000
0300
0000
0000
0000
0000
,
0002
0000
0000
0003
0000
0000
0000
0000
,
2000
0000
0000
3000
0000
0000
0000
0000
,
0200
0000
0000
0300
0000
0000
0000
0000
,
0020
0000
0000
0030
0000
0000
0000
0000
,
0002
0000
0000
0003
0000
0000
0000
0000
,
2000
0000
0000
3000
0000
0000
0000
0000
,
0001
0000
0000
0100
0000
0000
0000
0000
,
0010
0000
0000
1000
0000
0000
0000
0000
,
0001
0000
0000
0010
0000
0000
0000
0000
,
0100
0000
0100
0000
,
1000
0000
0000
0100
0000
0000
0000
0000
,
0010
0000
0000
0001
0000
0000
0000
0000
,
1000
0000
0000
0010
0000
0000
0000
0000
,
0200
0000
0000
0300
,
0100
0000
0000
0100
0000
0000
0100
0000
,
0001
0000
0000
0001
0000
0000
0010
0000
,
0100
0000
0000
0100
0000
0000
0100
0000
,
1000
0000
0000
1000
0000
0000
0001
0000
,
1000
0000
0000
1000
0000
0000
1000
0000
,
0010
0000
0000
0010
0000
0000
0100
0000
,
0001
0000
0000
0001
0000
0000
0001
0000
,
0010
0000
0010
0000
,
0100
0000
0000
0100
0000
0000
0010
0000
,
0001
0000
0000
0010
0000
0000
1000
0000
,
0010
0000
0000
0010
0000
0000
0100
0000
,
1000
0000
0000
0100
0000
0000
0010
0000
,
0001
0000
0000
0001
0000
0000
1000
0000
,
0010
0000
0000
0100
0000
0000
0001
0000
,
2002
0000
0000
0000
,
3003
0000
0000
0000
,
2000
0000
0000
0000
,
0000
0000
0000
0000
,
0000
0000
0000
0000
,
0000
0000
0000
0000
,
0000
0000
0000
0000
,
0000
0000
0000
0000
,
0000
0000
0000
0000
,
3000
0000
0000
0000
;

//--------------- dance-single - Talkion ----------------
#NOTES:
     dance-single:
     Talkion:
     Easy:
     6:
     0,0,0,0,0:
0000
0000
0000
0000
,
0000
0000
0000
0000
,
0000
0000
0000
0000
,
0000
0000
0000
0000
,
0000
0000
0000
0000
,
0000
0000
0000
0000
,
0000
0000
0000
0000
,
0000
0000
0000
0000
,
0000
0000
0000
0000
,
0001
0000
0000
0000
0000
1001
0000
0000
,
1000
0000
0000
0000
0000
1001
0000
0000
,
0001
0000
0000
0000
0000
0011
0000
0000
,
0010
0010
0010
0010
,
0100
0000
0000
0000
0000
1100
0000
0000
,
1000
0000
0000
0000
0000
1001
0000
0000
,
0001
0000
0000
0000
0000
1001
0000
0000
,
2000
3020
0230
0301
,
1000
0000
0000
1100
0000
0000
0100
0000
,
0010
0000
0000
0011
0000
0000
0001
0000
,
1000
0000
0000
1010
0000
0000
0010
0000
,
0100
0000
0001
0000
1000
0001
1000
0000
,
0100
0000
0000
1100
0000
0000
1000
0000
,
0001
0000
0000
0101
0000
0000
0100
0000
,
0010
0000
0000
1010
0000
0000
1000
0000
,
0001
0000
0010
0000
0100
0010
0100
0000
,
1000
0000
0000
0110
0000
0000
0001
0000
,
1000
0000
0000
0110
0000
0000
0001
0000
,
1000
0000
0000
1010
0000
0000
0010
0000
,
0200
0310
2000
3001
,
1000
0000
0000
0110
0000
0000
0001
0000
,
1000
0000
0000
0110
0000
0000
0001
0000
,
1000
0000
0000
1100
0000
0000
0100
0000
,
0020
0031
1000
1000
,
0002
0000
0000
0100
0000
0000
0003
0000
,
2000
0000
0000
0100
0000
0000
3000
0000
,
0002
0000
0000
0010
0000
0000
0003
0000
,
2000
0000
0000
0010
0000
0000
3000
0000
,
0020
0000
0000
0001
0000
0000
0030
0000
,
0020
0000
0000
1000
0000
0000
0030
0000
,
2000
0000
0000
0100
0000
0000
3000
0000
,
0200
0000
0000
0300
,
0010
0000
0000
1001
0000
0000
0100
0000
,
0010
0000
0000
1001
0000
0000
1000
0000
,
0001
0000
0000
0101
0000
0000
0100
0000
,
0020
0000
1030
0000
0001
1000
0000
0000
,
0100
0000
0000
1001
0000
0000
0010
0000
,
0100
0000
0000
1001
0000
0000
1000
0000
,
0001
0000
0000
0011
0000
0000
0010
0000
,
0200
0000
0000
0300
,
2001
0000
0000
0010
0000
0000
3100
0000
,
1002
0000
0000
0010
0000
0000
0103
0000
,
2001
0000
0000
0010
0000
0000
3100
0000
,
0020
0000
0031
0000
1000
0001
0100
0000
,
1002
0000
0000
0010
0000
0000
0103
0000
,
2001
0000
0000
0010
0000
0000
3100
0000
,
1002
0000
0000
0010
0000
0000
0103
0000
,
0020
0000
1030
0000
0010
1000
0001
0000
,
0021
0000
0000
0100
0000
0000
1030
0000
,
1020
0000
0000
0100
0000
0000
0031
0000
,
2001
0000
0000
0010
0000
0000
3100
0000
,
0020
0000
0031
0000
1000
0001
0100
0000
,
0201
0000
0000
0010
0000
0000
1300
0000
,
1200
0000
0000
0010
0000
0000
0301
0000
,
2002
0000
0000
0000
,
3003
0000
0000
0000
,
2000
0000
0000
0000
,
0000
0000
0000
0000
,
0000
0000
0000
0000
,
0000
0000
0000
0000
,
0000
0000
0000
0000
,
0000
0000
0000
0000
,
0000
0000
0000
0000
,
3000
0000
0000
0000
;

//--------------- dance-single - Talkion ----------------
#NOTES:
     dance-single:
     Talkion:
     Medium:
     10:
     0,0,0,0,0:
0000
0000
0000
0000
,
0000
0000
0000
0000
,
0000
0000
0000
0000
,
0000
0000
0000
0000
,
0000
0000
0000
0000
,
0000
0000
0000
0000
,
0000
0000
0000
0000
,
0000
0000
0000
0000
,
0000
0000
0000
0000
,
1000
0000
0000
0010
0000
0010
1000
0000
,
0001
0000
1000
0000
0100
0010
0001
0000
,
1000
0000
0000
0010
0000
0010
1000
0000
,
0001
0000
0000
0000
0010
0000
0010
0000
0001
0000
0000
0001
0000
0000
1000
0000
,
0001
0000
0000
0100
0000
0100
0001
0000
,
1000
0000
0001
0000
0010
0100
1000
0000
,
0001
0000
0000
0100
0000
0100
0001
0000
,
2001
3200
0320
0031
,
1000
0000
0010
1010
0000
0000
0010
0000
,
0200
0000
0310
0000
0001
0020
0130
0000
,
0001
0000
1000
1001
0000
0000
1000
0000
,
0200
0000
0310
0000
0100
1000
0010
0000
,
0100
0000
0001
0101
0000
0000
0001
0000
,
0020
0000
0130
0000
0001
0200
0310
0000
,
0001
0000
1000
1001
0000
0000
1000
0000
,
0020
0000
0031
0000
0010
1000
1000
1000
,
0001
0000
1000
0101
0000
0000
1000
0000
,
0002
0000
0013
0000
1000
0020
0031
0000
,
0100
0000
0010
1001
0000
0000
0010
0000
,
2000
0000
3001
0000
1000
0100
0010
0000
,
0001
0000
1000
0011
0000
0000
1000
0000
,
0002
0000
0103
0000
1000
0200
0301
0000
,
0010
0000
0100
1001
0000
0000
0100
0000
,
1000
0002
1003
0001
0100
0010
1000
0010
,
0200
0000
0000
0010
0000
0000
0000
0000
,
0302
0000
0000
0100
0000
0000
0000
0000
,
2003
0000
0000
0001
0000
0000
0000
0000
,
3200
0000
0000
1000
0000
0000
0000
0000
,
0320
0000
0000
0100
0000
0000
0000
0000
,
0032
0000
0000
0010
0000
0000
0000
0000
,
2003
0000
0000
0001
0000
0000
0000
0000
,
3020
0000
0130
0000
0010
0100
0000
0000
,
0001
0000
1000
1100
0000
0100
1000
0000
,
0001
0000
1000
1010
0000
0010
1010
0000
,
0001
0000
0100
0110
0000
0010
0110
0000
,
2000
0000
3001
0000
1000
0100
0000
0000
,
1000
0000
0001
0101
0000
0100
0101
0000
,
1000
0000
0001
0011
0000
0010
0011
0000
,
1000
0000
0010
0110
0000
0100
0110
0000
,
0002
0000
2000
3003
,
0001
0010
1000
0010
0000
0001
0001
0000
,
1000
0010
0001
0000
1000
0100
0001
0000
,
1000
0001
0010
0100
0000
1000
1000
0000
,
0001
0100
0010
0000
1000
0100
0010
0000
,
0001
0100
1000
0100
0000
0001
0001
0000
,
1000
0100
0001
0000
1000
0010
0001
0000
,
1000
0001
0100
0010
0000
1000
1000
0000
,
0002
0000
1003
0001
0010
0100
0100
0100
,
1000
0001
0100
0010
0000
0001
0001
0000
,
1000
0100
0001
0000
1000
0100
0010
0000
,
0001
0010
0100
1000
0000
0010
0010
0000
,
0001
0010
1000
0000
0001
0010
0100
0000
,
1000
0001
0100
1000
0000
0001
0001
0000
,
0010
1000
0100
0000
0010
0001
0100
0000
,
0120
0000
0000
0000
,
2030
3002
0023
0130
,
2001
0000
0100
0000
,
0010
0000
0100
0000
,
0010
0000
0100
0000
,
0010
0000
0100
0000
,
3002
0000
0100
0000
,
0010
0000
0100
0000
,
0010
0000
0100
0000
,
0013
0000
0000
0000
;

//--------------- dance-single - Talkion ----------------
#NOTES:
     dance-single:
     Talkion:
     Hard:
     12:
     0,0,0,0,0:
0000
0000
0000
0000
,
0000
0000
0000
0000
,
0000
0000
0000
0000
,
0000
0000
0000
0000
,
0000
0000
0000
0000
,
0000
0000
0000
0000
,
0000
0000
0000
0000
,
0000
0000
0000
0000
,
0000
0000
0000
0000
,
0002
0000
0000
0000
0100
0000
0000
0103
0000
0000
0001
0000
1000
0000
0000
0000
,
0100
0010
0002
0000
0103
0010
1000
0000
,
0002
0000
0000
0000
0010
0000
0000
0013
0000
0000
0001
0000
1000
0000
0000
0000
,
0010
0000
0100
0000
0010
0000
0010
0000
0010
0000
0010
0000
0000
1000
0000
0000
,
0002
0000
0000
0000
0010
0000
0000
0013
0000
0000
0001
0000
1000
0000
0000
0000
,
0010
0100
0002
0000
0013
0100
1000
0000
,
0002
0000
0000
0000
0100
0000
0000
0103
0000
0000
0001
0000
1000
0000
0000
0000
,
0100
0000
0000
0100
0000
0000
0200
0000
0310
0100
0000
1000
0001
0000
0000
0000
,
0101
0000
0100
2010
0000
3010
1001
0000
,
0001
0010
1000
0020
0000
0031
1000
0000
,
1010
0000
0010
0102
0000
0103
1001
0000
,
1000
0200
0301
0100
0010
0001
2000
0000
,
3010
0000
0100
1002
0000
0103
1001
0000
,
1000
0100
0001
0200
0000
1300
0001
0000
,
0101
0000
0010
2001
0000
3010
1001
0000
,
0001
0020
0130
1000
0001
1000
1000
1000
,
0010
0000
0100
0021
0000
0130
1010
0000
,
1000
0001
0010
0200
0000
1300
0001
0000
,
0101
0000
0010
1200
0000
0310
0101
0000
,
0001
0000
2000
0000
3100
0000
1000
0001
0000
1000
0001
0000
0100
0000
0000
0000
,
0110
0000
0001
0120
0000
1030
0110
0000
,
0001
1000
0100
0020
0000
0031
1000
0000
,
1001
0000
0001
0210
0000
1300
0110
0000
,
0001
0000
2000
0000
3010
0000
1000
0001
0000
1000
0001
0000
0010
0000
0010
0000
,
0002
0000
0000
2003
0000
0000
0001
0000
,
3200
0000
0000
0320
0000
0000
0100
0000
,
0032
0000
0000
2003
0000
0000
0001
0000
,
3020
0001
0100
1000
,
0230
0000
0000
0302
0000
0000
0100
0000
,
2003
0000
0000
3200
0000
0000
1000
0000
,
0320
0000
0000
0032
0000
0000
0010
0000
,
2003
0000
0000
0010
0000
3010
0000
0000
,
0110
0000
1000
0102
0000
1003
0101
0000
,
0001
0010
1000
0002
0000
0103
1000
0000
,
1001
0000
0001
2010
0000
3001
1010
0000
,
1000
0002
0013
0000
1000
0020
0000
0000
,
0031
0000
0100
1020
0000
0130
1010
0000
,
1000
0100
0001
2000
0000
3010
0001
0000
,
1001
0000
1000
0201
0000
1300
0100
0001
,
1000
0000
0000
1000
0000
0000
1000
0000
0100
0000
0010
0000
0000
0000
0000
0000
,
0011
0000
0000
0001
1000
0000
0010
0000
0000
0010
0100
0000
0001
0000
0000
0000
,
0100
0000
0000
0100
0010
0000
1000
0000
0001
0000
0020
0000
0130
0000
0000
0000
,
1100
0000
0000
1000
0001
0000
0100
0000
0000
0100
0010
0000
1000
0000
0000
0000
,
0001
0020
1030
0001
0100
1000
0001
0000
,
1001
0000
0000
1000
0010
0000
0100
0000
0000
0100
0001
0000
1000
0000
0000
0000
,
0001
0000
0000
0001
0010
0000
0100
0000
1000
0000
0002
0000
0103
0000
0000
0000
,
0110
0000
0000
0010
1000
0000
0001
0000
0000
0001
0010
0000
0100
0000
0000
0000
,
1000
0200
0301
1000
0010
0100
0100
0100
,
1000
0000
0000
1000
0001
0000
0100
0000
0000
0100
1000
0000
0100
0000
0000
0000
,
0001
0000
0000
0001
1000
0000
0100
0000
0001
0000
0200
0000
0310
0000
0000
0000
,
1001
0000
0000
0001
1000
0000
0010
0000
0000
0010
0001
0000
0010
0000
0000
0000
,
0100
0020
1030
0001
0010
0100
1000
0000
,
1001
0000
0000
0001
0100
0000
0010
0000
0000
0010
1000
0000
0001
0000
0000
0000
,
0010
0000
0000
0010
1000
0000
0001
0000
0100
0000
1000
0000
0001
0000
0000
0000
,
2002
0000
0000
3003
,
1000
0000
0000
1000
0000
0000
1000
0000
0010
0000
0100
0000
0001
0000
0000
0000
,
2000
0000
0100
0000
,
0010
0000
0100
0000
,
0010
0000
0100
0000
,
0010
0000
0100
0000
,
3002
0000
0100
0000
,
0010
0000
0100
0000
,
0010
0000
0100
0000
,
0013
0000
0000
0000
;

//--------------- dance-single - Talkion ----------------
#NOTES:
     dance-single:
     Talkion:
     Challenge:
     15:
     0,0,0,0,0:
0000
0000
0000
0000
,
0000
0000
0000
0000
,
0000
0000
0000
0000
,
0000
0000
0000
0000
,
0000
0000
0000
0000
,
0000
0000
0000
0000
,
0000
0000
0000
0000
,
0000
0000
0000
0000
,
0000
0000
0000
0000
,
2000
0000
0000
0000
0100
0000
0000
3100
0000
0000
1000
0000
0001
0000
0000
0000
,
0100
0010
2000
0000
3100
0010
0001
0000
,
2000
0000
0000
0000
0010
0000
0000
3010
0000
0000
1000
0000
0001
0000
0000
0000
,
1000
0000
0100
0000
0010
0000
0010
0000
0010
0000
0010
0001
0000
0010
0001
1000
,
0020
0000
0000
0000
0100
0000
0000
0130
0000
0000
0010
0000
1000
0000
0000
0000
,
0100
0010
0002
0000
0103
0010
1000
0000
,
0002
0000
0000
0000
0010
0000
0000
0013
0000
0000
0001
0000
2000
0000
0000
0000
,
3010
0100
0001
0100
0010
0000
1000
0000
0001
0020
0000
1030
0010
0000
0001
0000
,
1001
0000
0000
1000
0010
0000
1010
0000
0000
1000
0001
0000
1000
0100
0010
0000
,
0001
0000
0000
0000
0000
0000
0000
0000
0000
1000
0000
0000
0001
0000
0000
0000
0000
0000
0100
0000
0000
0000
0000
0000
0010
0000
0000
0000
0000
0000
0100
0000
0010
0000
0100
0000
0010
0000
0000
0000
0000
0000
1000
0000
0000
0000
0000
0000
,
1001
0000
0000
0001
0010
0000
0011
0000
0000
0001
1000
0000
0001
0100
0010
0000
,
1000
0000
0000
0000
0000
0000
0100
0000
1000
0000
0100
0000
1000
0000
0000
0000
0000
0000
0001
0000
0000
0100
0000
0000
0010
0000
0000
0000
0000
0000
1000
0000
0000
0000
0000
0000
0002
0000
0000
0000
0000
0000
0000
0000
0000
0000
0000
0000
,
0013
0000
0000
0001
1000
0000
1010
0000
0000
0010
0100
0000
0001
0100
0010
0000
,
1000
0000
0000
0000
0000
0000
0000
0000
0000
0001
0000
0000
1000
0000
0000
0000
0000
0000
0100
0000
0000
0000
0000
0000
0010
0000
0000
0000
0000
0000
0100
0000
0010
0000
0100
0000
0010
0000
0000
0000
0000
0000
0001
0000
0000
0000
0000
0000
,
1001
0000
0000
1000
0010
0000
1010
0000
0000
1000
0001
0000
0010
0100
1000
0000
,
0001
0000
0000
1000
0010
1000
0010
0000
0000
0100
0000
0000
0010
0000
0000
0010
0000
0000
0010
0000
0000
0010
0000
0000
,
1001
0000
0000
1000
0100
0000
1100
0000
0000
0100
0001
0000
0100
0010
0001
0000
,
1000
0000
0000
0000
0000
0000
0000
0000
0000
0010
0000
0000
0100
0000
0000
0000
0000
0000
0001
0000
0000
0000
0000
0000
1000
0000
0000
0000
0000
0000
0100
0000
1000
0000
0100
0000
1000
0000
0000
0000
0000
0000
0001
0000
0000
0000
0000
0000
,
1001
0000
0000
0001
0100
0000
0101
0000
0000
0100
1000
0000
0100
0010
1000
0000
,
0001
0000
0000
0000
0000
0000
0010
0000
0001
0000
0010
0000
0001
0000
0000
0000
0000
0000
1000
0000
0000
0010
0000
0000
0000
0000
0000
0001
0000
0000
0010
0000
0000
0000
0000
0000
0100
0000
0000
0010
0000
0000
0100
0000
0000
0010
0000
0000
,
1000
0000
0000
0001
1000
0000
1100
0000
0000
0100
0010
0000
1000
0010
0100
0000
,
0010
0000
0000
0000
0000
0000
0000
0000
0000
0001
0000
0000
1000
0000
0000
0000
0000
0000
0010
0000
0000
0000
0000
0000
0100
0000
0000
0000
0000
0000
0010
0000
0100
0000
0010
0000
0100
0000
0000
0000
0000
0000
0001
0000
0000
0000
0000
0000
,
1001
0000
0000
0001
0010
0000
0011
0000
0000
0010
1000
0000
0010
0100
1000
0000
,
0001
0000
0100
0010
1000
0000
0001
0010
0000
0100
1000
0000
0001
0000
0001
0000
,
0201
0000
0310
2010
0000
0000
3100
0010
,
0012
0000
0103
0120
0000
0000
0031
0010
,
2010
0000
3100
0120
0000
0000
0031
1000
,
0020
0000
0000
0100
0000
0130
0001
0000
,
2001
0000
3100
0120
0000
0000
0031
1000
,
1020
0000
0130
0201
0000
0301
0100
0010
,
2000
0001
3000
1200
0000
0000
0301
0100
,
0020
0000
0000
0130
0010
0010
0000
0000
,
0011
0000
0000
0001
1000
0000
1010
0000
0000
0010
0001
0000
0010
1000
0001
0000
,
1000
0000
0000
0000
0000
0000
0000
0000
0000
0100
0000
0000
1000
0000
0000
0000
0000
0000
0001
0000
0000
0000
0000
0000
0100
0000
0000
0000
0000
0000
0010
0000
0100
0000
0010
0000
0100
0000
0000
0000
0000
0000
0010
0000
0000
0000
0000
0000
,
1010
0000
0000
1000
0001
0000
0011
0000
0000
0010
1000
0000
0010
0001
1000
0000
,
0010
0000
0000
0000
0000
0000
0100
0000
0001
0000
0100
0000
0001
0000
0000
0000
0000
0000
1000
0000
0000
0000
0000
0000
0100
0000
0000
0010
0000
0000
0001
0000
0000
0000
0000
0000
2000
0000
0000
0000
0000
0000
0000
0000
0000
0000
0000
0000
,
3010
0000
0000
0100
0001
0000
0101
0000
0000
0100
1000
0000
0100
0001
1000
0000
,
0001
0000
0000
0000
0000
0000
0000
0000
0000
0010
0000
0000
0001
0000
0000
0000
0000
0000
1000
0000
0000
0000
0000
0000
0010
0000
0000
0000
0000
0000
0100
0000
0010
0000
0100
0000
0010
0000
0000
0000
0000
0000
1000
0000
0000
0000
0000
0000
,
1001
0000
0000
0000
0000
0000
0000
0000
0000
0001
0000
0000
1000
0000
0000
0000
0000
0000
1100
0000
0000
0000
0000
0000
0000
0000
0000
0100
0000
0000
0010
0000
0000
0000
0000
0000
0001
0000
1000
0000
0001
0000
1000
0000
0000
0010
0000
0000
,
0200
0000
0000
1000
0000
0000
0001
0000
0020
0000
0030
0000
0300
0000
0000
0000
,
1010
0000
1000
0010
0100
0000
0101
0000
0000
0001
1000
0000
0001
0010
1000
0000
,
0010
0000
0000
0000
0000
0000
0000
0000
0000
0100
0000
0000
0010
0000
0000
0000
0000
0000
0001
0000
0000
0000
0000
0000
0100
0000
0000
0010
0000
0000
1000
0000
0001
0000
1000
0000
0001
0000
0000
0000
0000
0000
0010
0000
0000
0000
0000
0000
,
0011
0000
0001
0010
0100
0000
1100
0000
0000
1000
0001
0000
1000
0010
0001
0000
,
0010
0000
0000
0000
0000
0000
0100
0000
0010
0000
0100
0000
0010
0000
0000
0000
0000
0000
1000
0000
0000
0001
0000
0000
0010
0000
0000
0100
0000
0000
1000
0000
0000
0000
0000
0000
0001
0000
0000
0000
0000
0000
0000
0000
0000
0000
0000
0000
,
0101
0000
0001
0100
0010
0000
1010
0000
0000
1000
0001
0000
1000
0100
0001
0000
,
0100
0000
0000
0000
0000
0000
0000
0000
0000
0010
0000
0000
0100
0000
0000
0000
0000
0000
1000
0000
0000
0000
0000
0000
0010
0000
0000
0100
0000
0000
0001
0000
1000
0000
0001
0000
1000
0000
0000
0000
0000
0000
0100
0000
0000
0000
0000
0000
,
1100
0000
1000
0100
0010
0000
0011
0000
0000
0001
1000
0000
0001
0100
1000
0000
,
0100
0000
0000
0000
0000
0000
0010
0000
0100
0000
0010
0000
0100
0000
0000
0000
0000
0000
0001
0000
0000
0100
0000
0000
0010
0000
0000
1000
0000
0000
0001
0000
0000
0000
0000
0000
0001
0000
0000
0000
0000
0000
0001
0000
0000
0000
0000
0000
,
1001
0000
1000
0100
0001
0000
1001
0000
0000
1000
0010
0000
0001
1000
0010
0000
,
0100
0000
0000
0000
0000
0000
0010
0000
0000
0100
0000
0000
0001
0000
0000
0000
0000
0000
1000
0000
0000
0000
0000
0000
0100
0000
0000
0010
0000
0000
0001
0000
1000
0000
0001
0000
1000
0000
0000
0000
0000
0000
0001
0000
0000
0000
0000
0000
,
1001
0000
1000
0010
0001
0000
1001
0000
0000
1000
0100
0000
0001
1000
0100
0000
,
0010
0000
0000
0000
0000
0000
0100
0000
0010
0000
0100
0000
0010
0000
0000
0000
0000
0000
0001
0000
0000
1000
0000
0000
0010
0000
0000
0100
0000
0000
0001
0000
0000
0000
0000
0000
1000
0000
0000
0000
0000
0000
0000
0000
0000
0000
0000
0000
,
1001
0000
0001
0010
1000
0000
1001
0000
0000
0001
0100
0000
1100
0000
0000
0000
,
1001
0000
0001
0100
1000
0000
1001
0000
0000
0001
0010
0000
1010
0000
0000
0000
,
2002
0000
0000
3003
,
0001
0100
0010
0100
0001
0000
1000
0000
0100
0002
0000
0103
1000
0000
0000
0000
,
0120
0000
0001
0000
,
1000
0000
0001
0000
,
1000
0000
0001
0000
,
1000
0000
0031
0000
,
0210
0000
1000
0000
,
0001
0000
1000
0000
,
0001
0000
1000
0000
,
03M0
0000
0000
0000
0000
0M00
0000
0000
0000
0000
00M0
0000
0000
0000
0000
0M00
0000
0000
00M0
0000
0000
0M00
0000
0000
,
00M0
0000
0000
0000
0000
0000
0000
0000
0000
0000
0000
0000
0000
0000
0000
0000
0000
0000
0000
0000
0000
0000
0000
0000
0M00
0000
0000
0000
0000
0000
0000
0000
0000
0000
0000
0000
0000
0000
0000
0000
0000
0000
0000
0000
00M0
0000
0000
0000
0000
0000
0000
0000
0000
0000
0000
0000
0M00
0000
0000
0000
0000
0000
0000
0000
0000
0000
0000
0000
0000
00M0
0000
0000
0000
0000
0000
0000
0000
0000
0M00
0000
0000
0000
0000
0000
0000
0000
0000
00M0
0000
0000
0000
0000
0M00
0000
0000
0000
0000
0000
0000
0000
00M0
0000
0000
0000
0000
0000
0000
0000
0000
0000
0000
0000
0M00
0000
0000
0000
0000
0000
0000
0000
0000
0000
0000
0000
0000
0000
00M0
0000
0000
0000
0000
0000
0000
0000
0000
0000
0000
0000
0000
0000
0000
0000
0000
0000
0000
0000
0000
0000
0M00
0000
0000
0000
0000
0000
0000
0000
0000
0000
0000
0000
0000
0000
0000
0000
0000
0000
0000
0000
0000
0000
0000
0000
0000
0000
0000
0000
0000
0000
0000
0000
00M0
0000
0000
0000
0000
0000
0000
0000
0000
0000
0000
0000
;

//--------------- dance-double - Talkion ----------------
#NOTES:
     dance-double:
     Talkion:
     Edit:
     15:
     0,0,0,0,0:
00000000
00000000
00000000
00000000
,
00000000
00000000
00000000
00000000
,
00000000
00000000
00000000
00000000
,
00000000
00000000
00000000
00000000
,
00000000
00000000
00000000
00000000
,
00000000
00000000
00000000
00000000
,
00000000
00000000
00000000
00000000
,
00000000
00000000
00000000
00000000
,
00000000
00000000
00000000
00000000
,
20000000
00000000
00000000
00000000
01000000
00000000
00000000
31000000
00000000
00000000
00010000
00000000
00001000
00000000
00000000
00000000
,
00010000
00000010
00000200
00000000
00000301
00000010
00000100
00000000
,
00020000
00000000
00000000
00000000
00001000
00000000
00000000
00031000
00000000
00000000
00100000
00000000
00010000
00000000
00000000
00000000
,
10000000
00000000
00100000
00000000
01000000
00000000
01000000
00000000
01000000
00000000
01000000
00001000
00000000
01000000
00010000
01000000
,
00002000
00000000
00000000
00000000
00010000
00000000
00000000
00013000
00000000
00000000
00000100
00000000
00001000
00000000
00000000
00000000
,
00000001
00000100
00000020
00000000
00010030
00000100
00000010
00000000
,
00002000
00000000
00000000
00000000
00010000
00000000
00000000
00013000
00000000
00000000
00001000
00000000
02000000
00000000
00000000
00000000
,
03100000
10000000
00010000
10000000
00100000
00000000
01000000
00000000
00001000
00020000
00000000
00030010
00001000
00000000
00000001
00000000
,
00001001
00000000
00000000
00001000
00000100
00000000
00010100
00000000
00000000
00010000
00001000
00000000
01000000
00100000
00000000
00000000
,
01000000
00000000
00000000
00000000
00000000
00000000
00000000
00000000
00000000
00001000
00000000
00000000
00010000
00000000
00000000
00000000
00000000
00000000
00000010
00000000
00000000
00000000
00000000
00000000
00000100
00000000
00000000
00000000
00000000
00000000
00000001
00000000
00001000
00000000
00000001
00000000
00001000
00000000
00000000
00000000
00000000
00000000
00000100
00000000
00000000
00000000
00000000
00000000
,
00010100
00000000
00000000
00010000
00001000
00000000
01001000
00000000
00000000
01000000
00100000
00000000
10000000
00010000
00000000
00000000
,
10000000
00000000
00000000
00000000
00000000
00000000
01000000
00000000
10000000
00000000
01000000
00000000
10000000
00000000
00000000
00000000
00000000
00000000
00010000
00000000
00000000
00100000
00000000
00000000
00001000
00000000
00000000
00000000
00000000
00000000
01000000
00000000
00000000
00000000
00000000
00000000
00200000
00000000
00000000
00000000
00000000
00000000
00000000
00000000
00000000
00000000
00000000
00000000
,
10300000
00000000
00000000
00010000
00100000
00000000
00101000
00000000
00000000
00001000
00010000
00000000
00000010
00000100
00000000
00000000
,
00000010
00000000
00000000
00000000
00000000
00000000
00000000
00000000
00000000
00010000
00000000
00000000
00001000
00000000
00000000
00000000
00000000
00000000
01000000
00000000
00000000
00000000
00000000
00000000
00100000
00000000
00000000
00000000
00000000
00000000
10000000
00000000
00010000
00000000
10000000
00000000
00010000
00000000
00000000
00000000
00000000
00000000
00100000
00000000
00000000
00000000
00000000
00000000
,
00101000
00000000
00000000
00001000
00010000
00000000
00010010
00000000
00000000
00000010
00000100
00000000
00000001
00001000
00000000
00000000
,
00000100
00000000
00000000
00010000
00001000
00010000
00001000
00000000
00000000
00100000
00000000
00000000
01000000
00000000
00000000
01000000
00000000
00000000
01000000
00000000
00000000
01000000
00000000
00000000
,
10010000
00000000
00000000
10000000
00100000
00000000
00110000
00000000
00000000
00010000
00001000
00000000
00000010
00000100
00000000
00000000
,
00000010
00000000
00000000
00000000
00000000
00000000
00000000
00000000
00000000
00000001
00000000
00000000
00001000
00000000
00000000
00000000
00000000
00000000
00000100
00000000
00000000
00000000
00000000
00000000
00010000
00000000
00000000
00000000
00000000
00000000
00001000
00000000
00100000
00000000
00001000
00000000
00100000
00000000
00000000
00000000
00000000
00000000
00010000
00000000
00000000
00000000
00000000
00000000
,
01010000
00000000
00000000
01000000
00001000
00000000
00011000
00000000
00000000
00010000
00000100
00000000
00000010
00000100
00000000
00000000
,
00010000
00000000
00000000
00000000
00000000
00000000
00001000
00000000
01000000
00000000
00001000
00000000
01000000
00000000
00000000
00000000
00000000
00000000
00010000
00000000
00000000
00100000
00000000
00000000
00000000
00000000
00000000
00001000
00000000
00000000
00010000
00000000
00000000
00000000
00000000
00000000
00000100
00000000
00000000
00000010
00000000
00000000
00000100
00000000
00000000
00000000
00000000
00000000
,
00001000
00000000
00000000
00000001
00000100
00000000
00001100
00000000
00000000
00001000
00010000
00000000
01000000
00100000
00000000
00000000
,
01000000
00000000
00000000
00000000
00000000
00000000
00000000
00000000
00000000
10000000
00000000
00000000
00010000
00000000
00000000
00000000
00000000
00000000
00100000
00000000
00000000
00000000
00000000
00000000
00001000
00000000
00000000
00000000
00000000
00000000
00010000
00000000
00000100
00000000
00010000
00000000
00000100
00000000
00000000
00000000
00000000
00000000
00001000
00000000
00000000
00000000
00000000
00000000
,
00001010
00000000
00000000
00000010
00001000
00000000
00011000
00000000
00000000
00010000
01000000
00000000
00100000
10000000
00000000
00000000
,
00010000
00000000
00100000
00001000
00010000
00000000
00000010
00000100
00000000
00000001
00000100
00000000
00000010
00000000
00000010
00000000
,
00002010
00000000
00013000
00210000
00000000
00000000
01300000
10000000
,
10020000
00000000
01030000
01002000
00000000
00000000
00003100
00000010
,
00002010
00000000
00013000
00210000
00000000
00000000
01300000
10000000
,
00020000
00000000
00000000
00031000
00000000
00000010
00000100
00000000
,
00002100
00000000
00013000
02010000
00000000
00000000
13000000
00010000
,
00210000
00000000
00301000
00001020
00000000
00000130
00000010
00000001
,
00002000
00000100
00003000
00020100
00000000
00000000
01030000
10000000
,
00020000
00000000
00000000
01030000
00001000
00001000
00000000
00000000
,
00011000
00000000
00000000
00010000
00000100
00000000
00000110
00000000
00000000
00000010
00001000
00000000
00010000
00001000
00000000
00000000
,
01000000
00000000
00000000
00000000
00000000
00000000
00000000
00000000
00000000
00100000
00000000
00000000
01000000
00000000
00000000
00000000
00000000
00000000
00001000
00000000
00000000
00000000
00000000
00000000
00100000
00000000
00000000
00000000
00000000
00000000
00010000
00000000
00100000
00000000
00010000
00000000
00100000
00000000
00000000
00000000
00000000
00000000
00001000
00000000
00000000
00000000
00000000
00000000
,
00011000
00000000
00000000
00010000
01000000
00000000
01100000
00000000
00000000
00100000
00001000
00000000
00010000
00001000
00000000
00000000
,
00000100
00000000
00000000
00000000
00000000
00000000
00000010
00000000
00000100
00000000
00000010
00000000
00000100
00000000
00000000
00000000
00000000
00000000
00000001
00000000
00000000
00000000
00000000
00000000
00001000
00000000
00000000
00000100
00000000
00000000
00000010
00000000
00000000
00000000
00000000
00000000
00002000
00000000
00000000
00000000
00000000
00000000
00000000
00000000
00000000
00000000
00000000
00000000
,
00013000
00000000
00000000
01000000
10000000
00000000
10010000
00000000
00000000
00010000
00100000
00000000
00001000
00010000
00000000
00000000
,
00000010
00000000
00000000
00000000
00000000
00000000
00000000
00000000
00000000
00000100
00000000
00000000
00000010
00000000
00000000
00000000
00000000
00000000
00010000
00000000
00000000
00000000
00000000
00000000
00000100
00000000
00000000
00000000
00000000
00000000
00010000
00000000
00000100
00000000
00010000
00000000
00000100
00000000
00000000
00000000
00000000
00000000
00010000
00000000
00000000
00000000
00000000
00000000
,
00011000
00000000
00000000
00000000
00000000
00000000
00000000
00000000
00000000
00001000
00000000
00000000
00000010
00000000
00000000
00000000
00000000
00000000
00000011
00000000
00000000
00000000
00000000
00000000
00000000
00000000
00000000
00000001
00000000
00000000
00001000
00000000
00000000
00000000
00000000
00000000
00000100
00000000
00010000
00000000
00000100
00000000
00010000
00000000
00000000
00001000
00000000
00000000
,
02000000
00000000
00000000
00100000
00000000
00000000
10000000
00000000
00020000
00000000
00030000
00000000
03000000
00000000
00000000
00000000
,
10010000
00000000
10000000
01000000
00100000
00000000
00011000
00000000
00000000
00000100
00010000
00000000
00000010
00001000
00000001
00000000
,
00000100
00000000
00000000
00000000
00000000
00000000
00000000
00000000
00000000
00000010
00000000
00000000
00000100
00000000
00000000
00000000
00000000
00000000
00001000
00000000
00000000
00000000
00000000
00000000
00010000
00000000
00000000
00001000
00000000
00000000
00100000
00000000
00010000
00000000
00100000
00000000
00010000
00000000
00000000
00000000
00000000
00000000
10000000
00000000
00000000
00000000
00000000
00000000
,
10010000
00000000
00010000
00100000
00001000
00000000
00010100
00000000
00000000
00010000
00000010
00000000
00001000
00000010
00000100
00000000
,
00000001
00000000
00000000
00000000
00000000
00000000
00001000
00000000
00000100
00000000
00001000
00000000
00000100
00000000
00000000
00000000
00000000
00000000
00010000
00000000
00000000
00000010
00000000
00000000
00001000
00000000
00000000
00000001
00000000
00000000
00000100
00000000
00000000
00000000
00000000
00000000
00000010
00000000
00000000
00000000
00000000
00000000
00000000
00000000
00000000
00000000
00000000
00000000
,
00001001
00000000
00000001
00000010
00000100
00000000
00011000
00000000
00000000
00100000
00001000
00000000
01000000
00010000
10000000
00000000
,
00100000
00000000
00000000
00000000
00000000
00000000
00000000
00000000
00000000
01000000
00000000
00000000
00100000
00000000
00000000
00000000
00000000
00000000
00010000
00000000
00000000
00000000
00000000
00000000
00001000
00000000
00000000
00010000
00000000
00000000
00000100
00000000
00001000
00000000
00000100
00000000
00001000
00000000
00000000
00000000
00000000
00000000
00000001
00000000
00000000
00000000
00000000
00000000
,
00001001
00000000
00001000
00000100
00010000
00000000
00101000
00000000
00000000
00001000
01000000
00000000
00100000
01000000
00010000
00000000
,
01000000
00000000
00000000
00001000
00010000
00001000
00010000
00000000
00000000
00000010
00000000
00000000
00000100
00000000
00000000
00000100
00000000
00000000
00000100
00000000
00000000
00000100
00000000
00000000
,
00001001
00000000
00000001
00000010
00001000
00000000
00011000
00000000
00000000
00010000
00100000
00000000
01000000
00100000
10000000
00000000
,
00010000
00000000
00000000
00000000
00000000
00000000
10000000
00000000
00000000
01000000
00000000
00000000
00010000
00000000
00000000
00000000
00000000
00000000
00001000
00000000
00000000
00000000
00000000
00000000
00100000
00000000
00000000
00001000
00000000
00000000
00010000
00000000
00000100
00000000
00010000
00000000
00000100
00000000
00000000
00000000
00000000
00000000
00001000
00000000
00000000
00000000
00000000
00000000
,
00001001
00000000
00000001
00000100
00001000
00000000
00011000
00000000
00000000
00010000
01000000
00000000
10000000
00010000
01000000
00000000
,
00100000
00000000
00000000
00000000
00000000
00000000
01000000
00000000
00010000
00000000
01000000
00000000
00010000
00000000
00000000
00000000
00000000
00000000
00100000
00000000
00000000
00010000
00000000
00000000
10000000
00000000
00000000
00100000
00000000
00000000
01000000
00000000
00000000
00000000
00000000
00000000
00001000
00000000
00000000
00000000
00000000
00000000
00000000
00000000
00000000
00000000
00000000
00000000
,
00011000
00000000
00001000
00000010
00000001
00000000
00001001
00000000
00000000
00001000
00000100
00000000
00011000
00000000
00000000
00000000
,
00011000
00000000
00010000
00100000
10000000
00000000
10010000
00000000
00000000
00010000
01000000
00000000
00011000
00000000
00000000
00010000
,
00000200
00000000
00000000
00000000
,
00000310
00000001
00001000
00000001
00000010
00000000
00000100
00000000
00010000
00002000
00000000
00103000
00010000
00000000
00000000
00000000
,
10020000
00000000
01000000
00000000
,
00100000
00000000
01000000
00000000
,
00100000
00000000
01000000
00000000
,
00100000
00000000
01000000
00000000
,
00032000
00000000
00000100
00000000
,
00000010
00000000
00000100
00000000
,
00000010
00000000
00000100
00000000
,
000030M0
00000000
00000000
00000000
00000000
00000M00
00000000
00000000
00000000
00000000
000000M0
00000000
00000000
00000000
00000000
00000M00
00000000
00000000
000000M0
00000000
00000000
00000M00
00000000
00000000
,
000000M0
00000000
00000000
00000000
00000000
00000000
00000000
00000000
00000000
00000000
00000000
00000000
00000000
00000000
00000000
00000000
00000000
00000000
00000000
00000000
00000000
00000000
00000000
00000000
00000M00
00000000
00000000
00000000
00000000
00000000
00000000
00000000
00000000
00000000
00000000
00000000
00000000
00000000
00000000
00000000
00000000
00000000
00000000
00000000
000000M0
00000000
00000000
00000000
00000000
00000000
00000000
00000000
00000000
00000000
00000000
00000000
00000M00
00000000
00000000
00000000
00000000
00000000
00000000
00000000
00000000
00000000
00000000
00000000
00000000
000000M0
00000000
00000000
00000000
00000000
00000000
00000000
00000000
00000000
00000M00
00000000
00000000
00000000
00000000
00000000
00000000
00000000
00000000
000000M0
00000000
00000000
00000000
00000000
00000M00
00000000
00000000
00000000
00000000
00000000
00000000
00000000
000000M0
00000000
00000000
00000000
00000000
00000000
00000000
00000000
00000000
00000000
00000000
00000000
00000M00
00000000
00000000
00000000
00000000
00000000
00000000
00000000
00000000
00000000
00000000
00000000
00000000
00000000
000000M0
00000000
00000000
00000000
00000000
00000000
00000000
00000000
00000000
00000000
00000000
00000000
00000000
00000000
00000000
00000000
00000000
00000000
00000000
00000000
00000000
00000000
00000M00
00000000
00000000
00000000
00000000
00000000
00000000
00000000
00000000
00000000
00000000
00000000
00000000
00000000
00000000
00000000
00000000
00000000
00000000
00000000
00000000
00000000
00000000
00000000
00000000
00000000
00000000
00000000
00000000
00000000
00000000
00000000
000000M0
00000000
00000000
00000000
00000000
00000000
00000000
00000000
00000000
00000000
00000000
00000000
;
