#TITLE:Tempestissimo;
#SUBTITLE:;
#ARTIST:t+pazolite;
#TITLETRANSLIT:;
#SUBTITLETRANSLIT:;
#ARTISTTRANSLIT:;
#GENRE:;
#CREDIT:;
#MUSIC:Tempestissimo.ogg;
#BANNER:Tempestissimo.png;
#BACKGROUND:;
#CDTITLE:;
#SAMPLESTART:58.421;
#SAMPLELENGTH:15.000;
#SELECTABLE:YES;
#OFFSET:0.782;
#BPMS:0.000=230.991;
#STOPS:;
#DISPLAYBPM:231.000;
#BGCHANGES:;
#FGCHANGES:;

//--------------- dance-single - PenTA_ ----------------
#NOTES:
     dance-single:
     PenTA_:
     Hard:
     18:
     0.857434,1.182712,0.606704,0.303352,0.335854,831,747,84,42,0,0,0.857434,1.182712,0.606704,0.303352,0.335854,831,747,84,42,0,0:
0000
0000
0000
0000
,
0000
0000
0000
0000
,
0000
0000
0000
0000
,
0000
0000
0000
0000
,
0000
0000
0000
0000
,
0000
0000
0000
0000
,
0000
0000
0000
0000
,
0000
0000
0000
0000
,
0000
0000
0000
1000
,
0002
0000
0000
0000
0000
0003
0100
0001
,
0100
0010
1000
0001
,
2000
0000
3200
0000
,
0320
0000
0032
0000
,
0203
0000
0000
0310
,
0010
1000
0100
1000
,
0020
0000
0230
0000
,
0302
0000
2000
3003
,
1000
1010
0000
0000
0000
0000
0000
0000
,
0000
0000
0000
0000
0001
0000
0010
0000
0001
0010
0001
0010
0001
0000
0000
0000
,
0001
0101
0000
0000
0000
0000
0000
0000
,
0020
0000
0130
0010
0200
0000
0302
0000
,
1003
1000
0011
1100
,
0001
0001
1010
0101
,
0010
0001
0100
0010
1000
0100
0010
0001
,
1000
0001
1000
0001
1000
0001
1000
0001
1000
0000
0000
0000
0000
0000
0000
0000
,
0010
0100
0001
0100
0010
0100
0001
0100
,
0010
0000
0100
0000
0001
0000
0100
0000
0010
0000
1000
0000
0100
0000
0010
0100
,
0010
0100
1000
0100
0010
0100
1000
0100
,
0010
0000
0100
0000
1000
0000
0100
0000
0010
0001
0010
0001
0010
0000
0100
0000
,
1000
0001
1000
0010
1000
0001
1000
0010
,
1000
0000
0001
1000
0001
0000
0010
0000
0100
1000
0100
1000
0100
0000
0010
0000
,
0001
0000
0000
0000
1001
0000
0000
0000
0110
0000
0000
0110
0000
0000
0110
0000
,
1000
0100
0010
0001
0100
0010
0100
0000
,
1010
0000
0000
0000
1100
0000
0000
0000
1010
0000
0000
1010
0000
0000
1010
0000
,
0000
0000
0100
0001
0100
0000
0010
0000
1000
0000
0001
0000
0010
0000
0000
0000
,
0011
0000
0000
0000
0101
0000
0000
0000
0011
0000
0000
0011
0000
0000
0011
0000
,
0000
0000
0100
1000
0100
0000
0010
0000
0001
0000
1000
0000
0001
0000
0000
0000
,
1000
0000
0010
0000
1000
0000
0010
0000
1000
0000
0010
0000
1000
0000
0100
0010
,
0001
0100
0001
0100
0001
0100
0001
0010
,
0100
1000
0010
1000
0100
0010
0001
1000
,
0001
1000
0001
1000
0001
1000
0001
1000
0001
1000
0001
1000
0001
0000
0000
0000
,
0100
0100
0000
1010
0000
1100
0000
0101
,
0000
0001
0010
0000
1001
0000
0110
0000
,
1000
0100
0000
0110
0000
0011
0000
0110
,
0000
1000
0010
0000
0110
0000
1001
0000
,
0001
0010
0010
0100
0000
1100
0000
0011
,
0000
0001
0100
0000
1010
0000
0011
0000
,
1000
0010
0010
0100
0000
0101
0000
1010
,
0000
1000
0100
0000
0011
0000
1001
0000
,
0201
0000
0000
0000
,
0000
0000
0000
0000
,
0320
0000
0000
0000
,
0000
0000
0000
0000
,
1030
0001
0010
0001
0100
0010
1000
0100
,
1000
0001
0100
0010
0100
0001
1001
0000
,
0001
1000
0001
1000
0010
0100
0010
0100
,
0001
0100
0001
0100
0010
1000
0010
1000
0001
0000
0000
0000
0000
0000
0000
0000
,
1000
0010
0100
0001
0010
0100
1000
0010
,
0100
0000
0001
0010
0001
0000
1000
0010
1000
0000
0001
0010
0001
0000
1000
0000
,
0100
0010
0001
0010
0100
1000
0001
0100
,
1000
0100
0001
0010
0100
0000
0110
0000
,
0001
0010
0100
1000
0010
0100
0001
0010
,
0100
0000
1000
0100
1000
0000
0001
0100
0001
0000
1000
0100
1000
0000
0001
0000
,
0100
0010
1000
0001
1000
0100
0010
0001
,
0100
1000
0001
0010
2000
0000
0000
0000
,
3010
1000
0010
0010
0100
0001
0010
0010
,
0100
0000
1000
0001
1000
0000
0100
0000
0010
0000
0001
0000
0100
0000
0000
0000
,
1000
0100
0001
0001
0010
0100
0100
0010
,
0001
0000
1000
0010
1000
0000
0100
0000
0010
0000
0000
0000
0110
0000
0000
0000
,
0001
0010
0001
0001
1000
0010
0100
0100
,
0001
0000
0010
0001
0010
0000
0001
0000
0100
0000
0010
0000
1000
0000
0000
0000
,
0100
0000
1000
0100
1000
0000
0010
0000
0100
0000
0001
0100
0001
0000
0100
0000
,
0010
0100
0010
0000
1000
0000
0010
0000
0200
0000
0000
0000
0000
0000
0000
0000
,
0301
0010
2000
0000
3001
0100
2000
0000
,
3010
0100
1000
0001
0010
0000
0110
0000
,
0010
1000
0002
0000
0013
1000
0002
0000
,
0103
1000
0001
0100
0020
0000
0230
0000
,
0301
0010
0001
0010
0011
0000
1100
0000
,
1000
0010
1000
0010
1010
0000
0101
0000
,
0001
0010
0001
0010
0100
1000
0100
0010
,
0001
1000
0001
1000
0001
1000
0001
1000
0001
1000
0001
1000
0001
1000
0001
1000
,
0001
0000
0000
0000
,
0000
0000
0000
0000
,
2200
0000
0000
3300
0022
0000
0000
0033
,
0101
1010
0110
1001
,
0001
0000
0010
0000
0100
0000
1000
0010
1000
0000
0001
0000
0010
0000
0100
0000
,
0010
0000
0001
0100
0001
0000
1000
0000
0100
0000
0010
0000
0100
0000
0010
0001
,
0010
0000
0100
0000
1000
0000
0010
0000
0100
0000
0010
1000
0010
0000
0100
0000
,
0001
0000
0010
0000
0200
0000
0000
0000
0310
0000
0000
0011
0000
0000
1001
0000
,
1000
0000
0100
0010
0100
0000
1000
0000
0001
0010
0001
0000
1000
0000
0100
0000
,
0010
0000
0001
0000
0100
0000
1000
0000
0001
0000
0010
0000
0100
0000
0001
0100
,
0001
0010
2000
0000
3001
0100
2000
0000
,
3001
0100
0100
0100
0110
0000
1001
0000
,
1000
0000
0010
1000
0010
0000
0100
0000
1000
0000
0100
0000
0001
0000
0000
0000
,
0010
0000
0001
0010
0001
0000
0100
0000
0010
0000
0000
0000
0110
0000
0000
0000
,
1000
0100
1000
0010
0100
0001
0010
0001
,
0100
1000
0100
0010
0001
0010
1000
0000
0100
0000
0010
0000
,
0002
0000
0023
0000
,
0230
0000
2300
0000
,
3002
0000
0203
0000
,
0310
1000
2002
3003
,
0100
0000
0010
0000
0001
0000
1000
0000
0010
0100
0010
0000
1000
0000
0001
0000
,
0100
0001
0100
0100
0010
1000
0100
0100
,
0010
0001
0010
0000
0100
0000
1000
0000
0010
1000
0010
0000
0100
0000
0001
0000
,
1000
0100
1000
0100
1000
0100
1000
0100
0010
0000
0000
0010
0000
0000
0010
0000
,
0100
0000
1100
0000
0000
0000
1010
0000
0000
0000
0100
0001
1000
0000
0001
0000
,
0010
0010
0100
0100
1000
0000
1001
0000
,
0100
0000
0101
0000
0000
0000
0011
0000
0000
0000
0100
1000
0001
0000
1000
0000
,
0010
0010
0100
0100
0002
0000
0000
0000
,
1003
0100
1000
0010
0100
0001
0010
0100
,
1000
0100
0001
1000
0010
0001
1000
0010
,
0100
1000
0100
0010
0001
1000
0100
0001
,
0010
0100
0010
0100
0010
0100
0010
0100
0010
0100
0010
0100
0010
0100
0010
0100
,
0010
0001
0000
0101
0000
1010
0000
1001
,
0000
1000
0100
0000
0011
0000
1010
0000
,
1000
0100
0000
0011
0000
0101
0000
1100
,
0000
0010
0001
0000
1001
0000
0110
0000
,
1000
0010
0010
0100
0000
0101
0000
1010
,
0000
1000
0100
0000
0110
0000
1001
0000
,
0001
0010
0010
0100
0000
1100
0000
0011
,
0000
0001
0100
0000
0110
0000
1001
0000
,
1200
0000
0000
0000
,
0000
0000
0000
0000
,
0320
0000
0000
0000
,
0000
0000
0000
0000
,
0130
1000
0100
0000
0010
0000
0001
0000
1000
0100
1000
0000
0001
0000
0100
0000
,
0010
1000
0010
0000
0100
0000
0001
0000
1000
0010
1000
0000
0001
0000
0010
0000
,
0100
1000
0010
0000
0100
0000
0001
0000
1000
0100
1000
0100
0010
0001
0010
0001
,
1000
0000
0000
0000
0000
0000
0000
0000
0001
0000
0000
0100
0000
0000
0010
0000
,
2000
0000
0000
0000
,
0000
0000
3000
0100
,
1001
0000
0000
0000
;
