#TITLE:たまごの物理科学的 及び調理特性に関しての調査、そしてその考察;
#SUBTITLE:;
#ARTIST:大日本鉄倶楽部;
#TITLETRANSLIT:Investigation & Consideration on the Physical & Cooking Characteristics of Eggs;
#SUBTITLETRANSLIT:;
#ARTISTTRANSLIT:Dainippon Tetsu Club;
#GENRE:;
#CREDIT:;
#BANNER:Investigation & Consideration on the Physical & Cooking Characteristics of Eggs.png;
#BACKGROUND:;
#LYRICSPATH:;
#CDTITLE:;
#MUSIC:Investigation & Consideration on the Physical & Cooking Characteristics of Eggs.ogg;
#OFFSET:2.008000;
#SAMPLESTART:78.990997;
#SAMPLELENGTH:15.000000;
#LASTBEATHINT:2.717274;
#SELECTABLE:YES;
#BPMS:0.000000=160.000000
,288.000000=107.000000
;
#STOPS:
;
#BGCHANGES:;
#KEYSOUNDS:;
#ATTACKS:;

//---------------dance-single - ----------------
#NOTES:
     dance-single:
     :
     Beginner:
     4:
     0.179073,0.254909,0.033651,0.134605,0.000000,149.000000,145.000000,4.000000,16.000000,0.000000,0.000000,0.179073,0.254909,0.033651,0.134605,0.000000,149.000000,145.000000,4.000000,16.000000,0.000000,0.000000:
// measure 0
0000
0000
0000
0000
,  // measure 1
0000
0000
0000
0000
,  // measure 2
0000
0000
0000
0000
,  // measure 3
0000
0000
0000
0000
,  // measure 4
0000
0000
0000
0000
,  // measure 5
0000
0000
0000
0000
,  // measure 6
0001
0000
0001
0000
,  // measure 7
0010
0000
0010
0000
,  // measure 8
1000
0000
1000
0000
,  // measure 9
1001
0000
0110
0000
,  // measure 10
0001
0001
0001
0000
,  // measure 11
0010
0010
0010
0000
,  // measure 12
1000
1000
1000
0000
,  // measure 13
0010
0010
0010
0000
,  // measure 14
0001
0000
0001
0000
,  // measure 15
1000
0000
1000
0000
,  // measure 16
0010
0000
0010
0000
,  // measure 17
0100
0100
0100
0000
,  // measure 18
0001
0000
0001
0000
,  // measure 19
1000
0000
1000
0000
,  // measure 20
0100
0000
0100
0000
,  // measure 21
0010
0010
0010
0000
,  // measure 22
0002
0000
0003
0000
,  // measure 23
0020
0000
0030
0000
,  // measure 24
2000
0000
3000
0000
,  // measure 25
0200
0000
0300
0000
,  // measure 26
0001
0000
0010
0000
,  // measure 27
1000
0000
0100
0000
,  // measure 28
0010
0010
0010
0000
,  // measure 29
0100
0100
0100
0000
,  // measure 30
1000
0000
0010
0000
,  // measure 31
0001
0000
0100
0000
,  // measure 32
1000
1000
1000
0000
,  // measure 33
0001
0001
0001
0000
,  // measure 34
0200
0000
0300
0000
,  // measure 35
0020
0000
0030
0000
,  // measure 36
1000
1000
0010
0000
,  // measure 37
0001
0001
0010
0000
,  // measure 38
0200
0000
0300
0000
,  // measure 39
0020
0000
0030
0000
,  // measure 40
0001
0000
0010
0000
,  // measure 41
0100
0000
1000
0000
,  // measure 42
0002
0000
0003
0000
,  // measure 43
2000
0000
3000
0000
,  // measure 44
0020
0000
0030
0000
,  // measure 45
0200
0000
0300
0000
,  // measure 46
0001
0000
0010
0000
,  // measure 47
1000
0000
0010
0000
,  // measure 48
0001
0000
0100
0000
,  // measure 49
0020
0000
0030
0000
,  // measure 50
1000
0000
0100
0000
,  // measure 51
0020
0000
0030
0000
,  // measure 52
0001
0000
0010
0000
,  // measure 53
0100
0000
1001
0000
,  // measure 54
1000
1000
1000
0000
,  // measure 55
0100
0100
0100
0000
,  // measure 56
0010
0010
0010
0000
,  // measure 57
0001
1000
0001
0000
,  // measure 58
0001
0001
0001
0000
,  // measure 59
0100
0100
0100
0000
,  // measure 60
0010
0100
0010
0000
,  // measure 61
1000
1000
1000
0000
,  // measure 62
0100
0100
0100
0000
,  // measure 63
0010
0010
0010
0000
,  // measure 64
0001
1000
0001
0000
,  // measure 65
0100
0100
0100
0000
,  // measure 66
0010
0010
0010
0000
,  // measure 67
1000
1000
0100
0000
,  // measure 68
0001
0001
0100
0000
,  // measure 69
1000
1000
0010
0000
,  // measure 70
0001
0001
2002
0000
,  // measure 71
0000
0000
0000
0000
,  // measure 72
0000
0000
0000
0000
,  // measure 73
0000
0000
0000
0000
,  // measure 74
0000
0000
0000
0000
,  // measure 75
0000
0000
0000
3003
;

//---------------dance-single - ----------------
#NOTES:
     dance-single:
     :
     Easy:
     8:
     0.323293,0.477954,0.176670,0.168257,0.025239,269.000000,248.000000,21.000000,20.000000,0.000000,0.000000,0.323293,0.477954,0.176670,0.168257,0.025239,269.000000,248.000000,21.000000,20.000000,0.000000,0.000000:
// measure 0
0000
0000
0000
0000
,  // measure 1
0000
0000
0000
0000
,  // measure 2
0000
0000
0000
0000
,  // measure 3
0000
0000
0000
0000
,  // measure 4
0000
0000
0000
0000
,  // measure 5
0000
0000
0000
0000
,  // measure 6
0010
0010
1000
0100
,  // measure 7
0010
0010
0001
0100
,  // measure 8
0010
0010
0100
0010
,  // measure 9
1001
0000
0110
0000
,  // measure 10
1000
0000
0100
0000
0000
0010
0100
0000
,  // measure 11
0010
0000
0001
0000
0000
0100
0001
0000
,  // measure 12
0100
0000
0010
0000
0000
1000
0010
0000
,  // measure 13
1000
1000
0001
0001
,  // measure 14
0010
0000
0010
0000
0001
1000
1000
0000
,  // measure 15
0010
0000
0010
0000
1000
0001
0001
0000
,  // measure 16
0010
0000
0010
0000
0001
1000
1000
0000
,  // measure 17
0010
0000
0000
0010
0000
0000
0020
0000
0000
0000
0000
0000
0130
0000
0000
0000
,  // measure 18
0001
0000
0010
0000
0100
1000
0100
0000
,  // measure 19
0010
0000
0001
0000
0100
0001
0100
0000
,  // measure 20
0010
0000
1000
0000
0100
1000
0100
0000
,  // measure 21
0010
0000
0000
0010
0000
0000
0020
0000
0000
0000
0000
0000
0130
0000
0000
0000
,  // measure 22
2000
0000
0000
3000
,  // measure 23
0020
0000
0000
0030
,  // measure 24
0002
0000
0000
0003
,  // measure 25
0200
0000
0000
0300
,  // measure 26
0010
1000
0100
0110
,  // measure 27
0001
1000
1001
0000
,  // measure 28
0001
0010
1000
0010
,  // measure 29
0001
0100
0010
0010
,  // measure 30
1000
0100
0010
0110
,  // measure 31
0001
1000
1001
0000
,  // measure 32
1000
0100
0001
0100
,  // measure 33
1000
0000
0000
1000
0000
0000
1000
0000
2000
0000
0000
0000
0000
0000
0000
0000
,  // measure 34
3001
0100
0010
0010
,  // measure 35
1000
0100
0010
0010
,  // measure 36
0001
0000
0000
0001
0000
0000
2002
0000
0000
0000
0000
0000
3003
0000
0000
0000
,  // measure 37
1000
0000
0000
1000
0000
0000
2002
0000
0000
0000
0000
0000
3003
0000
0000
0000
,  // measure 38
1000
0000
0001
0000
0100
0100
0100
0000
,  // measure 39
0001
0000
1000
0000
0100
0100
0100
0000
,  // measure 40
0010
0001
0100
0010
,  // measure 41
1000
1010
0001
0011
,  // measure 42
0200
0000
0000
0300
,  // measure 43
0020
0000
0000
0030
,  // measure 44
2000
0000
0000
3000
,  // measure 45
0002
0000
0000
0003
,  // measure 46
0020
0000
0130
0000
,  // measure 47
2000
0000
3001
0001
,  // measure 48
1000
0000
0100
0000
0100
0100
1000
0000
,  // measure 49
0010
0001
0010
1000
,  // measure 50
0001
0000
0010
0000
0100
0100
0010
0000
,  // measure 51
0001
0100
0010
0010
,  // measure 52
1000
0100
0001
0100
,  // measure 53
1000
0000
0000
1000
0000
0000
1000
0000
2000
0000
0000
0000
3000
0000
0000
0000
,  // measure 54
0010
0001
0100
1001
,  // measure 55
0010
1000
0100
1001
,  // measure 56
0010
0001
0100
0010
,  // measure 57
1000
0010
0100
0000
0001
0010
0100
0000
,  // measure 58
1000
0010
0001
0110
,  // measure 59
0001
0010
1000
0110
,  // measure 60
0001
0001
0100
0000
0010
0010
1000
0000
,  // measure 61
0001
0100
0010
1010
,  // measure 62
1000
0100
0010
0011
,  // measure 63
0001
0000
0010
0000
0100
1000
0001
0000
,  // measure 64
0100
0001
1000
0000
0100
0000
0100
0000
,  // measure 65
0010
0001
0100
0101
,  // measure 66
0010
1000
0100
1100
,  // measure 67
0010
0010
0010
0000
0001
0001
0001
0000
,  // measure 68
0100
0100
0100
0000
1000
1000
1000
0000
,  // measure 69
0010
0010
0010
0000
0001
0001
0001
0000
,  // measure 70
0110
0110
2002
0000
,  // measure 71
0000
0000
0000
0000
,  // measure 72
0000
0000
0000
0000
,  // measure 73
0000
0000
0000
0000
,  // measure 74
0000
0000
0000
0000
,  // measure 75
0000
0000
0000
3003
;

//---------------dance-single - ----------------
#NOTES:
     dance-single:
     :
     Medium:
     12:
     0.492752,0.605409,0.269211,0.235559,0.037858,410.000000,378.000000,32.000000,28.000000,0.000000,0.000000,0.492752,0.605409,0.269211,0.235559,0.037858,410.000000,378.000000,32.000000,28.000000,0.000000,0.000000:
// measure 0
0000
0000
0000
0000
,  // measure 1
0000
0000
0000
0000
,  // measure 2
0000
0000
0000
0000
,  // measure 3
0000
0000
0000
0000
,  // measure 4
0000
0000
0000
0000
,  // measure 5
0000
0000
0000
0000
,  // measure 6
0010
0000
1001
0000
0010
0001
0100
0000
,  // measure 7
0010
0000
1001
0000
0010
1000
0100
0000
,  // measure 8
0010
0000
1001
0000
0100
0010
0100
0000
,  // measure 9
0001
0001
0000
0100
0010
0010
0000
1000
,  // measure 10
0100
0010
0100
0010
0001
0100
0010
0000
,  // measure 11
1000
0100
1000
0000
0001
0010
0001
0000
,  // measure 12
0100
0010
1000
0010
0100
0001
1000
0010
,  // measure 13
0100
0000
0000
0100
0000
0000
0200
0000
0000
0000
0000
0000
0310
0000
0000
0000
,  // measure 14
0010
1000
0100
1000
0001
0010
0100
1000
,  // measure 15
0010
1000
0100
1000
0001
0100
0010
1000
,  // measure 16
0010
1000
0100
1000
0001
0010
0100
1000
,  // measure 17
0010
0000
0000
0110
0000
0000
1001
0000
0000
0000
1000
0000
0100
0000
0010
0000
,  // measure 18
0001
0100
0001
0100
0010
1000
0001
0010
,  // measure 19
0001
0100
0001
0100
0010
1000
0100
0010
,  // measure 20
0001
0100
0001
0100
0001
1000
0001
0010
,  // measure 21
0100
0000
0000
0110
0000
0000
1001
0000
0000
0000
1000
0000
0100
0000
0010
0000
,  // measure 22
0001
0001
0100
0100
0010
0010
1000
1000
,  // measure 23
0001
0100
0010
1000
0001
0100
0010
0000
,  // measure 24
1000
1000
0100
0100
0010
0010
0001
0001
,  // measure 25
1000
0000
0000
1100
0000
0000
0012
0000
0000
0000
0000
0000
0203
0000
0000
0000
,  // measure 26
0310
0000
1001
0000
1000
0100
0001
0000
,  // measure 27
0001
0100
1000
0010
0100
0000
1001
0000
,  // measure 28
0002
0000
0003
0100
0020
0000
2030
0000
,  // measure 29
3100
0000
0000
0100
0000
0000
0100
0000
0020
0000
0000
0000
0032
0000
0000
0000
,  // measure 30
1003
0000
0110
0000
0010
1000
0100
0000
,  // measure 31
0100
1000
0010
0100
0001
0000
0110
0000
,  // measure 32
1000
0000
0000
0000
0100
0000
0000
0000
0010
0000
0000
0010
0000
0000
0010
0000
,  // measure 33
2002
0000
0000
3003
,  // measure 34
0001
0001
0100
0100
0010
0010
1000
1000
,  // measure 35
0001
0100
0010
1000
0001
0100
0010
1000
,  // measure 36
1100
0000
0000
0011
0000
0000
2002
0000
0000
0000
0000
0000
3003
0000
0000
0000
,  // measure 37
0101
0000
0000
1010
0000
0000
2002
0000
0000
0000
0000
0000
3003
0000
0000
0000
,  // measure 38
1000
1000
0100
0100
0010
0010
0001
0001
,  // measure 39
1000
0100
0010
0001
1000
0100
0010
0000
,  // measure 40
0001
0101
1000
1100
,  // measure 41
0020
0000
0130
0100
0020
0000
0130
0000
,  // measure 42
0002
0000
0000
0000
0000
0000
0000
0100
,  // measure 43
0203
0000
0000
0000
0000
0000
0000
1000
,  // measure 44
2300
0000
0000
0000
0000
0000
0000
0100
,  // measure 45
3200
0000
0000
0000
,  // measure 46
0301
0001
0100
0100
,  // measure 47
0010
1000
1001
0000
,  // measure 48
0002
0013
2000
3010
,  // measure 49
0001
0000
0010
0000
0100
1000
0100
0000
,  // measure 50
2000
3010
0002
0013
,  // measure 51
1000
0000
0010
0000
0100
0001
0100
0000
,  // measure 52
0010
1000
0010
1000
0001
0100
0001
0100
,  // measure 53
0010
0000
0000
0010
0000
0000
0010
0000
0220
0000
0000
0000
0330
0000
0000
0000
,  // measure 54
1000
0100
0010
0001
0010
0100
0010
0001
,  // measure 55
1000
0100
0010
0001
0010
0100
0010
0001
,  // measure 56
1000
0100
0001
0000
0001
0100
1000
0010
,  // measure 57
0100
0010
0110
1001
,  // measure 58
0001
0100
0010
1000
0010
0100
0010
1000
,  // measure 59
0001
0100
0010
1000
0010
0100
0010
1000
,  // measure 60
0001
0001
0101
0000
1000
1000
1100
0000
,  // measure 61
0010
0001
1000
0100
1000
0001
1000
0100
,  // measure 62
0010
0001
1000
0100
1000
0001
1000
0100
,  // measure 63
0010
0001
0100
0000
0010
1000
0100
0000
,  // measure 64
0001
0100
1000
0100
0010
0000
0110
0000
,  // measure 65
0100
1000
0001
0010
0100
0010
0001
0010
,  // measure 66
0100
1000
0001
0010
0100
0010
0001
0001
,  // measure 67
1000
0100
1000
0100
0001
0100
1000
0000
,  // measure 68
0001
0100
0001
0100
1000
0100
0001
0000
,  // measure 69
1000
0010
1000
0010
0001
0010
1000
0100
,  // measure 70
0110
0011
2002
0000
,  // measure 71
0000
0000
0000
0000
,  // measure 72
0000
0000
0000
0000
,  // measure 73
0000
0000
0000
0000
,  // measure 74
0000
0000
0000
0000
,  // measure 75
0000
0000
0000
3003
;

//---------------dance-single - ----------------
#NOTES:
     dance-single:
     :
     Hard:
     16:
     0.790806,0.955908,0.462706,0.168257,0.601518,658.000000,603.000000,55.000000,20.000000,15.000000,0.000000,0.790806,0.955908,0.462706,0.168257,0.601518,658.000000,603.000000,55.000000,20.000000,15.000000,0.000000:
// measure 0
0000
0000
0000
0000
,  // measure 1
0000
0000
0000
0000
,  // measure 2
0000
0000
0000
0000
,  // measure 3
0000
0000
0000
0000
,  // measure 4
0000
0000
0000
0000
,  // measure 5
0000
0000
0000
0000
,  // measure 6
0010
0000
1001
0000
0010
1000
0100
1000
,  // measure 7
0010
0000
1001
0000
0010
0001
0100
0001
,  // measure 8
0010
0000
1001
0000
0100
0010
0100
0010
,  // measure 9
1010
1010
0000
0100
0011
0011
0000
0100
,  // measure 10
0010
1000
0001
1000
0010
0000
0100
0000
0001
0000
1000
0000
0100
0000
0010
0000
,  // measure 11
0001
1000
0100
1000
0001
0000
0100
0000
0010
0000
1000
0000
0001
0000
1000
0000
,  // measure 12
0100
0010
0001
0010
0100
0000
1000
0000
0001
0000
0100
0000
0010
0000
1000
0000
,  // measure 13
1010
0000
0000
0101
0000
0000
1002
0000
0000
0000
0103
0000
0001
0000
0010
0000
,  // measure 14
0100
1000
0100
1000
0100
0000
1000
0100
1000
0100
1000
0000
0001
0000
0011
0000
,  // measure 15
0100
0001
0100
0001
0100
0000
0001
0100
0001
0100
0001
0000
1000
0000
1010
0000
,  // measure 16
0100
0010
0001
0000
1000
0000
0001
0100
0010
0000
1000
0000
0100
0000
0010
0000
,  // measure 17
0110
0000
0000
0110
0000
0000
2001
0000
0000
0000
3010
0000
0010
0000
0100
0000
,  // measure 18
0001
1000
0001
1000
0100
0000
1000
0001
1000
0001
0010
0000
0100
0000
1100
0000
,  // measure 19
0001
0100
0001
0100
0010
0000
1000
0010
1000
0010
0100
0000
0001
0000
0011
0000
,  // measure 20
0100
1000
0001
0000
0010
0000
0001
1000
0100
0000
1000
0000
1000
0000
0010
0000
,  // measure 21
0110
0000
0000
1001
0000
0000
0120
0000
0000
0000
1030
0010
0100
0001
1000
0001
,  // measure 22
1000
0000
0100
0010
0100
0000
0010
0001
0010
0000
0100
1000
0100
0000
1000
0000
,  // measure 23
0001
0000
0100
0001
0100
0000
0010
1000
0010
0000
0100
0010
0100
0000
0001
0000
,  // measure 24
1000
0010
0001
0100
1000
0010
0100
0100
,  // measure 25
0001
0100
0001
1000
0001
0100
0001
0010
0100
1000
0001
0010
0200
0000
0000
0000
,  // measure 26
0310
0001
0100
1000
0010
1000
0100
0001
,  // measure 27
0010
0000
0100
1000
0100
0000
0010
0001
0010
0000
0001
0000
0100
0000
0100
0000
,  // measure 28
0010
1000
0100
0001
0100
1000
0010
0001
,  // measure 29
0010
0000
0000
1000
0000
0000
0100
0000
0010
0001
0010
0001
1000
0010
1000
0010
,  // measure 30
0100
1000
0010
1000
0100
0001
0010
0100
,  // measure 31
1000
0000
0001
0100
0001
0000
1000
0010
1000
0000
0100
0000
0010
0000
0010
0000
,  // measure 32
0001
0000
0100
1000
0100
0000
0001
0000
0100
1000
0100
0000
0001
0000
0010
0000
,  // measure 33
0110
0000
0000
0110
0000
0000
0110
0000
0100
0010
0001
1000
0100
1000
0100
0010
,  // measure 34
0001
1000
0001
0010
0001
1000
0001
0100
,  // measure 35
0100
0000
1000
0010
1000
0000
0010
0100
0010
0000
0100
0001
0100
0000
0001
0000
,  // measure 36
0011
0000
0000
1100
0000
0000
0110
0000
0001
0100
0010
0000
1000
0100
0010
0000
,  // measure 37
0110
0000
0000
1100
0000
0000
0011
0000
0001
0100
0010
1000
0002
0000
0000
0000
,  // measure 38
1003
0001
1000
0100
1000
0001
1000
0010
,  // measure 39
0010
0000
0001
0000
0100
0000
0001
0100
0001
0000
0010
0001
0010
0000
0100
1000
,  // measure 40
0100
0010
0001
0101
0010
1000
0001
0010
,  // measure 41
2100
0000
3100
0010
0012
0000
0103
0010
,  // measure 42
0120
0000
1000
0000
1000
0000
1030
0100
,  // measure 43
0020
0000
0001
0000
0001
0000
0031
0010
,  // measure 44
0200
0000
1000
0000
1000
0000
1300
0010
,  // measure 45
0200
0000
0001
0000
0001
0000
0301
0100
,  // measure 46
0010
1000
0100
0001
0010
0000
0110
0000
,  // measure 47
0100
1000
0010
0001
0100
0000
0110
0000
,  // measure 48
2001
0000
3010
1000
0100
1000
0001
0001
,  // measure 49
1002
0000
0000
0000
0103
0000
0010
0000
0100
0010
0100
0000
0010
0000
1000
0000
,  // measure 50
1200
0000
0310
0200
0000
1300
0200
0310
,  // measure 51
0001
0000
1000
0010
1000
0000
0001
0000
1000
0010
1000
0000
1001
0000
0000
0000
,  // measure 52
0110
1000
0001
0110
0001
1000
0100
0010
,  // measure 53
0110
0000
0000
0011
0000
0000
1001
0000
2002
0000
0000
0000
3003
0000
0000
0000
,  // measure 54
1000
0010
1000
0010
0100
0000
0001
0010
0001
0010
0100
0000
1000
0000
1001
0000
,  // measure 55
0001
0100
0001
0100
0010
0000
1000
0100
1000
0100
0010
0000
0001
0000
1001
0000
,  // measure 56
1000
0010
1000
0000
0100
0000
0010
0001
0010
0000
0001
0000
0100
0000
0010
0000
,  // measure 57
1000
0100
1000
0001
1000
0100
1000
0001
0010
0100
0010
0001
0010
0100
0010
0001
,  // measure 58
1000
0000
0010
0100
0010
0000
0001
0000
0010
0100
0010
0000
1000
0000
1001
0000
,  // measure 59
0001
0000
0010
0100
0010
0000
1000
0000
0010
0100
0010
0000
0001
0000
1001
0000
,  // measure 60
1000
0010
0100
0000
0100
1000
0010
0000
0010
0001
0100
0000
0100
1000
0010
0000
,  // measure 61
0100
0001
0100
0001
1000
0000
0010
1000
0010
1000
0100
0000
0010
0000
0011
0000
,  // measure 62
0100
1000
0100
1000
0001
0000
0100
0001
0100
0001
1000
0000
0010
0000
0110
0000
,  // measure 63
0001
0100
0001
0000
0010
0000
0100
1000
0100
0000
0010
0000
0001
0000
0100
0000
,  // measure 64
0010
1000
0001
1000
0010
1000
0001
1000
0010
0100
0001
0100
0010
0100
0001
0100
,  // measure 65
0010
1000
0010
1000
0001
0000
0010
0100
1000
0001
0010
0000
0100
0000
1001
0000
,  // measure 66
0001
0100
0001
0100
0010
0000
1000
0001
0100
0010
1000
0000
0001
0000
1001
0000
,  // measure 67
1000
0100
0010
0000
0010
1000
0100
0000
0100
0001
0010
0000
0001
0010
0001
0010
,  // measure 68
0100
1000
0010
0000
0010
0001
0100
0000
0100
1000
0010
0000
0100
0001
0100
0001
,  // measure 69
0010
1000
0010
0000
1000
0100
1000
0000
0100
0001
0100
0000
0001
0010
0001
0010
,  // measure 70
0100
0110
2002
0000
,  // measure 71
0000
0000
0000
0000
,  // measure 72
00M0
0M00
00M0
0M00
,  // measure 73
00M0
0M00
00M0
0M00
,  // measure 74
00M0
0M00
00M0
0M00
,  // measure 75
00M0
0M00
00M0
3003
;
