#VERSION:0.83;
#TITLE:Take Me to Pleasure Island;
#SUBTITLE:;
#ARTIST:Shirobon;
#TITLETRANSLIT:;
#SUBTITLETRANSLIT:;
#ARTISTTRANSLIT:;
#GENRE:;
#ORIGIN:;
#CREDIT:;
#BANNER:Take Me To Pleasure Island.png;
#BACKGROUND:Take Me To Pleasure Island-bg.png;
#PREVIEWVID:;
#JACKET:Take Me To Pleasure Island-jacket.png;
#CDIMAGE:;
#DISCIMAGE:;
#LYRICSPATH:;
#CDTITLE:;
#MUSIC:Take Me to Pleasure Island.ogg;
#OFFSET:0.111000;
#SAMPLESTART:41.276310;
#SAMPLELENGTH:12.000000;
#SELECTABLE:YES;
#DISPLAYBPM:145.000000;
#BPMS:0.000=145.000;
#STOPS:136.000=0.414;
#DELAYS:;
#WARPS:;
#TIMESIGNATURES:0.000=4=4;
#TICKCOUNTS:0.000=4;
#COMBOS:0.000=1;
#SPEEDS:0.000=1.000=0.000=0;
#SCROLLS:0.000=1.000;
#FAKES:;
#LABELS:0.000=Song Start;
#BGCHANGES:;
#KEYSOUNDS:;
#ATTACKS:
;

//---------------dance-single - OrangeRight----------------
#NOTEDATA:;
#CHARTNAME:OrangeRight;
#STEPSTYPE:dance-single;
#DESCRIPTION:OrangeRight;
#CHARTSTYLE:;
#DIFFICULTY:Beginner;
#METER:2;
#RADARVALUES:0.148150,0.209645,0.026820,0.053640,0.000000,116.000000,113.000000,3.000000,6.000000,0.000000,0.000000,0.000000,0.000000,0.000000,0.148150,0.209645,0.026820,0.053640,0.000000,116.000000,113.000000,3.000000,6.000000,0.000000,0.000000,0.000000,0.000000,0.000000;
#CREDIT:OrangeRight;
#DISPLAYBPM:145.000000;
#NOTES:
0000
0000
0000
0000
,
0000
0000
0000
0000
,
0000
0000
0000
0000
,
0000
0000
0000
0000
,
0000
0000
0000
0000
,
0000
0000
0000
0000
,
2000
0000
0000
0000
,
0000
0000
3000
0000
,
0002
0000
0000
0000
,
0000
0000
0003
0000
,
2000
0000
0000
0000
,
0000
0000
3000
0000
,
0002
0000
0000
0000
,
0000
0000
0003
0000
,
1000
0000
0000
0000
,
0001
0000
0000
0000
,
0100
0000
0100
0000
,
0010
0000
0010
0000
,
1000
0000
1000
0000
,
0100
0000
0010
0000
,
0001
0000
0100
0000
,
0001
0000
0100
0000
,
0001
0000
0001
0000
,
0100
0000
0010
0000
,
1000
0000
0100
0000
,
0010
0000
0001
0000
,
1000
0000
1000
0000
,
0010
0000
0100
0000
,
0001
0000
0010
0000
,
0001
0000
0100
0000
,
0001
0000
0001
0000
,
0010
0000
0100
0000
,
1000
0000
0100
0000
,
0010
0000
0001
0000
,
0000
0000
0000
1000
,
0000
0001
0001
0001
,
0001
0001
0000
0100
,
0000
0010
0010
0010
,
0000
1000
0000
0001
,
0000
1000
1000
1000
,
1000
1000
0000
0100
,
0000
0010
0010
0010
,
0000
0001
0000
0100
,
0000
0010
0010
0010
,
0010
0010
0000
1000
,
0000
0100
0100
0100
,
0000
1000
0000
0010
,
0000
0100
0100
0100
,
0100
0100
0000
0001
,
0000
0010
0010
0010
,
0000
1001
0000
0000
,
0000
1000
0000
0100
,
0000
0010
0000
0000
,
0000
0001
0000
0100
,
0000
0010
0000
0000
,
0000
1000
0000
0010
,
0000
0100
0000
0000
,
0000
0001
0000
1000
,
0000
0001
0000
0001
,
0000
1000
0000
1000
,
0000
0100
0000
0100
,
0000
0010
0000
0100
,
0000
1000
0000
1000
,
0000
0001
0000
0001
,
0000
0100
0000
0010
,
0000
2002
0000
0000
,
0000
0000
3003
0000
,
1001
0000
0000
0000
;

//---------------dance-single - OrangeRight----------------
#NOTEDATA:;
#CHARTNAME:OrangeRight;
#STEPSTYPE:dance-single;
#DESCRIPTION:OrangeRight;
#CHARTSTYLE:;
#DIFFICULTY:Easy;
#METER:5;
#RADARVALUES:0.269479,0.299492,0.026820,0.205622,0.022350,211.000000,208.000000,3.000000,23.000000,0.000000,0.000000,0.000000,0.000000,0.000000,0.269479,0.299492,0.026820,0.205622,0.022350,211.000000,208.000000,3.000000,23.000000,0.000000,0.000000,0.000000,0.000000,0.000000;
#CREDIT:OrangeRight;
#DISPLAYBPM:145.000000;
#NOTES:
0000
0000
0000
0000
,
0000
0000
0000
0000
,
0000
0000
0000
0000
,
0000
0000
0000
0000
,
0000
0000
0000
0000
,
0000
0000
0000
0000
,
2000
0001
0000
0001
,
0000
0001
0000
0001
,
3002
0000
0000
0000
,
1003
0100
0010
0001
,
2000
0010
0000
0010
,
0000
0010
0000
0010
,
3002
0010
0000
0013
,
0001
0010
0100
1000
,
0001
0100
0000
0010
,
0000
1000
0000
0001
,
1000
0001
1000
0001
,
1000
0001
1000
0000
0002
0000
0003
0000
,
1000
1000
0100
0010
,
0001
0001
2000
3000
,
0001
0001
0100
0010
,
1000
0001
1000
0100
,
0010
0010
0001
0100
,
0010
0010
1000
0001
,
0200
0000
0300
0020
0000
0030
0000
2000
,
0000
3000
0000
0000
0001
0000
1000
0000
,
0001
0001
0100
0010
,
1000
1000
0002
0003
,
1000
1000
0100
0010
,
0001
1000
0001
0100
,
0010
0010
1000
0100
,
0010
0010
0001
1000
,
0200
0000
0300
0020
0000
0030
0000
0002
,
0000
0003
0000
0000
1000
0000
0001
0000
,
0000
0001
0001
0100
,
0001
1000
0001
1000
,
0001
1000
1000
0100
,
0010
0000
0000
0000
0001
0000
0000
0001
0000
0000
0001
0000
0000
0000
0000
0000
,
0000
0001
0001
0010
,
0100
1000
0001
1000
,
0001
1000
1000
0010
,
0100
0000
0000
0000
0001
0000
0000
1000
0000
0000
0001
0000
0000
0000
0000
0000
,
0100
0010
1000
0010
,
1000
0001
0001
0001
,
0001
0010
0001
0010
,
0001
0000
0000
0000
1000
0000
0000
1000
0000
0000
1000
0000
0000
0000
0000
0000
,
0001
0100
0010
0100
,
0001
1000
1000
1000
,
1000
0001
0010
0001
,
0010
0000
0000
0000
0100
0000
0000
0100
0000
0000
0100
0000
0000
0000
0000
0000
,
1001
1000
0100
1000
,
0010
0200
0300
0020
,
0030
1000
0001
0010
,
0100
2000
3000
2000
,
3000
0001
0100
0001
,
0010
0200
0300
0020
,
0030
0001
1000
0010
,
0100
0001
1000
0001
,
1000
0002
0000
0003
0100
0000
0001
0000
,
0010
0200
0000
0300
1000
0000
0001
0000
,
1000
0001
1000
0000
0000
0000
1000
0000
,
0001
0100
0010
1000
,
0001
1000
0000
1000
,
0001
0000
0010
0000
0001
0000
0000
0000
1000
0000
0000
0000
0010
0000
0000
0010
,
0000
0010
0000
0000
0000
0100
0000
0000
,
0000
2002
0000
0000
0000
0000
0000
0000
,
3003
0000
0000
0000
,
1001
0000
0000
0000
;

//---------------dance-single - OrangeRight----------------
#NOTEDATA:;
#CHARTNAME:OrangeRight;
#STEPSTYPE:dance-single;
#DESCRIPTION:OrangeRight;
#CHARTSTYLE:;
#DIFFICULTY:Medium;
#METER:11;
#RADARVALUES:0.453389,0.598984,0.527464,0.205622,0.049170,355.000000,296.000000,59.000000,23.000000,0.000000,0.000000,0.000000,0.000000,0.000000,0.453389,0.598984,0.527464,0.205622,0.049170,355.000000,296.000000,59.000000,23.000000,0.000000,0.000000,0.000000,0.000000,0.000000;
#CREDIT:OrangeRight;
#DISPLAYBPM:145.000000;
#NOTES:
0000
0000
0000
0000
,
0000
0000
0000
0000
,
0000
0000
0000
0000
,
0000
0000
0000
0000
,
0000
0000
0000
0000
,
0000
0000
0000
0000
,
2000
0100
0000
0010
,
0000
0000
0001
0000
0000
0000
3100
0010
,
0002
0100
0000
0010
,
0003
1000
0100
0010
0000
0000
0011
0000
,
2000
0001
0000
0010
,
0000
0000
0100
0000
0000
0000
3001
0100
,
0020
0100
0000
1000
,
0030
1000
0010
0100
0000
0000
0101
0000
,
1000
0000
0001
0000
0000
0001
0100
0000
,
0000
0000
0010
0000
0000
0010
1000
0000
,
0001
1000
0001
1000
,
0001
1000
0001
1000
0002
0000
0003
0000
,
1001
0000
1000
0000
1100
0000
1000
0100
,
0010
0000
1001
0000
0001
0200
0000
0320
,
0000
1030
1000
0001
,
0001
0010
0100
1000
0010
0000
0110
0000
,
1001
0000
0001
0000
0101
0000
0001
0100
,
0010
0000
1001
0000
0010
1000
0100
0000
,
2200
0000
3300
0220
0000
0000
0330
0012
,
0000
1000
0100
0013
,
1001
0000
0100
0000
0110
0000
0010
1000
,
0100
0000
1100
0000
1000
0200
0000
0320
,
0000
0031
0001
1000
,
0010
1000
0100
0010
0001
0000
1001
0000
,
0110
0110
1100
1100
,
1001
0000
0001
0100
0010
1000
0001
1000
,
0200
0000
1300
0020
0000
0130
0001
2000
,
0000
3001
0100
0010
1000
0100
0010
0001
,
0000
0000
1001
0000
1000
0001
0100
0010
,
1000
0000
0000
0000
1010
0000
0000
0000
0110
0000
0000
0000
0010
0000
0000
0100
,
0000
0001
1000
0000
0001
1000
0100
0010
,
0001
0000
0000
0000
0011
0000
0000
0011
0000
0000
0011
0000
0000
0000
0010
0000
,
0100
1000
1001
0000
1000
0010
0100
0010
,
1000
0000
0000
0000
1010
0000
0000
0000
1100
0000
0000
0000
0100
0000
0000
0010
,
0000
0001
0010
0000
0001
0100
0010
1000
,
0100
0000
0000
0000
1100
0000
0000
0110
0000
0000
0011
0000
0000
0000
0000
0000
,
1001
0000
0001
0100
0010
0100
0001
1000
,
0100
0000
0010
0000
0011
0000
0000
0000
0101
0000
0000
0000
0110
0000
0000
1010
,
0000
1100
1000
0100
0010
0100
1000
0010
,
0100
0000
0001
0000
0101
0000
0000
0110
0000
0000
1010
0000
0000
0000
0000
0000
,
1001
0000
0001
0100
0010
0100
0001
0010
,
0100
0000
1000
0000
1100
0000
0000
0000
0110
0000
0000
0000
0011
0000
0000
1001
,
0000
0101
0001
0100
0010
1000
0100
0010
,
0001
0000
1000
0000
1001
0000
0000
0110
0000
0000
1001
0000
0000
0000
0000
0000
,
1001
0000
1000
0000
0100
0000
1000
0100
,
1000
0000
0001
0000
0100
0000
0010
0100
,
0001
0000
1000
0001
1000
0000
0001
0010
,
0100
0000
1000
0000
0001
0000
0000
0100
0000
0000
0010
0000
1000
0000
0000
0100
,
0000
0010
0001
0000
0010
0000
0001
0010
,
0001
0000
1000
0000
0010
0000
0100
0010
,
1000
0000
0001
1000
0001
0000
1000
0100
,
0010
0001
1000
0001
1000
0001
0100
0010
,
1000
1100
0100
0010
,
0001
0100
0001
0000
0100
0000
0010
0000
,
1000
0010
1000
0000
0001
0000
0100
0000
,
0010
1000
0001
1000
0100
0010
0001
0000
,
1001
0101
0100
0010
,
1000
0000
0100
0000
1000
0000
0000
0000
0100
0000
0010
0000
0001
0000
0000
1000
,
0000
2002
0000
3003
0000
0220
0000
0330
,
0000
2002
0000
0000
0000
0000
0000
0000
,
0000
0000
0000
3003
,
1001
0000
0000
0000
;

//---------------dance-single - OrangeRight----------------
#NOTEDATA:;
#CHARTNAME:OrangeRight;
#STEPSTYPE:dance-single;
#DESCRIPTION:OrangeRight;
#CHARTSTYLE:;
#DIFFICULTY:Hard;
#METER:13;
#RADARVALUES:0.560670,0.628934,0.491704,0.223502,0.259262,439.000000,384.000000,55.000000,25.000000,0.000000,0.000000,0.000000,0.000000,0.000000,0.560670,0.628934,0.491704,0.223502,0.259262,439.000000,384.000000,55.000000,25.000000,0.000000,0.000000,0.000000,0.000000,0.000000;
#CREDIT:OrangeRight;
#DISPLAYBPM:145.000000;
#NOTES:
0000
0000
0000
0000
,
0000
0000
0000
0000
,
0000
0000
0000
0000
,
0000
0000
0000
0000
,
0000
0000
0000
0000
,
0000
0000
0000
0000
,
1000
0000
0100
0000
0010
0000
0001
0000
0100
0000
0010
0000
1000
0000
0001
1000
,
0001
0010
0100
1000
0010
0100
0001
0101
,
0000
0000
1000
0000
0100
0000
0010
0000
0001
0000
0100
0000
0010
0000
1000
0001
,
1000
0001
0100
0020
0000
0000
1030
0000
,
0001
0000
0100
0000
0010
0000
1000
0000
0100
0000
0010
0000
0001
0000
1000
0001
,
1000
0010
0100
0001
0010
0100
1000
1100
,
0000
0001
0100
0001
0010
0100
1000
0010
,
0100
0000
0000
0010
0000
0000
0200
0000
0000
0001
0000
0000
0301
0000
0000
0000
,
1001
1100
0000
0101
,
0000
1010
0000
0011
,
1000
0001
1000
0001
,
0100
0000
0010
0000
0100
0000
0010
0000
1000
0001
1000
0001
1000
0000
0000
0000
,
1001
0000
0100
0000
0010
1000
0100
1000
,
0010
0000
0100
0000
0001
0010
0100
2000
,
0000
0000
0000
0000
3001
0000
0000
0000
1000
0000
0000
0100
0000
0000
0010
0000
,
0001
0000
0100
0001
0100
0000
0010
0000
0100
0000
0000
0001
0000
0000
1000
0000
,
1100
0000
0100
0000
0010
0001
0100
0001
,
0010
0000
0100
1000
0010
0100
0001
0000
,
2001
0000
3100
1002
0000
0000
0103
2001
,
0000
0000
3010
0000
0100
0000
0001
0100
0001
0000
1000
0000
1100
0000
0000
0000
,
1001
0000
0100
0000
0010
0100
1000
0001
,
0100
0000
0010
0100
0001
2000
0000
3002
,
0000
0000
0000
0000
0103
0000
0010
0000
1000
0000
0000
1000
0000
0000
1000
0000
,
0001
0000
0010
0100
1000
0000
0001
0000
1000
0000
0000
0001
0000
0000
0100
0000
,
0101
0000
0010
0000
1000
0001
0010
0001
,
0100
0000
0010
1000
0001
0010
0100
0000
,
2100
0000
3001
0102
0000
0000
1003
1020
,
0000
0000
0100
0000
0031
0010
1000
0002
,
0000
0003
0000
0000
1001
0000
0000
0000
0100
0000
0100
0000
0010
0000
1000
0000
,
0100
0000
0010
0000
0001
0000
0000
0000
0011
0000
0000
0000
0101
0000
0000
0110
,
0000
1010
1001
0000
0100
0100
0010
0001
,
0100
0000
0010
0000
1010
0000
0000
1100
0000
0000
1001
0000
0000
0000
0000
0000
,
1000
0001
1000
0000
1100
0000
0000
0000
0100
0000
0010
0000
0001
0000
0100
0000
,
0010
0000
0000
0000
1010
0000
0000
0000
1100
0000
0000
0000
0110
0000
0000
0011
,
0000
0101
0011
0000
0010
0100
1000
0010
,
0100
0000
0000
0000
0101
0000
0000
0101
0000
0000
0001
0100
0010
0000
1000
0000
,
1001
0000
0000
0000
1100
0000
1000
0000
0010
0000
0100
0000
0001
1000
0000
0001
,
0000
1000
0001
0000
1000
0000
0000
0000
1100
0000
0000
0000
0001
0000
0000
0101
,
0000
0000
1000
0000
1001
0000
0001
0000
0100
0000
0010
0000
1000
0001
0000
1000
,
0000
0001
1000
0000
0001
0000
0000
0011
0000
0000
0110
0000
0000
0000
0000
0000
,
1100
0000
0000
0000
1010
0000
0010
0000
1000
0000
0100
0000
0010
0100
0000
0010
,
0000
0100
0010
0000
0100
0000
0000
0000
1100
0000
0000
0000
0010
0000
0000
0011
,
0000
0000
1001
0000
1100
0000
0000
0000
0100
0000
0010
0000
0001
1000
0000
0001
,
0000
1000
0001
0000
0100
0000
0000
0010
0000
0000
1000
0000
0001
1000
0001
1000
,
0002
0000
0000
0000
1003
0000
0000
1000
0000
0000
0100
0000
0010
0000
0000
0010
,
0000
0000
0001
0000
0100
0000
0000
0100
0000
0000
0010
0000
1000
0000
0001
1000
,
0000
0001
1000
0000
0001
0000
0000
0001
0000
0000
0100
0000
0010
0000
0000
0010
,
0000
0000
1000
0000
0100
0000
0010
0000
0001
0000
1000
0000
0001
1000
0001
0000
,
1000
0000
0000
0000
1000
0000
0000
1000
0000
0000
0100
0000
0010
0000
0000
0010
,
0000
0000
0001
0000
0100
0000
0000
0100
0000
0000
0010
0000
1000
0000
1000
0001
,
0000
0001
1000
0000
0001
0000
0000
0100
0000
0000
0010
0000
1000
0000
0000
0100
,
0000
0000
0010
0000
0001
0000
0010
0000
0100
0000
1000
0010
0100
0000
0001
0000
,
2000
3020
0100
0000
0001
0000
0130
0010
,
2000
3200
0010
0000
0001
0000
0310
0001
,
0200
0320
1000
0000
0100
0000
0031
0010
,
1000
0000
0100
0000
0010
0000
0001
0010
0000
0000
0100
0000
1000
0001
1000
0000
,
0002
0023
0100
0000
1000
0000
0130
0010
,
0001
0000
0100
0000
0010
0000
1000
0000
0100
0010
0100
0000
0110
0000
0000
1100
,
0000
1002
0000
0103
0010
1020
0000
0130
,
0001
2002
0000
0000
0000
0000
0000
0000
,
0000
0000
0000
0000
0000
0000
3003
0100
,
1001
0000
0000
0000
;

//---------------dance-single - OrangeRight----------------
#NOTEDATA:;
#CHARTNAME:OrangeRight;
#STEPSTYPE:dance-single;
#DESCRIPTION:OrangeRight;
#CHARTSTYLE:;
#DIFFICULTY:Challenge;
#METER:15;
#RADARVALUES:0.762460,0.898477,0.393363,0.107281,0.768846,597.000000,553.000000,44.000000,12.000000,4.000000,0.000000,0.000000,0.000000,0.000000,0.762460,0.898477,0.393363,0.107281,0.768846,597.000000,553.000000,44.000000,12.000000,4.000000,0.000000,0.000000,0.000000,0.000000;
#CREDIT:OrangeRight;
#DISPLAYBPM:145.000000;
#NOTES:
// measure 0
0000
0000
0000
0000
,  // measure 1
0000
0000
0000
0000
,  // measure 2
0000
0000
0000
0000
,  // measure 3
0000
0000
0000
0000
,  // measure 4
0000
0000
0000
0000
,  // measure 5
0000
0000
0000
0000
,  // measure 6
1000
0000
0100
0000
0010
0000
0001
0000
1000
0000
0100
0000
0010
0000
0001
1000
,  // measure 7
0010
0100
0001
1000
0010
0100
0001
1001
,  // measure 8
0001
0000
0100
0000
0010
0000
1000
0000
0001
0000
0100
0000
0010
0000
1000
0001
,  // measure 9
0010
0000
0100
0000
1000
0000
0010
0100
0010
0000
1000
0000
1001
0000
0000
0000
,  // measure 10
0001
0000
0100
0000
0010
0000
1000
0000
0001
0000
0100
0000
0010
0000
1000
0001
,  // measure 11
0010
0100
1000
0001
0010
0100
1000
1001
,  // measure 12
1000
0000
0100
0000
0010
0000
0001
0000
1000
0000
0100
0000
0010
0000
0001
1000
,  // measure 13
0010
0000
0100
0010
0100
0000
0020
0000
0000
0100
0000
0000
0130
0000
1000
0001
,  // measure 14
1000
0000
0000
0000
0100
0000
0010
0001
0010
0001
1000
0000
0110
0000
0000
0000
,  // measure 15
0001
0000
0000
0000
0100
0000
0010
1000
0010
1000
0100
0000
1100
0000
0000
0000
,  // measure 16
1000
0100
1000
0010
0100
0001
0010
0001
,  // measure 17
1000
0000
0001
0000
1000
0000
0001
0000
1000
0001
1000
0001
2000
0000
3000
0000
,  // measure 18
1000
0000
0100
0000
0010
0000
0001
1000
0001
0000
0100
0010
0000
0010
0100
0000
,  // measure 19
0001
0000
0100
0000
0010
0000
1000
0001
0010
0000
0100
0000
1000
0000
0020
0000
,  // measure 20
0000
0000
0130
0000
0001
0000
0100
0001
0100
0000
0001
0010
0000
0100
1000
0000
,  // measure 21
0001
0000
0100
0010
0100
0000
0001
0000
1000
0000
0001
0000
0100
0010
1000
0000
,  // measure 22
0001
0000
0100
0000
0010
0000
1000
0001
1000
0000
0100
0010
0000
0010
0100
0000
,  // measure 23
1000
0000
0100
0000
0010
0000
0001
1000
0010
0000
0100
0000
0001
0000
0010
0000
,  // measure 24
0100
1000
0010
0100
0001
0000
0001
0100
0010
1000
0010
0100
0001
0000
1000
0001
,  // measure 25
0010
0100
1000
0010
0100
0001
0010
0100
1000
0001
1000
0001
0200
0000
0000
0000
,  // measure 26
0301
0000
0010
0000
1000
0000
0010
0000
0001
0000
0100
0001
0000
0010
0100
0000
,  // measure 27
1000
0000
0001
0000
0100
0000
1000
0000
0100
0000
0000
0101
0000
0000
0011
0000
,  // measure 28
0010
0000
0100
0000
1100
0000
1000
0000
0010
0000
0100
0001
0000
0001
0100
0000
,  // measure 29
0010
0000
1000
0100
0010
0001
1000
0000
0001
0000
1000
0000
0001
1000
0001
0000
,  // measure 30
1000
0000
0100
0000
0001
0000
0100
0000
1000
0000
0000
1100
0000
0000
1010
0000
,  // measure 31
0010
0000
0100
0000
0001
0000
0010
0000
0011
0000
0000
1100
0000
0000
1001
0000
,  // measure 32
0010
0100
0010
0100
0001
0000
1000
0001
0010
0100
1000
0001
1000
0000
0100
1000
,  // measure 33
0100
0010
0001
0100
0010
1000
0010
0000
1000
0010
0100
0000
0101
0000
1010
0000
,  // measure 34
MMMM
0000
0000
0000
1001
0000
0000
0000
0010
0000
0010
0000
0001
0100
0000
0010
,  // measure 35
0000
1000
0100
0000
1100
0000
0100
0000
0110
0000
0010
0000
0011
0000
0000
1001
,  // measure 36
0000
0000
0101
0000
1001
0000
0000
0000
0100
0000
0100
0000
1000
0010
0000
0100
,  // measure 37
0000
0001
1000
0000
1010
0000
0000
0110
0000
0000
0101
0000
0000
1000
0001
0010
,  // measure 38
0100
1000
0100
0000
1100
0000
0000
0000
1000
0000
0100
0000
0010
0001
0000
1000
,  // measure 39
0000
0001
0100
0000
0101
0000
0100
0000
0110
0000
0010
0000
1000
0010
0000
0100
,  // measure 40
0000
0001
1000
0100
1000
0000
0010
0000
0100
0000
0001
0000
1000
0001
0000
0010
,  // measure 41
0000
0100
1000
0010
0100
0000
0000
1001
0000
0000
0220
0000
0000
0000
0330
0000
,  // measure 42
1001
0000
0000
0000
1000
0000
0100
0000
1000
0000
0010
0000
0100
0001
0000
0001
,  // measure 43
0000
0001
0010
0100
1000
0000
0000
0000
1100
0000
0000
0000
0001
0100
0000
0010
,  // measure 44
0000
1000
0100
1000
0001
0000
0100
0000
0001
0000
0010
0000
0100
1000
0000
1000
,  // measure 45
0000
1000
0010
0100
0001
0000
0000
0011
0000
0000
0110
0000
1000
0001
1000
0000
,  // measure 46
0110
0000
0100
0000
0001
0000
0100
0000
0001
0000
0010
0000
0100
1000
0000
0010
,  // measure 47
0000
0100
0001
1000
0010
0000
0000
0000
1010
0000
0000
0000
1000
0100
0000
0010
,  // measure 48
0000
0001
1000
0001
1000
0000
0100
0000
1000
0000
0010
0000
0100
0001
0000
1000
,  // measure 49
0000
0001
0010
0100
1000
0000
0000
1010
0000
0000
0110
0000
0001
1000
0001
1000
,  // measure 50
0002
0000
0000
0000
1003
0000
0100
1000
0000
0100
1000
0000
0010
0100
0000
0001
,  // measure 51
0000
0100
0000
0010
1000
0000
0100
1000
0000
0100
1000
0000
0001
0100
0000
0010
,  // measure 52
0000
1000
0001
0000
1000
0000
0010
0100
0000
0010
1000
0000
0100
0010
0001
1000
,  // measure 53
0001
0000
0100
0000
0010
0000
1000
0000
0100
0000
0001
0000
0100
1000
0010
0100
,  // measure 54
0001
0000
1000
0000
0001
0000
0100
0001
0000
0100
0001
0000
0010
0100
0000
1000
,  // measure 55
0000
0100
0000
1000
0010
0000
0100
0001
0000
0100
0001
0000
1000
0100
0000
0010
,  // measure 56
0000
0001
1000
0000
0001
0000
0010
0100
0000
0010
0001
0000
0100
0010
1000
0001
,  // measure 57
1000
0100
0010
0001
0100
1000
0001
0010
,  // measure 58
1000
0000
0100
0000
0120
0000
0000
0001
0000
0000
0100
0000
0130
0000
1000
0100
,  // measure 59
0000
0010
0001
0000
0201
0000
0000
0010
0000
0000
1000
0000
0310
0000
1000
0001
,  // measure 60
0000
0010
0100
0000
2100
0000
0000
0001
0000
0000
0010
0000
3100
1000
0010
0100
,  // measure 61
0001
0000
1000
0000
0001
0000
0100
0001
0100
0000
0010
0000
1000
0010
0100
0000
,  // measure 62
1001
0000
0000
0000
0001
0000
0100
0010
0000
1000
0001
0000
0010
0100
0000
1000
,  // measure 63
0000
0001
0000
0100
0010
0000
1000
0001
0010
0001
0100
0001
1000
0100
0010
0001
,  // measure 64
0100
0010
1000
0000
0001
0100
0001
0100
0001
0000
1000
0000
0001
0100
0010
1000
,  // measure 65
0001
0010
0100
2000
0002
0000
0000
0000
0000
0000
0000
0000
0000
0000
0000
0000
,  // measure 66
0000
0000
0000
0000
0000
0000
3003
1001
,  // measure 67
0110
0000
0000
0000
;

//---------------dance-double - OrangeRight----------------
#NOTEDATA:;
#CHARTNAME:OrangeRight;
#STEPSTYPE:dance-double;
#DESCRIPTION:OrangeRight;
#CHARTSTYLE:;
#DIFFICULTY:Easy;
#METER:4;
#RADARVALUES:0.249045,0.329441,0.062580,0.241382,0.022350,195.000000,188.000000,7.000000,27.000000,0.000000,0.000000,0.000000,0.000000,0.000000,0.249045,0.329441,0.062580,0.241382,0.022350,195.000000,188.000000,7.000000,27.000000,0.000000,0.000000,0.000000,0.000000,0.000000;
#CREDIT:OrangeRight;
#DISPLAYBPM:145.000000;
#NOTES:
00000000
00000000
00000000
00000000
,
00000000
00000000
00000000
00000000
,
00000000
00000000
00000000
00000000
,
00000000
00000000
00000000
00000000
,
00000000
00000000
00000000
00000000
,
00000000
00000000
00000000
00000000
,
20000000
00010000
00000000
00010000
,
00000000
00010000
00000000
30010000
,
02000000
00100000
00000000
00100000
,
03010000
00100000
00001000
00010000
,
00002000
00010000
00000000
00010000
,
00000000
00010000
00000000
00013000
,
00020000
00000100
00000000
00030100
,
00001000
00000100
00000010
00000001
,
00001000
00000001
00000000
00001000
,
00000000
00000001
00000000
00001000
,
00000001
00001000
00000001
00001000
,
00000010
00001000
00000100
00010000
,
00011000
00000000
00100000
00001000
,
00010000
00000000
00000100
00010000
,
00001000
01000000
00000000
00010000
,
00000000
00100000
01000000
10000000
,
00010000
00000000
01000000
00001000
,
00010000
00000000
00000100
00010000
,
00002000
00000000
00003000
00020000
00000000
00000000
00030000
00000200
,
00000000
00000300
00010000
00001000
,
00011000
00000000
00000100
00010000
,
00001000
00000000
00100000
00001000
,
00010000
00000010
00000000
00001000
,
00000000
00000100
00000010
00000001
,
00001000
00000000
00000010
00010000
,
00001000
00000000
00100000
00001000
,
00020000
00000000
00030000
00002000
00000000
00000000
00003000
00200000
,
00000000
00300000
00001000
00010000
,
00000000
00020000
00030000
00002000
,
00003000
00010000
00000100
00010000
,
00000100
00002000
00003000
00000002
,
00000003
00000000
00000000
00000000
00000100
00000000
00000000
00000100
00000000
00000000
00000100
00000000
00000000
00000000
00000000
00000000
,
00000010
00002000
00003000
00000002
,
00000003
00000100
00000010
00001000
,
00000100
00020000
00030000
00002000
,
00003000
00000000
00000000
00000000
01000000
00000000
00000000
01000000
00000000
00000000
01000000
00000000
00000000
00000000
00000000
00000000
,
01100000
10010000
10000000
01000000
,
00100000
00010000
00010000
00010000
,
00010000
01000000
00100000
10000000
,
01000000
00000000
00000000
00000000
00100000
00000000
00000000
00100000
00000000
00000000
00100000
00000000
00000000
00000000
00000000
00000000
,
00001000
00010000
00001000
00010000
,
00000100
00001000
00001000
00001000
,
00001000
00000010
00000100
00000001
,
00000010
00000000
00000000
00000000
00000100
00000000
00000000
00000100
00000000
00000000
00000100
00000000
00000000
00000000
00000000
00000000
,
00001001
00000001
00000000
00000001
,
00000100
00000010
00000000
00000010
,
00001000
00000100
00000000
00000100
,
00010000
00001000
01000000
00010000
,
01000000
00001000
00000000
00100000
,
00001000
00010000
00000000
00001000
,
00100000
00010000
00000000
01000000
,
00100000
10000000
01000000
00100000
,
00010000
00200000
00300000
01000000
,
10000000
00020000
00030000
01000000
,
00001000
00020000
00030000
00001000
,
00010000
00000100
00001000
00000100
,
00000010
00000002
00000003
00000100
,
00000010
00000000
00000000
00000000
00002000
00000000
00000000
00000000
00003000
00000000
00000000
00000000
00000001
00000000
00000000
00000001
,
00000000
00000002
00000000
00000000
00000003
00002000
00000000
00000000
,
00003000
00002002
00000000
00000000
00000000
00000000
00000000
00000000
,
00003003
00000000
00000000
00000000
,
00000110
00000000
00000000
00000000
;

//---------------dance-double - OrangeRight----------------
#NOTEDATA:;
#CHARTNAME:OrangeRight;
#STEPSTYPE:dance-double;
#DESCRIPTION:OrangeRight;
#CHARTSTYLE:;
#DIFFICULTY:Medium;
#METER:10;
#RADARVALUES:0.408689,0.509137,0.411243,0.277142,0.049170,320.000000,274.000000,46.000000,31.000000,0.000000,0.000000,0.000000,0.000000,0.000000,0.408689,0.509137,0.411243,0.277142,0.049170,320.000000,274.000000,46.000000,31.000000,0.000000,0.000000,0.000000,0.000000,0.000000;
#CREDIT:OrangeRight;
#DISPLAYBPM:145.000000;
#NOTES:
00000000
00000000
00000000
00000000
,
00000000
00000000
00000000
00000000
,
00000000
00000000
00000000
00000000
,
00000000
00000000
00000000
00000000
,
00000000
00000000
00000000
00000000
,
00000000
00000000
00000000
00000000
,
20000000
01000000
00000000
00100000
,
00000000
00000000
00010000
00000000
00000000
00000000
31000000
00100000
,
00020000
01000000
00000000
00100000
,
01030000
00001000
00010000
00000100
,
00002000
00000001
00000000
00000010
,
00000000
00000000
00000100
00000000
00000000
00000000
00003010
00000100
,
00000002
00000000
00000203
00000000
,
00000320
00020030
00032000
02003000
,
03010000
01010000
00000000
10100000
,
00000000
11000000
00000000
00110000
,
10000000
00010000
10000000
00010000
,
00100000
01000000
00100000
01000000
10000000
00010000
10000000
00000000
,
00010000
00000000
00000000
00000000
01000000
00000000
00000000
00000000
00001000
00000000
00000000
00010000
00000000
00000000
00000100
00000000
,
00001000
00000000
00000010
00000000
00001000
00000100
00000000
00020000
,
00000000
00031000
01000000
00100000
,
10000000
00010000
10000000
01000000
00100000
00000000
00010000
00000000
,
00100000
00000000
00000000
00000000
00001000
00000000
00000000
00000000
00010000
00000000
00000000
00000100
00000000
00000000
00001000
00000000
,
00000100
00000000
00000000
00000000
00010000
00000000
00000000
00000000
00001000
00000000
00000000
01000000
00000000
00000000
00010000
00000000
,
02020000
00000000
03030000
20200000
00000000
30300000
00000000
20020000
,
00000000
30030000
10000000
01000000
00100000
00010000
10000000
00000000
,
10010000
00000000
10010000
00000000
10000000
00000000
00010000
01000000
,
00010000
00000000
01010000
00000000
01000000
00001000
00010000
00000200
,
00000000
00000000
00000000
00000000
00001300
00000000
00000000
00000000
00001000
00000000
00000000
00000100
00000000
00000000
00000010
00000000
,
00000001
00000100
00000010
00001000
00000100
00000000
00010000
00001000
,
00010000
00000000
00000000
00000000
00001000
00000000
00000000
00000000
01000000
00000000
00000000
00001000
00000000
00000000
01000000
00000000
,
00010000
00000000
00100000
00001000
00010000
00000100
00001000
00000000
,
00002200
00000000
00003300
00022000
00000000
00000000
00033000
00220000
,
00000000
00330000
10000000
00010000
,
00000000
00000000
00100000
00000000
00001000
00000000
00010000
00001000
,
00010000
00011000
00011000
00010100
,
00010100
00000000
00000100
00000000
00010000
00000000
00001000
00010000
,
00001000
00000000
00000000
00000000
00011000
00000000
00000000
00011000
00000000
00000000
00101000
00000000
00000000
00000000
00000000
00000000
,
00110000
00000000
00100000
00000000
00010000
00000000
01000000
00001000
,
00010000
00011000
00011000
00010010
,
00010010
00000000
00000010
00000000
00001000
00000100
00010000
00001000
,
00100000
00000000
00000000
00000000
10010000
00000000
00000000
10010000
00000000
00000000
01100000
00000000
00000000
00000000
00000000
00000000
,
00100000
00000000
10000000
00000000
01000000
00000000
00100000
00010000
,
01000000
00000000
01001000
00000000
00011000
00000000
00010000
00000100
,
00001000
00000000
00000010
00000000
00001000
00000000
00000100
00000010
,
00000001
00000000
00000000
00000000
00000101
00000000
00000000
00000101
00000000
00000000
00000011
00000000
00000000
00000000
00000000
00000000
,
00000110
00000000
00000001
00000000
00000010
00000000
00000100
00001000
,
00000010
00000000
00010010
00000000
00011000
00000000
00001000
00100000
,
00010000
00000000
01000000
00000000
00010000
00000000
00100000
01000000
,
10000000
00000000
00000000
00000000
01100000
00000000
00000000
10010000
00000000
00000000
01100000
00000000
00000000
00000000
00000000
00000000
,
10010000
00000000
10000000
00000000
01000000
00000000
10000000
01000000
,
10000000
00000000
00010000
00000000
01000000
00000000
00010000
01000000
,
00010000
00000000
00100000
00000000
00001000
00000000
00010000
00000100
,
00001000
00000000
00000001
00001000
00000001
00001000
00000010
00000100
,
00000010
00000000
00001000
00000000
00000100
00000000
00001000
00000100
,
00001000
00000000
00000001
00000000
00000100
00000000
00000001
00000100
,
00000001
00000000
00000100
00000000
00000010
00000000
00001000
00000100
,
00010000
00000000
00001000
01000000
00100000
10000000
01000000
00100000
,
00010000
20000000
01000000
30100000
,
01000000
00010000
00200000
00000000
00010000
00000000
00301000
00000000
,
00010000
00001000
02000000
00000000
00100000
00000000
03010000
00000000
,
00100000
00000000
00001000
00000000
00010000
00000000
00000000
00000100
00000000
00000000
00001000
00000000
00000001
00000000
00000100
00000000
,
00000010
00001000
00000002
00000000
00000100
00000000
00001003
00000000
,
00000010
00000000
00000100
00000000
00000001
00000000
00001000
00000000
00000100
00000000
00000010
00000000
00000011
00000000
00000000
00000110
,
00000000
00001200
00000000
00010300
00000000
00012000
00000000
01003000
,
00000000
02020000
00000000
00000000
00000000
00000000
00000000
00000000
,
00000000
00000000
00000000
03030000
,
10100000
00000000
00000000
00000000
;

//---------------dance-double - OrangeRight----------------
#NOTEDATA:;
#CHARTNAME:OrangeRight;
#STEPSTYPE:dance-double;
#DESCRIPTION:OrangeRight;
#CHARTSTYLE:;
#DIFFICULTY:Hard;
#METER:13;
#RADARVALUES:0.560670,0.628934,0.598984,0.205622,0.245852,439.000000,372.000000,67.000000,23.000000,0.000000,0.000000,0.000000,0.000000,0.000000,0.560670,0.628934,0.598984,0.205622,0.245852,439.000000,372.000000,67.000000,23.000000,0.000000,0.000000,0.000000,0.000000,0.000000;
#CREDIT:OrangeRight;
#DISPLAYBPM:145.000000;
#NOTES:
00000000
00000000
00000000
00000000
,
00000000
00000000
00000000
00000000
,
00000000
00000000
00000000
00000000
,
00000000
00000000
00000000
00000000
,
00000000
00000000
00000000
00000000
,
00000000
00000000
00000000
00000000
,
00100000
10000000
01000000
00100000
00010000
01000000
00001000
00010000
,
00000100
00001000
00000100
00000010
00000001
00000100
00000010
00001010
,
00000000
00000001
00000010
00000100
00001000
00000010
00010000
00001000
,
00010000
00000100
00001000
00000020
00000000
00000000
00000130
00000000
,
00000010
00000001
00000100
00000010
00001000
00000100
00010000
00001000
,
01000000
00010000
01000000
00100000
10000000
01000000
00100000
00110000
,
00000000
10000000
00100000
01000000
00010000
00100000
00001000
00010000
,
00001000
01000000
00010000
00200000
00000000
00000000
01300000
00000000
,
00000000
10100000
00000000
01010000
,
00000000
00101000
00000000
00010100
,
00001010
00000101
00000011
00001100
,
00001000
00000000
00000001
00000000
00001000
00000000
00000001
00000000
00000100
00000010
00000100
00000010
00000000
00000000
00000000
00000000
,
00001001
00000000
00000000
00000000
00001001
00000000
00000000
00000001
00000100
00000000
00000000
00000010
00000000
00000000
00001000
00000000
,
00000100
00000000
00000000
00000000
00010000
00000000
00000000
00001000
00100000
00000000
00020000
00000000
00000000
00000000
02030000
00000000
,
00000000
00000000
00000000
00000000
03100000
00000000
10000000
00000000
00010000
00000000
00000000
00010000
00000000
00000000
00010000
00000000
,
10000000
00000000
01000000
00100000
00010000
00000000
01000000
00000000
00100000
00000000
00000000
10000000
00000000
00000000
00010000
00000000
,
10010000
00000000
00000000
00000000
10010000
00000000
00000000
10000000
01000000
00000000
00000000
00100000
00000000
00000000
00010000
00000000
,
01000000
00000000
00001000
00010000
00000100
00001000
00000010
00000000
,
00000120
00000000
00001030
00001200
00000000
00010300
00001000
00021000
,
00000000
00000000
00030010
00000000
00000100
00000000
00000001
00001000
00000001
00000000
00001000
00000000
00001001
00000000
00000000
00000000
,
00001001
00000000
00000000
00000000
00001010
00000000
00000000
00000010
00001000
00000000
00000000
00000100
00000000
00000000
00010000
00000000
,
00001000
00000000
00000000
00000000
00100000
00000000
00010000
00000000
02000000
00000000
00000000
03200000
00000000
00000000
20300000
00000000
,
00000000
00000000
00000000
00000000
30010000
00000000
01000000
00000000
00001000
00000000
00000000
00010000
00000000
00000000
00001000
00000000
,
00100000
00000000
00010000
01000000
00100000
00000000
10000000
00000000
00010000
00000000
00000000
10000000
00000000
00000000
00010000
00000000
,
10010000
00000000
00000000
00000000
00110000
00000000
00000000
00100000
00001000
00000000
00000000
00010000
00000000
00000000
00001000
00000000
,
00010000
00000000
00000100
00001000
00000010
00000100
00000001
00001000
,
00002001
00000000
00003100
00020100
00000000
00031000
00100000
00120000
,
00000000
00000000
01030000
00000000
00100000
00000000
10000000
00000000
00010000
00100000
01000000
00000000
10000000
00000000
00010000
00000000
,
00000000
00000000
10010000
00000000
00100000
00100000
01000000
00010000
,
00100000
00000000
01000000
00000000
11000000
00000000
00000000
00000000
10100000
00000000
00000000
00000000
01100000
00000000
00000000
01010000
,
00000000
00110000
00101000
00000000
00001000
00010000
00001000
00100000
,
00010000
00000000
00000000
00000000
00110000
00000000
00000000
00101000
00000000
00000000
00011000
00000000
00000000
00000000
00000000
00000000
,
00010100
00000000
00001001
00000000
00000010
00000010
00000001
00000100
,
00000010
00000000
00001000
00000000
00001100
00000000
00000000
00000000
00010100
00000000
00000000
00000000
00011000
00000000
00000000
00101000
,
00000000
00110000
01010000
00000000
00100000
10000000
01000000
00010000
,
01000000
00000000
10000000
00000000
00100000
00000000
00000000
01000000
00000000
00000000
01010000
00000000
00000000
00000000
00000000
00000000
,
01001000
00000000
00021000
00000000
00030100
00001000
00000100
00000001
,
00000100
00000000
00001000
00000000
00001001
00000000
00000000
00000000
00001010
00000000
00000000
00000000
00000100
00001000
00000000
00000010
,
00000000
00000100
00000001
00000000
00000201
00000000
00000000
00000000
00000310
00000000
00001000
00000000
00000010
00000000
00010000
00000000
,
00001000
00000000
00010000
00000000
00010010
00000000
00000000
00010100
00000000
00000000
00011000
00000000
00000000
00000000
00000000
00000000
,
00101000
00000000
00012000
00000000
00103000
00010000
00100000
10000000
,
00100000
00000000
00010000
00000000
10010000
00000000
00000000
00000000
01010000
00000000
00000000
00000000
00100000
00010000
00000000
01000000
,
00000000
00100000
10000000
00000000
10100000
00000000
00000000
00000000
00100000
00000000
01000000
00000000
00010000
00000000
01000000
00000000
,
10000000
00000000
01000000
00000000
01100000
00000000
00000000
10010000
00000000
00000000
01100000
00000000
10000000
00010000
10000000
00010000
,
10000000
00000000
00000000
00000000
10000000
00000000
00000000
01000000
00000000
00000000
00100000
00000000
00010000
00000000
00000000
01000000
,
00000000
00000000
00001000
00000000
00010000
00000000
00000000
00000100
00000000
00000000
00001000
00000000
00000010
00000000
00000000
00000100
,
00000000
00000100
00000001
00000000
00001000
00000000
00000000
00000100
00000000
00000000
00000010
00000000
00000001
00000000
00000000
00000100
,
00000000
00000000
00000010
00000000
00001000
00000000
00000100
00000000
00010000
00000000
00000000
00000000
00001000
00010000
00001000
00010000
,
00000000
00001000
01000000
00000000
00010000
00000000
00000000
00100000
00000000
00000000
01000000
00000000
10000000
00000000
00000000
00100000
,
00000000
00000000
01000000
00000000
00010000
00000000
00000000
00100000
00000000
00000000
00001000
00000000
00010000
00000000
00000000
00000100
,
00000000
00000000
00001000
00000000
00000010
00000000
00000000
00000100
00000000
00000000
00000001
00000000
00000010
00000000
00000000
00000100
,
00000000
00001000
00000001
00001000
00000010
00010000
00001000
00100000
,
00010000
20000000
00100000
00000000
00010000
00000000
31000000
00100000
,
00010000
02000000
00001000
00000000
00010000
00000000
03001000
00010000
,
00000100
00002000
00000010
00000000
00000001
00000000
00003100
00000010
,
00000001
00000000
00000100
00000000
00000010
00000000
00000000
00001000
00000000
00000000
00000100
00000000
00010000
00001000
00010000
00000000
,
00001000
00000000
00100000
00000000
00010000
00000000
00000000
01000000
00000000
00000000
00100000
00000000
10000000
00000000
00000000
01000000
,
00000000
00000000
00100000
00000000
00010000
00000000
01000000
00000000
00100000
00000000
10000000
00000000
11000000
00000000
00000000
01100000
,
00000000
00210000
00000000
00301000
00000000
00001020
00000000
00010030
,
00000000
00022000
00000000
00000000
00000000
00000000
00000000
00000000
,
00000000
00000000
00000000
00000000
00000000
00000000
00033000
00101000
,
00010100
00000000
00000000
00000000
;

//---------------dance-double - OrangeRight----------------
#NOTEDATA:;
#CHARTNAME:OrangeRight;
#STEPSTYPE:dance-double;
#DESCRIPTION:OrangeRight;
#CHARTSTYLE:;
#DIFFICULTY:Challenge;
#METER:15;
#RADARVALUES:0.761183,0.898477,0.902947,0.098341,0.666035,596.000000,495.000000,101.000000,11.000000,8.000000,0.000000,0.000000,0.000000,0.000000,0.761183,0.898477,0.902947,0.098341,0.666035,596.000000,495.000000,101.000000,11.000000,8.000000,0.000000,0.000000,0.000000,0.000000;
#CREDIT:OrangeRight;
#DISPLAYBPM:145.000000;
#NOTES:
00000000
00000000
00000000
00000000
,
00000000
00000000
00000000
00000000
,
00000000
00000000
00000000
00000000
,
00000000
00000000
00000000
00000000
,
00000000
00000000
00000000
00000000
,
00000000
00000000
00000000
00000000
,
10000000
00000000
00010000
00000000
01000000
00000000
00001000
00000000
00010000
00000000
00000100
00000000
00001000
00000000
00000001
00001000
,
00000001
00001000
00000010
00010000
00001000
00100000
00010000
10010000
,
10000000
00000000
00010000
00000000
00100000
00000000
00001000
00000000
00010000
00000000
00000010
00000000
00001000
00000000
00000001
00001000
,
00000001
00001000
00000100
00020000
00001000
00031000
01001000
00000000
,
00001000
00000000
00100000
00000000
00010000
00000000
01000000
00000000
00100000
00000000
10000000
00000000
01000000
00000000
00100000
00010000
,
01000000
00001000
00010000
00000100
00001000
00000010
00010000
00010010
,
00010000
00000000
00000100
00000000
00001000
00000000
00000010
00000000
00000100
00000000
00000001
00000000
00000010
00000000
00000100
00001000
,
00000010
00000000
00010000
00000000
00001000
00000000
00200000
00000000
00000000
00010000
00000000
00000000
00301000
00000000
00001000
00010000
,
00000100
00000000
00000000
00000000
00010000
00000000
00001000
00010000
00001000
00010000
00000100
00000000
00010000
00000000
00000000
00000000
,
00001000
00000000
00000000
00000000
00100000
00000000
00001000
00010000
00001000
00010000
00000010
00000000
00001000
00000000
00000000
00000000
,
00001010
00000010
00000110
00000100
00000101
00000001
00000011
00000010
,
00000110
00000000
00000110
00000000
00001001
00000000
00001001
00000000
00001000
00000001
00001000
00000001
00000000
00000000
00000000
00000000
,
00001001
00000000
00000000
00000000
00001001
00000000
00000000
00000000
00001010
00000000
00000000
00001010
00000000
00000000
00010010
00000000
,
00011000
00000000
00000000
00000000
00011000
00000000
00000000
00000000
01001000
00000000
00000000
01001000
00000000
00000000
01010000
00000000
,
01100000
00000000
00000000
00000000
10100000
00000000
00000000
00000000
11000000
00000000
00000000
01100000
00000000
00000000
00110000
00000000
,
10000000
00000000
00010000
01000000
00100000
00000000
10000000
00000000
00010000
00000000
10000000
00010000
00000000
10000000
00010000
00000000
,
10010000
00000000
00000000
00000000
10010000
00000000
00000000
00000000
00110000
00000000
00000000
00110000
00000000
00000000
00101000
00000000
,
00011000
00000000
00000000
00000000
00011000
00000000
00000000
00000000
00010100
00000000
00000000
00010100
00000000
00000000
00001100
00000000
,
00000100
00000010
00000100
00000010
00000001
00000000
00000001
00000100
00000010
00001000
00000100
00010000
00001000
00000000
01000000
00001000
,
00010000
00001000
01000000
00010000
00100000
01000000
10000000
00100000
01000000
00000000
00010000
00000000
10010000
00000000
00000000
00000000
,
11000000
00000000
00000000
00000000
01100000
00000000
00000000
00000000
00110000
00000000
00000000
01001000
00000000
00000000
00011000
00000000
,
00010100
00000000
00000000
00000000
00001010
00000000
00000000
00000000
00000101
00000000
00000000
00000011
00000000
00000000
00000110
00000000
,
00001100
00000000
00000000
00000000
00010100
00000000
00000000
00000000
00011000
00000000
00000000
00101000
00000000
00000000
00110000
00000000
,
00100000
00000000
00010000
01000000
00001000
00010000
00000100
00000000
00001000
00000000
00000001
00000000
00001000
00000001
00000100
00000000
,
00000101
00000000
00000000
00000000
00000110
00000000
00000000
00000000
00001010
00000000
00000000
00010100
00000000
00000000
00011000
00000000
,
01001000
00000000
00000000
00000000
00110000
00000000
00000000
00000000
11000000
00000000
00000000
10100000
00000000
00000000
01100000
00000000
,
00010000
01000000
00010000
01000000
00001000
00000000
00010000
00001000
00100000
00001000
00010000
00000100
00001000
00000000
00000010
00000100
,
00000001
00000010
00000100
00001000
00000010
00000100
00000001
00001000
00000001
00000010
00000100
00000000
00001000
00000000
00010100
00000000
,
MMMMMMMM
00000000
00000000
00000000
00010010
00000000
00000000
00000000
00010000
00000000
00001000
00000000
00100000
00001000
00000000
00010000
,
00000000
00000100
00001000
00000010
00001000
00000000
00000000
00000000
00000110
00000000
00000000
00000000
00000101
00000000
00000000
00000011
,
00000000
00000000
00000110
00000000
00001001
00000000
00000000
00000000
00000001
00000000
00000001
00000000
00001000
00000100
00000000
00010000
,
00000000
00001000
00100000
00010000
01000000
00000000
00000000
01100000
00000000
00000000
01010000
00000000
01000000
00001000
00010000
00000000
,
00001000
00010000
00001000
00000000
00101000
00000000
00000000
00000000
00001000
00000000
00010000
00000000
00000010
00010000
00000000
00001000
,
00000000
01000000
00010000
00100000
00010000
00000000
00000000
00000000
01100000
00000000
00000000
00000000
11000000
00000000
00000000
10100000
,
00000000
00000000
01100000
00000000
10010000
00000000
00000000
00000000
10000000
00000000
10000000
00000000
00010000
01000000
00000000
00001000
,
00000000
00010000
00000010
00000000
00010010
00000000
00000000
00011000
00000000
00000000
00001000
01000000
00010000
00000000
00100000
00000000
,
01000000
10000000
00000000
00010000
10000000
00000000
01000000
00000000
00010000
00000000
01000000
00000000
10000000
00010000
00000000
01000000
,
00000000
00001000
00010000
00000100
00010000
00000000
00000000
00000000
00010100
00000000
00000000
00000000
00101000
00000000
00000000
00010100
,
00000000
00000000
01001000
00000000
00011000
00000000
00001000
00000000
00000100
00000000
00000001
00000000
00000010
00000100
00000000
00001000
,
00000000
00000010
00000100
00000001
00001000
00000000
00000000
00000110
00000000
00000000
00001001
00000000
00001000
00000001
00000100
00000000
,
00000101
00000000
00000000
00000000
00000001
00000000
00000100
00000000
00001000
00000000
00000100
00000000
00000010
00010000
00000000
00001000
,
00000000
00100000
00010000
01000000
00100000
00000000
00000000
00000000
01100000
00000000
00000000
00000000
01010000
00000000
00000000
00110000
,
00000000
00000000
01100000
00000000
10000000
00000000
01000000
00000000
00010000
00000000
01000000
00000000
00100000
00001000
00000000
00010000
,
00000000
00000100
00001000
00000010
00000100
00000000
00000000
00000101
00000000
00000000
00001001
00000000
00001000
00000001
00001000
00000001
,
00002000
00000000
00003000
00000000
00000001
00000000
00000001
00000100
00000000
00000100
00000010
00000000
00000010
00001000
00000000
00000100
,
00000000
00010000
00000000
00001000
00010000
00000000
00010000
00001000
00000000
00001000
00010000
00000000
00001000
00100000
00000000
00010000
,
00000000
01000000
00100000
00000000
10000000
00000000
00010000
10000000
00000000
00100000
01000000
00000000
00010000
10000000
00010000
00100000
,
01000000
00000000
10000000
00000000
00100000
01000000
00100000
00000000
01000000
00000000
00010000
00000000
10000000
00010000
10000000
00010000
,
01000000
00000000
00100000
00000000
10000000
00000000
10000000
01000000
00000000
01000000
00100000
00000000
00100000
00010000
00000000
01000000
,
00000000
00001000
00000000
00010000
00001000
00000000
00001000
00010000
00000000
00010000
00001000
00000000
00010000
00000010
00000000
00001000
,
00000000
00000100
00000010
00000000
00000001
00000000
00001000
00000001
00000000
00000010
00000100
00000000
00001000
00000010
00000100
00000001
,
00000010
00000000
00000001
00000000
00000100
00000000
00001000
00000000
00000100
00000000
00000001
00000010
00000100
00000000
00001000
00000000
,
00000010
00000000
00000001
00000000
00000020
00000000
00000000
00000100
00000000
00000000
00000001
00000000
00000130
00000000
00000010
00000000
,
00001000
00000000
00000100
00000000
00020000
00000000
00000000
00000100
00000000
00000000
00031000
00000000
00000010
00000000
00010000
00000000
,
00001000
00000000
01000000
00000000
00020000
00000000
00000000
00100000
00000000
00000000
10000000
00000000
01030000
00100000
10000000
00010000
,
01000000
00000000
00100000
00000000
10000000
00000000
00010000
10000000
00000000
00100000
01000000
00000000
00010000
00100000
01000000
00000000
,
10000000
00000000
00100000
00000000
01200000
00000000
00000000
10000000
00000000
00000000
01300000
00000000
02010000
00000000
00000000
00100000
,
00000000
00000000
03010000
00000000
00201000
00000000
00000000
00010000
00000000
00000000
00301000
00000000
00010100
00000000
00000000
00101000
,
00000000
00000000
00010010
00000000
00000010
00010000
00001000
00100000
00010000
00000000
00010000
01000000
00001000
00010000
00000100
00001000
,
00000010
00000100
00000001
00002000
00000002
00000000
00000000
00000000
00000000
00000000
00000000
00000000
00000000
00000000
00000000
00000000
,
00000000
00000000
00000000
00000000
00000000
00000000
00003003
00010010
,
01001000
00000000
00000000
00000000
;
