#TITLE:Take Me To Your Heaven;
#SUBTITLE:;
#ARTIST:Charlotte Nilsson;
#TITLETRANSLIT:;
#SUBTITLETRANSLIT:;
#ARTISTTRANSLIT:;
#CREDIT:;
#BANNER:Take Me To Your Heaven.png;
#BACKGROUND:Take Me To Your Heaven-bg.png;
#LYRICSPATH:;
#CDTITLE:;
#MUSIC:Take Me To Your Heaven.mp3;
#OFFSET:-1.690;
#SAMPLESTART:40.000;
#SAMPLELENGTH:13.330;
#SELECTABLE:YES;
#DISPLAYBPM:144.000;
#BPMS:0.000=143.472,8.000=143.772,24.000=144.000,32.000=144.400,40.000=144.000,56.000=144.440,64.000=144.000,140.000=144.300,156.000=144.000,200.000=144.300,208.000=144.200,216.000=144.000;
#STOPS:188.000=1.667
;
#BGCHANGES:;

//---------------dance-single - ----------------
#NOTES:
     dance-single:
     :
     Hard:
     11:
     0.501,0.457,0.271,0.212,0.563: // measure 1
0000
0000
0000
0000
,  // measure 2
0000
0000
0000
0000
,  // measure 3
0001
0000
0100
0001
0000
2000
0000
0000
0010
0000
0000
0001
,  // measure 4
0000
0000
0001
0000
0000
3100
0000
0000
0000
1000
0000
0001
,  // measure 5
0100
0000
0000
0010
0000
0000
1000
0000
0000
0001
0000
0101
,  // measure 6
0000
0000
0000
1000
0000
1100
0000
0000
0000
0001
0000
1000
,  // measure 7
0100
0000
0010
0001
0000
0002
0000
0000
0010
0000
0000
1000
,  // measure 8
0000
0000
0100
0000
0000
1003
0000
0000
1000
0001
0000
0000
,  // measure 9
0101
0010
1001
0100
,  // measure 10
0011
0000
0000
1100
0000
0000
1001
0000
0000
1000
0100
0010
,  // measure 11
0001
0000
1000
0010
0000
0200
0000
0000
1000
0000
0000
0010
,  // measure 12
0000
0000
0001
0000
0000
0301
0100
0000
0000
0010
0000
1000
,  // measure 13
0100
0000
0000
0001
0000
0000
0100
0000
0100
1000
0000
0001
,  // measure 14
0100
0000
0000
0010
0000
1001
0000
0000
0000
0100
0000
0001
,  // measure 15
0010
0000
0010
0100
0000
2000
0000
0000
0010
0000
0000
0001
,  // measure 16
0000
0000
0100
0000
0000
3100
0000
0000
1000
0001
0000
0000
,  // measure 17
1001
0100
1010
0001
,  // measure 18
1100
0000
0000
0010
0000
0000
0001
1000
0001
1000
0001
1000
,  // measure 19
0100
0000
0000
1000
0000
0000
0100
0000
0010
0001
0000
1000
,  // measure 20
0001
0000
0001
0100
0000
0100
0010
0000
0010
1000
0000
1000
,  // measure 21
0100
0000
0000
0010
0000
0000
0001
0000
1000
0010
0000
0100
,  // measure 22
0001
1000
2001
3010
,  // measure 23
1000
0000
0001
0100
0000
0100
0001
0000
0001
0010
0100
0010
,  // measure 24
0002
0000
0000
0010
0000
0000
1000
0000
0000
0103
0000
0101
,  // measure 25
0000
0000
0001
1000
0000
1000
0100
0000
0000
1100
0000
0000
,  // measure 26
2000
0000
0000
0010
0000
0000
0001
0000
0000
3100
0000
1100
,  // measure 27
0000
0000
1000
0001
0000
0100
0010
1000
0001
1000
0000
1000
,  // measure 28
0200
0000
0000
0001
0000
0000
0010
0000
0000
1000
0000
1300
,  // measure 29
0000
0000
1100
0000
0000
1000
0001
0000
0001
0100
0000
0100
,  // measure 30
0010
1000
0100
0001
,  // measure 31
1000
0000
0000
0010
0000
0000
0001
1000
0001
1000
0000
0010
,  // measure 32
0200
0000
0000
1000
0000
0000
0301
0000
0000
0001
0000
1001
,  // measure 33
0000
0000
1000
0100
0000
1000
0002
0000
0000
0013
0000
0001
,  // measure 34
0020
0000
0000
1000
0000
0000
0031
0000
0000
0001
0000
1001
,  // measure 35
0000
0000
1000
0010
0000
0100
0001
0000
0000
1000
0000
0100
,  // measure 36
2000
0000
0000
0010
0000
0000
0001
0000
0000
3100
0000
1100
,  // measure 37
0000
0000
1000
0002
0000
0000
0103
0000
0000
0001
0000
0001
,  // measure 38
1000
0010
0100
0001
,  // measure 39
0001
0000
0100
1000
0000
0100
1000
0000
0100
0001
0000
0100
,  // measure 40
1000
0100
0001
0010
,  // measure 41
0100
0000
0000
1000
0000
0000
0010
0000
0000
1000
0000
0001
,  // measure 42
1000
0100
0010
1000
,  // measure 43
0001
0000
0000
0100
0000
0000
1000
0000
0000
0001
1000
0100
,  // measure 44
0010
0001
0100
1000
,  // measure 45
0001
0010
1000
0010
,  // measure 46
0101
0000
0000
0010
0000
0000
1001
0000
0000
0100
0000
0001
,  // measure 47
1000
0100
0010
1001
,  // measure 48
2002
3003
0000
0000
0000
0000
1000
0100
1000
0001
0100
0001
,  // measure 49
0100
0000
0000
1001
0000
0000
0100
0000
0000
0010
0000
2000
,  // measure 50
0000
0000
3100
0010
0000
0010
0100
0000
0000
1001
0000
0001
,  // measure 51
0100
0000
0000
1100
0000
0000
0100
0000
0000
0001
0000
2000
,  // measure 52
0000
0000
3100
0010
0000
0100
2000
0000
0000
3002
0000
0000
,  // measure 53
0103
0000
0000
1001
0000
0000
0010
0000
0000
1000
0000
0002
,  // measure 54
0000
0000
0103
0001
0000
0001
1000
0000
1000
0100
0000
0100
,  // measure 55
0010
0001
1000
0010
,  // measure 56
0100
0000
0000
0001
0000
0000
1000
0100
1000
0100
0000
1000
,  // measure 57
0001
0000
0000
1000
0000
0000
0100
0000
0000
1000
0000
1001
,  // measure 58
0000
0000
0001
0100
0000
0100
0001
0000
0000
1000
0000
0001
,  // measure 59
0020
0000
0000
2030
0000
0000
3020
0000
0000
0031
0000
0001
,  // measure 60
1000
0000
0010
0100
0000
0010
0100
0000
0000
0001
0000
1000
,  // measure 61
0100
0000
0000
0001
0000
0000
0100
0000
0000
0010
0000
0001
,  // measure 62
0010
0000
0000
0001
0000
0000
0100
0010
0100
0010
0000
1000
,  // measure 63
0001
0000
0001
0100
0000
0001
0100
0000
0000
0010
0000
1001
,  // measure 64
0000
0000
1000
0100
0000
1000
0100
0000
0010
0100
0000
0010
,  // measure 65
0001
0000
0000
0100
0000
0000
1000
0000
0000
0100
0000
0010
,  // measure 66
1000
0001
0011
1100
,  // measure 67
2002
0000
0000
3003
,  // measure 68
1000
0100
1000
0000
0001
0100
0010
0000
0000
0000
0000
0000
;

//---------------dance-single - ----------------
#NOTES:
     dance-single:
     :
     Medium:
     8:
     0.414,0.429,0.152,0.203,0.258: // measure 1
0000
0000
0000
0000
,  // measure 2
0000
0000
0000
0000
,  // measure 3
1000
0100
1000
0001
,  // measure 4
0100
0000
0000
0010
0000
0000
1000
0000
0000
0001
0000
0100
,  // measure 5
0002
0000
0000
0000
0000
0000
0010
0000
0000
1000
0000
1000
,  // measure 6
0000
0000
0000
0100
0000
0100
0000
0000
0000
1003
0000
0001
,  // measure 7
1000
0100
0010
0100
,  // measure 8
1000
0000
0000
0001
0000
0000
0100
0000
0000
0010
0000
0100
,  // measure 9
0020
1030
2000
3100
,  // measure 10
0200
0310
0020
0031
,  // measure 11
0110
0001
1000
0010
,  // measure 12
0100
0000
0000
0001
0000
0000
0010
0000
0000
0001
0000
0001
,  // measure 13
2000
0000
0000
0000
0000
0000
0010
0000
0000
0001
0000
0001
,  // measure 14
0000
0000
0000
0100
0000
0100
0000
0000
0000
3001
0000
1000
,  // measure 15
0001
0000
0000
1000
0000
0000
0100
0000
0000
0010
0000
0001
,  // measure 16
0100
0000
0000
0010
0000
0000
0100
0000
0000
0001
0000
1000
,  // measure 17
0200
0310
0200
1300
,  // measure 18
0200
0000
0000
0301
0000
0000
0100
0000
0010
0100
0000
0010
,  // measure 19
0001
1000
0001
0100
,  // measure 20
0010
0000
0010
1000
0000
1000
0100
0000
0100
0010
0000
0010
,  // measure 21
0001
0000
0000
0100
0000
0000
0001
0000
0000
1000
0000
0100
,  // measure 22
2000
0010
0002
3003
,  // measure 23
0010
0000
0000
1000
0000
0000
0001
0000
1000
0001
0000
1000
,  // measure 24
0002
0000
0000
1000
0000
0000
0010
0000
0000
1003
0000
0001
,  // measure 25
0000
0000
1000
0001
0000
0000
0100
0000
0000
0010
0000
0000
,  // measure 26
2000
0000
0000
0010
0000
0000
0001
0000
0000
3100
0000
1000
,  // measure 27
0000
0000
0100
1000
0000
0000
0100
0000
0000
1000
0000
0000
,  // measure 28
0020
0000
0000
1000
0000
0000
0001
0000
0000
1030
0000
0010
,  // measure 29
0000
0000
1000
0010
0000
0000
1000
0000
0000
0001
0000
0000
,  // measure 30
1000
0100
0001
0010
,  // measure 31
1000
0001
1000
0100
,  // measure 32
0120
0000
0000
0001
0000
0000
0100
0000
0000
0031
0000
1000
,  // measure 33
0000
0000
0001
0100
0000
0001
0100
0000
0000
0010
0000
1000
,  // measure 34
0200
0000
0000
1000
0000
0000
0010
0000
0000
1300
0000
0100
,  // measure 35
0000
0000
1000
0001
0000
0000
1000
0000
0000
0100
0000
1000
,  // measure 36
0100
0000
0000
0010
0000
0000
0100
0000
0000
0010
0000
0001
,  // measure 37
0010
0000
0000
0001
0000
0000
0100
0000
0000
0010
0000
1000
,  // measure 38
0001
0100
1000
0100
,  // measure 39
0001
0000
0000
1000
0000
0000
0001
0000
0100
0001
0000
0100
,  // measure 40
0001
1000
0100
0010
,  // measure 41
0100
0000
0000
1000
0000
0000
0001
0000
0000
0100
0000
0001
,  // measure 42
0100
0010
1000
0010
,  // measure 43
0100
0010
1001
0110
,  // measure 44
1001
0010
1000
0100
,  // measure 45
0010
0000
0000
0001
0000
0000
0100
0000
0000
0010
0000
1000
,  // measure 46
0020
0000
0000
1000
0000
0000
0200
0000
0000
0330
0000
0001
,  // measure 47
1000
0001
1000
0110
,  // measure 48
2002
0000
3003
0000
0000
0000
1001
0000
0000
0110
0000
0000
,  // measure 49
1001
0000
0000
0001
0000
0000
0100
0000
0000
0001
0000
0100
,  // measure 50
0000
0000
0001
0100
0000
0000
0010
0000
0000
1000
0000
0000
,  // measure 51
0100
0000
0000
0010
0000
0000
0001
0000
0000
1000
0000
0100
,  // measure 52
0000
0000
1000
0001
0000
0000
0101
0000
0000
1001
0000
0000
,  // measure 53
1010
0000
0000
0100
0000
0000
0010
0000
0000
1000
0000
0100
,  // measure 54
0000
0000
0010
0100
0000
0000
0010
0000
0000
0001
0000
0000
,  // measure 55
1000
0010
0001
0010
,  // measure 56
1000
0000
0000
0100
0000
0000
0010
0000
0000
0001
0000
0010
,  // measure 57
0001
0000
0000
1000
0000
0000
0100
0000
0000
1000
0000
1001
,  // measure 58
0000
0000
0001
0100
0000
0001
0100
0000
0000
0010
0000
1000
,  // measure 59
0100
0000
0000
0001
0000
0000
0100
0000
0000
1000
0000
1000
,  // measure 60
0100
0000
0000
1000
0000
0000
0001
0000
0100
0001
0000
0001
,  // measure 61
0100
0000
0000
0010
0000
0000
1000
0000
0000
0001
0000
2001
,  // measure 62
0000
0000
0000
3100
0000
0000
0010
0000
0000
0001
0000
0201
,  // measure 63
0000
0310
0100
0001
,  // measure 64
1000
0000
0100
1000
0000
0000
0001
0000
0000
0100
0000
0001
,  // measure 65
0100
0000
0000
0001
0000
0000
0100
0000
0000
0010
0000
1000
,  // measure 66
0001
1000
0100
0010
,  // measure 67
2002
0000
0000
3003
,  // measure 68
1000
0000
0001
0000
1000
0000
1001
0000
0000
0000
0000
0000
;

//---------------dance-single - ----------------
#NOTES:
     dance-single:
     :
     Easy:
     6:
     0.294,0.372,0.161,0.119,0.000: // measure 1
0000
0000
0000
0000
,  // measure 2
0000
0000
0000
0000
,  // measure 3
1000
0000
0001
0000
,  // measure 4
0100
0001
1000
0100
,  // measure 5
0010
0000
0100
0000
,  // measure 6
0010
0000
0001
0010
,  // measure 7
0001
0000
1000
0000
,  // measure 8
0001
0100
0010
1000
,  // measure 9
0100
0000
0100
0000
,  // measure 10
0010
0000
0010
0000
,  // measure 11
1001
0000
0001
0100
,  // measure 12
0010
1000
0100
0000
,  // measure 13
1000
0000
0100
0010
,  // measure 14
0001
0000
0010
0001
,  // measure 15
1000
0001
0100
0000
,  // measure 16
0010
0100
0001
0000
,  // measure 17
1001
0000
0110
0000
,  // measure 18
1001
0000
0110
0000
,  // measure 19
1001
0000
0001
0100
,  // measure 20
0002
0203
0320
2030
,  // measure 21
3100
0000
1000
0100
,  // measure 22
1000
0001
0100
0000
,  // measure 23
0010
0100
0010
0100
,  // measure 24
0110
0000
0010
1000
,  // measure 25
0001
0000
1000
0100
,  // measure 26
0010
0001
0100
0001
,  // measure 27
1000
0000
0001
0100
,  // measure 28
0001
0000
0100
0010
,  // measure 29
1000
0000
0010
1000
,  // measure 30
0100
0001
0100
1000
,  // measure 31
0100
0001
0100
1000
,  // measure 32
1001
0000
0001
0100
,  // measure 33
0001
0000
0100
0010
,  // measure 34
1000
0010
0100
0001
,  // measure 35
0010
0000
0100
0010
,  // measure 36
0001
0010
1000
0010
,  // measure 37
0001
0100
0010
1000
,  // measure 38
1001
0000
0001
0100
,  // measure 39
0010
1000
0100
1000
,  // measure 40
1002
0000
0103
0001
,  // measure 41
2000
0000
3100
0010
,  // measure 42
0001
0010
0100
0010
,  // measure 43
0002
0000
0103
0010
,  // measure 44
2000
0000
3010
0100
,  // measure 45
0001
0001
0100
0010
,  // measure 46
2000
0000
3002
0000
,  // measure 47
1003
0100
0010
0001
,  // measure 48
2002
3003
0000
0000
,  // measure 49
1001
0100
1000
0001
,  // measure 50
0100
0000
0010
0100
,  // measure 51
0010
1000
0001
0010
,  // measure 52
0001
0000
1000
0001
,  // measure 53
1001
0001
0100
0010
,  // measure 54
0100
0000
0010
1000
,  // measure 55
0001
0100
1000
0100
,  // measure 56
0001
0100
0010
0100
,  // measure 57
0110
0010
1000
0001
,  // measure 58
1001
0000
1000
0100
,  // measure 59
0010
0100
0001
0100
,  // measure 60
1000
0000
0001
0100
,  // measure 61
1000
0100
0010
1000
,  // measure 62
0001
0010
0100
0010
,  // measure 63
1001
0000
0001
0100
,  // measure 64
0001
0000
1000
0100
,  // measure 65
0010
0001
0100
0001
,  // measure 66
1000
0010
0100
0001
,  // measure 67
2002
0000
0000
3003
,  // measure 68
0110
0000
1001
0000
;

//---------------dance-single - ----------------
#NOTES:
     dance-single:
     :
     Beginner:
     3:
     0.184,0.286,0.110,0.000,0.000: // measure 1
0000
0000
0000
0000
,  // measure 2
0000
0000
0000
0000
,  // measure 3
1000
0000
0001
0000
,  // measure 4
0100
0000
0010
0010
,  // measure 5
0010
0000
0000
0000
,  // measure 6
0100
0000
0001
0000
,  // measure 7
1000
0000
0001
0000
,  // measure 8
0010
0000
0100
0000
,  // measure 9
0110
0000
0110
0000
,  // measure 10
1001
0000
1001
0000
,  // measure 11
0001
0000
0100
0000
,  // measure 12
0010
0000
1000
1000
,  // measure 13
1000
0000
0000
0000
,  // measure 14
0001
0000
1000
0000
,  // measure 15
0100
0000
0010
0000
,  // measure 16
0001
0000
1000
0000
,  // measure 17
1001
0000
1001
0000
,  // measure 18
0110
0000
0110
0000
,  // measure 19
1001
0000
0000
0000
,  // measure 20
0100
0100
0100
0100
,  // measure 21
0100
0000
0010
0000
,  // measure 22
1001
0000
0000
0000
,  // measure 23
1000
0000
0001
0000
,  // measure 24
1000
0000
0100
0100
,  // measure 25
0100
0000
0000
0000
,  // measure 26
0010
0000
0001
0001
,  // measure 27
0001
0000
0100
0000
,  // measure 28
0010
0000
1000
1000
,  // measure 29
1000
0000
0000
0000
,  // measure 30
0001
0000
1000
0000
,  // measure 31
0100
0000
1000
0000
,  // measure 32
0010
0000
0100
0100
,  // measure 33
0100
0000
0001
0000
,  // measure 34
0010
0000
0100
0100
,  // measure 35
0100
0000
0010
0000
,  // measure 36
0001
0000
1000
0000
,  // measure 37
0100
0000
0010
0010
,  // measure 38
0010
0000
0000
0000
,  // measure 39
0000
0000
0000
0000
,  // measure 40
1000
0000
0100
0000
,  // measure 41
1000
0000
0001
0000
,  // measure 42
0100
0000
0001
0000
,  // measure 43
1000
0000
0000
0000
,  // measure 44
0001
0000
0010
0000
,  // measure 45
0001
0000
1000
0000
,  // measure 46
0010
0000
0000
0000
,  // measure 47
0100
0100
0100
0100
,  // measure 48
0100
0000
0000
0000
,  // measure 49
1001
0000
0001
0001
,  // measure 50
0001
0000
1000
0000
,  // measure 51
0100
0000
0010
0010
,  // measure 52
0010
0000
0000
0000
,  // measure 53
0001
0000
1000
1000
,  // measure 54
1000
0000
0001
0000
,  // measure 55
0100
0000
0010
0000
,  // measure 56
0100
0100
0100
0100
,  // measure 57
0100
0000
0001
0001
,  // measure 58
0001
0000
0000
0000
,  // measure 59
1000
0000
0100
0100
,  // measure 60
0100
0000
1000
0000
,  // measure 61
0001
0000
0100
0100
,  // measure 62
0100
0000
0010
0010
,  // measure 63
0010
0000
0000
0000
,  // measure 64
1000
0000
0001
0000
,  // measure 65
1000
0000
0100
0100
,  // measure 66
0100
0000
1000
1000
,  // measure 67
1000
0000
0000
0000
,  // measure 68
1001
0000
1001
0000
;
