#VERSION:0.83;
#TITLE:Take Me Away;
#SUBTITLE:;
#ARTIST:U-hey;
#TITLETRANSLIT:;
#SUBTITLETRANSLIT:;
#ARTISTTRANSLIT:;
#GENRE:;
#ORIGIN:;
#CREDIT:Telperion;
#BANNER:Take Me Away.png;
#BACKGROUND:Take Me Away-bg.png;
#PREVIEWVID:;
#JACKET:Take Me Away-jacket.png;
#CDIMAGE:;
#DISCIMAGE:Take Me Away-bg-ws.png;
#LYRICSPATH:;
#CDTITLE:;
#MUSIC:Take Me Away.ogg;
#OFFSET:0.409000;
#SAMPLESTART:17.929998;
#SAMPLELENGTH:13.714000;
#SELECTABLE:YES;
#BPMS:0.000=140.000;
#STOPS:;
#DELAYS:;
#WARPS:;
#TIMESIGNATURES:0.000=4=4;
#TICKCOUNTS:0.000=4;
#COMBOS:0.000=1;
#SPEEDS:0.000=1.000=0.000=0;
#SCROLLS:0.000=1.000;
#FAKES:;
#LABELS:0.000=Song Start;
#BGCHANGES:0.000=Take Me Away.avi=1.000=0=0=0=StretchNoLoop====,
99999=-nosongbg-=1.000=0=0=0 // don't automatically add -songbackground-
;
#KEYSOUNDS:;
#ATTACKS:
;

//---------------dance-single - Telperion----------------
#NOTEDATA:;
#CHARTNAME:Telperion;
#STEPSTYPE:dance-single;
#DESCRIPTION:Telperion;
#CHARTSTYLE:;
#DIFFICULTY:Beginner;
#METER:2;
#RADARVALUES:0.083334,0.153673,0.000000,0.000000,0.000000,80.000000,80.000000,0.000000,0.000000,0.000000,0.000000,0.000000,0.000000,0.000000,0.083334,0.153673,0.000000,0.000000,0.000000,80.000000,80.000000,0.000000,0.000000,0.000000,0.000000,0.000000,0.000000,0.000000;
#CREDIT:Telperion;
#NOTES:
// measure 0
0000
0000
0000
0000
,  // measure 1
0000
0000
0000
0000
,  // measure 2
0000
0000
0000
0000
,  // measure 3
0000
0000
0000
0000
,  // measure 4
0000
0000
0000
0000
,  // measure 5
0000
0000
0000
0000
,  // measure 6
0000
0000
0000
0000
,  // measure 7
0000
0000
0000
0000
,  // measure 8
0000
0000
0000
0000
,  // measure 9
0000
0000
0000
0000
,  // measure 10
0000
0000
0000
0000
,  // measure 11
0000
1000
0000
0000
,  // measure 12
0000
0100
0000
0000
,  // measure 13
0000
0001
0000
0000
,  // measure 14
0000
0010
0000
0000
,  // measure 15
0000
1000
0000
0000
,  // measure 16
0000
0100
0000
0000
,  // measure 17
0000
0010
0000
0000
,  // measure 18
0000
0001
0000
0000
,  // measure 19
0000
0100
0010
0100
,  // measure 20
0010
0100
0000
0000
,  // measure 21
0000
0001
1000
0001
,  // measure 22
1000
0001
0000
0000
,  // measure 23
0000
0010
0100
0010
,  // measure 24
0100
0010
0000
0000
,  // measure 25
0000
1000
0001
1000
,  // measure 26
0001
1000
0000
0000
,  // measure 27
0000
0000
0000
0000
,  // measure 28
0000
0010
0000
0010
,  // measure 29
0000
0010
0000
0000
,  // measure 30
0000
1000
0000
1000
,  // measure 31
0000
1000
0000
0000
,  // measure 32
0000
0100
0000
0100
,  // measure 33
0000
0100
0000
0000
,  // measure 34
0000
0010
0000
0010
,  // measure 35
0000
0010
0000
0000
,  // measure 36
0000
0001
0000
0001
,  // measure 37
0000
0001
0000
0000
,  // measure 38
0000
0100
0000
0100
,  // measure 39
0000
0100
0000
0000
,  // measure 40
0000
0010
0000
0010
,  // measure 41
0000
0010
0000
0000
,  // measure 42
0000
1000
0000
0001
,  // measure 43
0000
1000
0000
0001
,  // measure 44
0000
1000
0000
0000
,  // measure 45
0000
0000
0000
0000
,  // measure 46
0000
0000
0000
0000
,  // measure 47
0000
0000
0000
0000
,  // measure 48
0000
0000
0000
0000
,  // measure 49
0000
0000
0000
0000
,  // measure 50
0000
0000
0000
0000
,  // measure 51
0000
0000
0000
0000
,  // measure 52
0000
0000
0000
0000
,  // measure 53
0000
0000
0000
0000
,  // measure 54
0000
0001
0000
0000
,  // measure 55
0000
0100
0000
0000
,  // measure 56
0000
1000
0000
0000
,  // measure 57
0000
0010
0000
0000
,  // measure 58
0000
0001
0000
0000
,  // measure 59
0000
0100
0000
0000
,  // measure 60
0000
0010
0000
0000
,  // measure 61
0000
1000
0000
0001
,  // measure 62
0000
1000
0000
1000
,  // measure 63
0000
0100
0000
0100
,  // measure 64
0000
0001
0000
0001
,  // measure 65
0000
0010
0000
0010
,  // measure 66
0000
1000
0000
1000
,  // measure 67
0000
0100
0000
0100
,  // measure 68
0000
0010
0000
0010
,  // measure 69
0000
0001
0000
1000
,  // measure 70
0000
0010
0000
0000
;

//---------------dance-single - Telperion----------------
#NOTEDATA:;
#CHARTNAME:Telperion;
#STEPSTYPE:dance-single;
#DESCRIPTION:Telperion;
#CHARTSTYLE:;
#DIFFICULTY:Easy;
#METER:4;
#RADARVALUES:0.180209,0.256759,0.043750,0.145834,0.000000,173.000000,167.000000,6.000000,20.000000,0.000000,0.000000,0.000000,0.000000,0.000000,0.180209,0.256759,0.043750,0.145834,0.000000,173.000000,167.000000,6.000000,20.000000,0.000000,0.000000,0.000000,0.000000,0.000000;
#CREDIT:Telperion;
#NOTES:
// measure 0
0000
0000
0000
0000
,  // measure 1
0000
0000
0000
0000
,  // measure 2
0000
0000
0000
0000
,  // measure 3
0000
0000
0000
0000
,  // measure 4
0000
0000
0000
0000
,  // measure 5
0000
0000
0000
0000
,  // measure 6
0000
0002
0000
0000
,  // measure 7
0000
0023
0000
0000
,  // measure 8
0000
0230
0000
0000
,  // measure 9
0000
2300
0000
0000
,  // measure 10
0000
3001
0000
0000
,  // measure 11
0000
1000
0100
1000
,  // measure 12
0000
0001
0100
1000
,  // measure 13
0000
0010
0001
0010
,  // measure 14
0000
0100
0100
1000
,  // measure 15
1000
0001
0100
0001
,  // measure 16
0000
1000
0100
0001
,  // measure 17
0000
0010
1000
0010
,  // measure 18
0000
0100
0100
0001
,  // measure 19
0000
1000
0010
0001
,  // measure 20
0100
1000
0000
0000
,  // measure 21
0000
0001
0010
1000
,  // measure 22
0100
0001
0000
0000
,  // measure 23
0000
1000
0100
0001
,  // measure 24
0010
1000
0000
0000
,  // measure 25
0000
0001
0100
1000
,  // measure 26
0010
0001
0000
1000
,  // measure 27
0001
1001
0000
0000
,  // measure 28
0000
1000
0000
0001
,  // measure 29
0100
0010
0000
0001
,  // measure 30
0100
1000
0000
0100
,  // measure 31
0010
1000
0000
0100
,  // measure 32
0001
1000
0000
1000
,  // measure 33
0100
0010
0000
1000
,  // measure 34
0100
0001
0000
0100
,  // measure 35
0010
0001
0100
1000
,  // measure 36
0001
0100
0000
0001
,  // measure 37
1000
0010
0000
0001
,  // measure 38
0100
0001
0010
1000
,  // measure 39
0001
0010
0000
0100
,  // measure 40
1000
0010
0000
0100
,  // measure 41
0001
0010
0000
1000
,  // measure 42
0100
1000
0010
0001
,  // measure 43
1000
0010
0000
0100
,  // measure 44
0100
1001
0000
0000
,  // measure 45
0000
0002
0000
0000
,  // measure 46
0000
0203
0000
0000
,  // measure 47
0000
2300
0000
0000
,  // measure 48
0000
3020
0000
0000
,  // measure 49
0000
0032
0000
0000
,  // measure 50
0000
0203
0000
0000
,  // measure 51
0000
0320
0000
0000
,  // measure 52
0000
2030
0000
0000
,  // measure 53
0000
3001
0000
0000
,  // measure 54
0000
1000
0000
0001
,  // measure 55
0100
0010
0000
0001
,  // measure 56
0100
1000
0000
0010
,  // measure 57
1000
0001
1000
0010
,  // measure 58
0100
0001
0000
1000
,  // measure 59
0100
0010
0000
1000
,  // measure 60
0100
0001
0000
1000
,  // measure 61
0010
0100
0000
0001
,  // measure 62
1000
0000
1100
0000
,  // measure 63
0001
0000
0101
0000
,  // measure 64
1000
0000
1010
0000
,  // measure 65
0001
0000
1001
0000
,  // measure 66
1000
0010
0000
0100
,  // measure 67
0100
0010
0000
0100
,  // measure 68
0100
0010
0000
1000
,  // measure 69
0001
1000
0000
0100
,  // measure 70
0010
0002
0000
0000
,  // measure 71
0000
0203
0000
0000
,  // measure 72
0000
2300
0000
0000
,  // measure 73
0000
3020
0000
0000
,  // measure 74
0000
0032
0000
0000
,  // measure 75
0000
0203
0000
0000
,  // measure 76
0000
0320
0000
0000
,  // measure 77
0000
2030
0000
0000
,  // measure 78
0000
3000
0000
0000
;

//---------------dance-single - Telperion----------------
#NOTEDATA:;
#CHARTNAME:Telperion;
#STEPSTYPE:dance-single;
#DESCRIPTION:Telperion;
#CHARTSTYLE:;
#DIFFICULTY:Medium;
#METER:9;
#RADARVALUES:0.289585,0.427932,0.058334,0.240627,0.000000,278.000000,270.000000,8.000000,33.000000,0.000000,0.000000,0.000000,0.000000,0.000000,0.289585,0.427932,0.058334,0.240627,0.000000,278.000000,270.000000,8.000000,33.000000,0.000000,0.000000,0.000000,0.000000,0.000000;
#CREDIT:Telperion;
#NOTES:
// measure 0
0000
0000
0000
0000
,  // measure 1
0000
0000
0000
0000
,  // measure 2
0000
0000
0000
0000
,  // measure 3
0000
0000
0000
0000
,  // measure 4
0000
0000
0000
0000
,  // measure 5
0000
0000
0000
0000
,  // measure 6
0000
2000
0000
3002
,  // measure 7
0000
0203
0000
2300
,  // measure 8
0000
3020
0000
0032
,  // measure 9
0000
0203
0000
0020
,  // measure 10
0000
0330
0000
0000
,  // measure 11
0000
1001
1000
0010
,  // measure 12
0001
0100
1000
0000
0010
0000
0100
0000
,  // measure 13
0001
0100
0010
0000
1000
0000
0100
0000
,  // measure 14
0001
0010
1000
0000
0100
0000
0010
0100
,  // measure 15
0010
0001
1000
0000
0001
0000
0010
0000
,  // measure 16
1000
0100
0001
0000
0010
0000
0100
0000
,  // measure 17
1000
0100
0010
0000
0001
0000
0100
0000
,  // measure 18
1000
0010
0001
0000
0100
0000
0010
0100
,  // measure 19
0010
2000
0000
0000
0001
0000
0010
0000
,  // measure 20
0001
0000
0200
0000
3300
0000
1000
0100
,  // measure 21
1000
0002
0000
0000
0100
0000
1000
0000
,  // measure 22
0010
0000
2000
0000
3003
0000
1000
0001
,  // measure 23
0010
0200
0000
0000
0001
0000
0010
0000
,  // measure 24
1000
0000
0020
0000
0330
0000
0001
1000
,  // measure 25
0010
0200
0000
0000
1000
0000
0001
0000
,  // measure 26
0010
0002
0303
0100
,  // measure 27
0001
0020
0000
0030
,  // measure 28
0000
0100
1000
0010
,  // measure 29
0001
0000
0100
0000
1000
0001
0010
0100
,  // measure 30
1000
0001
0100
0000
1000
0000
0010
0000
,  // measure 31
0001
0000
0100
0000
0010
1000
0100
0010
,  // measure 32
0001
0100
0001
0010
,  // measure 33
1000
0000
0100
0000
0001
1000
0010
0100
,  // measure 34
0001
1000
0100
0000
0001
0000
0010
0000
,  // measure 35
1000
0000
0100
0010
0001
0000
1000
0000
,  // measure 36
0010
0100
0010
0000
1000
0000
0100
0000
,  // measure 37
0001
0010
0001
0100
,  // measure 38
1000
0001
0100
0000
1000
0000
0010
0000
,  // measure 39
1000
0000
0100
0000
0001
1000
0010
0100
,  // measure 40
0001
0010
0001
0100
,  // measure 41
1000
0010
1000
0100
,  // measure 42
0001
1000
0100
0000
0001
0000
0010
0000
,  // measure 43
0001
0000
0100
0000
1000
0000
0001
0100
,  // measure 44
0010
1000
0001
0000
0000
0000
0000
0000
,  // measure 45
0000
2000
0000
0000
,  // measure 46
0000
3200
0000
0000
,  // measure 47
0000
0302
0000
0000
,  // measure 48
0000
0023
0000
0000
,  // measure 49
0000
2030
0000
0001
,  // measure 50
0000
3200
0000
1000
,  // measure 51
0000
0320
0000
0100
,  // measure 52
0000
0032
0000
0000
,  // measure 53
0000
1003
0000
0000
,  // measure 54
0000
1001
1000
0100
,  // measure 55
0001
0010
1000
0000
0100
0000
0010
0000
,  // measure 56
0001
0010
0100
0000
1000
0000
0010
0000
,  // measure 57
0001
0100
1000
0000
0010
0000
0100
0010
,  // measure 58
0100
0001
1000
0000
0001
0000
0100
0000
,  // measure 59
1000
0010
0001
0000
0100
0000
0010
0000
,  // measure 60
1000
0010
0100
0000
0001
0000
0010
0000
,  // measure 61
1000
0100
0001
0000
0010
0000
0100
0010
,  // measure 62
0100
1000
0001
0000
0101
0000
1000
0000
,  // measure 63
1100
0100
0010
0000
0011
0000
1000
0000
,  // measure 64
0001
0100
0010
0000
1010
0000
0001
0000
,  // measure 65
0011
0010
0100
0000
1100
0000
0001
0000
,  // measure 66
0100
0010
1000
0000
1000
0100
0010
0001
,  // measure 67
1000
1000
0010
0000
0010
0100
0001
1000
,  // measure 68
0100
0100
0010
0000
0010
0001
1000
0010
,  // measure 69
0100
0100
0001
0000
0001
1000
0100
0000
,  // measure 70
1000
0002
0000
0000
,  // measure 71
0000
0203
0000
0000
,  // measure 72
0000
2300
0000
0000
,  // measure 73
0000
3020
0000
0000
,  // measure 74
0000
0032
0000
0000
,  // measure 75
0000
0203
0000
0000
,  // measure 76
0000
0320
0000
0000
,  // measure 77
0000
2030
0000
0000
,  // measure 78
0000
3000
0000
0000
;

//---------------dance-single - Telperion----------------
#NOTEDATA:;
#CHARTNAME:Telperion;
#STEPSTYPE:dance-single;
#DESCRIPTION:Telperion;
#CHARTSTYLE:;
#DIFFICULTY:Hard;
#METER:11;
#RADARVALUES:0.355211,0.542048,0.080209,0.306252,0.000000,341.000000,326.000000,11.000000,42.000000,0.000000,20.000000,0.000000,0.000000,0.000000,0.355211,0.542048,0.080209,0.306252,0.000000,341.000000,326.000000,11.000000,42.000000,0.000000,20.000000,0.000000,0.000000,0.000000;
#CREDIT:Telperion;
#NOTES:
// measure 0
0000
0000
0000
0000
,  // measure 1
0000
0000
0000
0000
,  // measure 2
0000
0000
0000
0000
,  // measure 3
0000
0000
0000
0000
,  // measure 4
0000
0000
0000
0000
,  // measure 5
0000
0000
0000
0000
0000
0000
1000
1000
,  // measure 6
0001
0200
0000
0000
0300
0000
0001
0001
,  // measure 7
1000
0020
0000
0000
0030
0000
0100
0001
,  // measure 8
0000
0020
0000
0000
0030
0000
0001
0000
,  // measure 9
1000
0200
0000
0000
0000
0000
0020
0000
,  // measure 10
0000
0330
0000
0000
,  // measure 11
0000
0000
0101
0000
1000
0000
0001
0100
,  // measure 12
0010
1000
0001
0000
0001
0000
0010
0000
,  // measure 13
1000
0100
0001
0000
1000
0000
0010
0000
,  // measure 14
0100
0001
0010
0000
0010
0000
1000
0000
,  // measure 15
0001
0010
1000
0000
0001
1000
0100
0010
,  // measure 16
0001
1000
0010
0000
1000
0000
0010
0000
,  // measure 17
0001
0100
1000
0000
0001
0000
0010
0000
,  // measure 18
0100
1000
0010
0000
0010
0000
0100
0001
,  // measure 19
2000
0200
0000
0000
0001
0000
0010
0000
,  // measure 20
0001
0000
0020
0000
3330
0000
0100
1000
,  // measure 21
0002
0200
0000
0000
1000
0000
0320
0000
,  // measure 22
2003
0000
0200
0000
3330
0000
0100
1000
,  // measure 23
0002
0200
0000
0000
1000
0000
0010
0000
,  // measure 24
1000
0000
0020
0000
0333
0000
0100
0001
,  // measure 25
2000
0200
0000
0000
0001
0000
0320
0000
,  // measure 26
3002
0200
0333
0100
,  // measure 27
0001
1001
0000
0000
,  // measure 28
0000
0000
1000
0000
0001
0100
0010
0100
,  // measure 29
1000
0010
0001
0000
1000
0100
0010
0100
,  // measure 30
0001
0010
1000
0000
0001
0100
1000
0001
,  // measure 31
0100
0010
0001
0000
0100
0010
1000
1000
,  // measure 32
0100
0010
0001
0000
1000
0010
0100
0010
,  // measure 33
0001
0100
1000
0000
0001
0010
0100
0010
,  // measure 34
1000
0100
0001
0000
0010
0100
0001
1000
,  // measure 35
0100
0002
0000
1000
0013
0000
0011
0000
,  // measure 36
1001
1000
1010
0010
0100
0001
1000
0010
,  // measure 37
0100
0001
0010
0100
1000
0001
0010
0100
,  // measure 38
1000
0001
0100
0010
1000
0001
0100
0010
,  // measure 39
1000
0001
0020
0000
0030
0100
1000
1000
,  // measure 40
0010
1000
0001
0010
0100
1000
0001
0010
,  // measure 41
0100
1000
0010
0100
0001
1000
0010
0100
,  // measure 42
0001
1000
0100
0010
0001
1000
0100
0010
,  // measure 43
0001
1000
0020
0000
0100
0000
1030
0010
,  // measure 44
1000
0001
0010
0000
0000
0000
0000
0000
,  // measure 45
0000
2001
0000
0000
,  // measure 46
0000
3200
0000
0000
,  // measure 47
0000
0302
0000
0000
,  // measure 48
0000
0023
0000
0000
,  // measure 49
0000
2030
0000
0000
,  // measure 50
0000
3200
0000
0000
,  // measure 51
0000
0320
0000
0000
,  // measure 52
0000
0032
0000
0000
,  // measure 53
0000
1003
0000
0000
,  // measure 54
0000
0000
1010
0000
0001
0000
1000
0010
,  // measure 55
0100
0001
1000
0000
1000
0000
0100
0000
,  // measure 56
0001
0010
1000
0000
0001
0000
0100
0000
,  // measure 57
0010
1000
0100
0000
0100
0000
0001
0000
,  // measure 58
1000
0100
0001
0000
1000
0001
0010
0100
,  // measure 59
1000
0001
0100
0000
0001
0000
0100
0000
,  // measure 60
1000
0010
0001
0000
1000
0000
0100
0000
,  // measure 61
0010
0001
0100
0000
0010
0100
1000
0100
,  // measure 62
0001
1000
0100
0000
1101
0000
1000
0000
,  // measure 63
0001
0100
0010
0000
0111
0000
0001
0000
,  // measure 64
1000
0100
0010
0000
1110
0000
0001
0000
,  // measure 65
1000
0010
0100
0000
1101
0000
0001
1000
,  // measure 66
0100
0010
0001
0000
1000
0001
0100
1000
,  // measure 67
0020
0001
0000
0130
0000
1000
0001
0100
,  // measure 68
0010
1000
0001
0000
0010
0100
0001
1000
,  // measure 69
0100
0010
1000
0000
0001
1000
0100
0010
,  // measure 70
0001
1000
0020
0000
0000
0000
0100
0000
,  // measure 71
1000
0230
0000
1000
,  // measure 72
0000
0302
0000
0100
,  // measure 73
1000
0013
0000
0100
,  // measure 74
0000
0020
0000
0100
,  // measure 75
0001
0230
0000
0001
,  // measure 76
0000
2300
0000
3002
,  // measure 77
0000
0203
0000
0020
,  // measure 78
0000
0330
0000
0000
;
