#TITLE:THERE YOU'LL BE;
#SUBTITLE:;
#ARTIST:DJ SPEEDO feat.ANGELICA;
#TITLETRANSLIT:;
#SUBTITLETRANSLIT:;
#ARTISTTRANSLIT:;
#GENRE:;
#CREDIT:;
#BANNER:THERE YOU'LL BE.png;
#BACKGROUND:THERE YOU'LL BE-bg.png;
#LYRICSPATH:THERE YOU'LL BE.lrc;
#CDTITLE:;
#MUSIC:THERE YOU'LL BE.ogg;
#OFFSET:-0.107000;
#SAMPLESTART:44.700001;
#SAMPLELENGTH:12.000000;
#SELECTABLE:YES;
#DISPLAYBPM:172.000000;
#BPMS:0.000000=172.000000
;
#STOPS:
;
#BGCHANGES:;
#KEYSOUNDS:;
#ATTACKS:;

//---------------dance-single - Classic 8 | Modern 12----------------
#NOTES:
     dance-single:
     :
     Hard:
     12:
     0.657729,0.765853,0.258279,0.550246,0.129139,410.000000,387.000000,23.000000,49.000000,0.000000,0.000000,0.657729,0.765853,0.258279,0.550246,0.129139,410.000000,387.000000,23.000000,49.000000,0.000000,0.000000:
0000
0000
0000
0000
,
0000
0000
0000
0000
,
0000
0000
0000
0000
,
0000
0000
0000
0000
,
2000
0000
0000
0000
3001
0100
0010
1000
,
0200
0000
0010
0000
0310
0000
0001
0010
,
0200
0000
1300
0001
0200
0000
0310
1000
,
0100
0001
0100
1000
0010
0100
0002
0000
,
0013
0001
0100
0010
0100
0010
1000
0000
,
0001
1000
0100
1000
0100
0010
0001
0000
,
1000
0010
0100
0010
0100
0001
1000
0100
,
1001
0110
1010
0101
,
0010
0000
1000
0000
0100
0000
1000
0000
0010
0000
0100
0001
0000
0000
0010
0000
,
0100
0000
1000
0000
0010
0000
0001
0000
0010
0000
1000
0001
0000
0000
1000
0000
,
0010
0000
1000
0000
0001
0000
0010
0000
0001
0000
0100
0010
0000
0000
0100
0000
,
0001
0000
0001
0000
1000
0000
1000
0000
0010
0100
0010
0100
0001
0000
1000
0000
,
0100
0001
0100
1000
0100
1000
0200
0000
,
0310
0000
0020
0000
0031
0000
0001
1000
,
0010
0100
0010
0100
0001
1000
0020
0000
,
2030
0000
3002
0000
0103
0000
0001
0010
,
0001
0100
0010
1000
0100
0010
0001
0000
,
1000
0001
0100
0010
0100
0001
1000
0000
,
0010
1000
0100
0000
0010
0001
0100
0000
,
1010
0000
0000
0000
0101
0000
0000
0000
1000
0000
0001
0010
0001
0000
1000
0000
,
1000
0010
1000
0100
0010
0001
0100
0000
,
0001
1000
0001
0010
0200
1000
1300
0000
,
0001
0100
0010
0100
1000
0100
0001
0000
,
1000
0100
0010
0100
0001
0100
1000
0000
,
0010
1000
0001
0100
0010
1000
0100
0000
,
0010
0001
1000
0100
0010
0001
0100
0000
,
0001
1000
0001
0000
0100
0000
0100
0000
0001
1000
0001
0000
0100
0000
0100
0000
,
1010
1001
0000
0000
0101
0110
0000
0000
,
2002
0000
3003
0000
1000
0001
0100
0010
,
2000
0000
3001
0000
0001
1000
0010
0100
,
0001
0102
1003
2100
,
3002
0000
2003
0000
3002
0203
0320
2030
,
3200
0000
0300
0000
0010
0001
0010
0100
,
2000
0000
3020
0000
0230
0000
0301
0020
,
0130
0000
1000
0002
0103
0000
0010
0100
,
0010
1000
0100
0001
0100
1000
0100
0010
,
2002
0000
3003
0000
0010
0100
0001
0010
,
0200
0000
1300
0000
1000
0001
0200
0000
,
0301
0002
1003
2000
,
3002
0000
2003
0000
3010
0100
0010
0200
,
0301
0000
0010
0200
1300
0000
0100
0020
,
0031
0011
1001
0210
,
0310
1000
0010
0000
1000
0000
1000
0000
0001
0010
0001
0000
0100
0000
0100
0000
,
0010
0100
0010
0000
1000
0001
1000
0000
0100
0010
0100
0000
1000
0000
0020
0000
,
0130
0000
0010
2000
3100
0000
0010
0002
,
0103
0000
0110
0000
1010
0000
1001
0001
,
1000
0100
1000
0001
0000
1001
0000
0101
,
0001
0010
0001
1000
0001
0010
0001
1000
,
0100
0001
0100
1000
0100
0010
0002
0000
,
0013
0000
1000
0000
0010
0000
0100
0000
0010
0000
0001
2000
0000
0000
3010
0000
,
0100
0000
1000
0000
0100
0000
0010
0000
0100
0000
0001
2000
0000
0000
3100
0000
,
0010
0000
0001
0000
0010
0000
0100
0000
0010
0000
1000
0020
0000
0000
0031
0000
,
0100
0000
1000
0000
0100
0000
0001
0000
1000
0100
1000
0100
1000
0000
0001
0000
,
0100
0000
0001
0000
0010
0000
0001
0000
0100
0000
0010
1000
0000
0000
0100
0000
,
0010
0000
0001
0000
0100
0000
1000
0000
0100
0000
0001
1000
0000
0000
0001
0000
,
0100
0000
0001
0000
1000
0000
0100
0000
1000
0000
0010
0100
0000
0000
0010
0000
,
1000
0000
1000
0000
0001
0000
0001
0000
0100
0010
0100
0010
1000
0000
0001
0000
,
2002
0000
0000
0000
,
3003
0000
0000
0000
;

//---------------dance-double - ----------------
#NOTES:
     dance-double:
     :
     Medium:
     6:
     0.000000,0.000000,0.000000,0.000000,0.000000,0.000000,0.000000,0.000000,0.000000,0.000000,0.000000,0.000000,0.000000,0.000000,0.000000,0.000000,0.000000,0.000000,0.000000,0.000000,0.000000,0.000000:
;

//---------------dance-double - ----------------
#NOTES:
     dance-double:
     :
     Hard:
     8:
     0.000000,0.000000,0.000000,0.000000,0.000000,0.000000,0.000000,0.000000,0.000000,0.000000,0.000000,0.000000,0.000000,0.000000,0.000000,0.000000,0.000000,0.000000,0.000000,0.000000,0.000000,0.000000:
;

//---------------dance-single - Classic 10 | Modern 15----------------
#NOTES:
     dance-single:
     :
     Challenge:
     15:
     0.861465,0.870288,0.247049,0.482869,0.696230,537.000000,515.000000,22.000000,43.000000,4.000000,0.000000,0.861465,0.870288,0.247049,0.482869,0.696230,537.000000,515.000000,22.000000,43.000000,4.000000,0.000000:
0000
0000
0000
0000
,
0000
0000
0000
0000
,
0000
0000
0000
0000
,
0000
0000
0000
0000
,
2000
0000
3100
0010
0000
0000
0010
0100
0000
0000
0100
0010
0000
0000
0010
0001
,
0200
0000
0310
1000
0000
0000
1000
0010
0000
0000
0010
1000
0000
0000
1000
0001
,
0200
0000
0301
0010
0000
0000
0010
0001
0000
0000
0001
0010
0000
0000
0010
0001
,
0200
0000
0301
0000
0010
0000
0100
1000
0020
0000
0130
0000
0002
0000
0000
0000
,
1003
0000
0010
0000
1000
0000
0010
0000
0100
0000
0001
2000
0000
0000
3100
0000
,
0010
0000
0001
0000
0010
0000
0001
0000
0100
0000
0010
2000
0000
0000
3001
0000
,
0010
0000
0100
0000
0010
0000
0100
0000
0010
0000
0001
2000
0000
0000
3010
0000
,
2002
3003
0220
0330
2020
3030
0201
0000
,
0310
0100
0010
0000
1000
0100
1000
0000
0001
0100
0001
2000
0000
0000
3100
0000
,
0010
0001
0010
0000
0100
1000
0100
0000
1000
0010
1000
0002
0000
0000
1003
0000
,
0010
0100
0010
0000
1000
0001
1000
0000
0001
0010
0001
2000
0000
0000
3100
0000
,
1000
0001
1000
0000
0001
1000
0001
0000
0010
0100
0010
0100
1000
0000
1000
0000
,
0010
0100
0001
0100
0010
1000
0001
1000
,
0100
0001
0100
1000
0010
0001
0010
1000
,
0001
0010
0001
1000
0100
1000
0010
0100
,
0001
0010
1000
0010
0001
0100
1000
0100
,
0010
1000
0001
0100
0010
1000
0001
0100
,
0010
1000
0100
0010
0001
1000
0100
0010
,
0001
0100
0001
0100
1000
0100
1000
0100
,
0010
0000
0100
0000
0010
0000
0100
0000
0001
0000
0001
1000
0001
0000
1000
0000
,
1000
0010
0001
0010
1000
0100
1000
0010
,
0001
0010
1000
0001
0020
0001
0031
1000
,
0001
0100
0010
0100
0001
1000
0001
0100
,
0010
0100
0001
1000
0010
1000
1010
0000
,
0011
0001
0100
0010
1000
0100
0001
0100
,
1000
0010
0100
0001
0010
1000
0010
0001
,
0100
0001
0100
0000
0010
0100
0010
0000
1000
0010
1000
0000
0001
1000
0001
0000
,
0011
1100
0000
0000
1010
0101
0000
0010
,
2002
0000
0000
0000
3003
0000
0000
0000
1000
0010
1000
0000
0001
0100
0001
0000
,
1000
0100
1100
0000
0001
0100
0101
0000
,
0001
0010
0100
0010
0001
0100
1000
0100
,
0110
0000
1001
0000
2000
3020
0230
0302
,
0013
0100
0010
0000
0001
0100
0001
0000
1000
0010
1000
0000
0001
0010
0001
0000
,
1000
0100
0010
0100
1000
0010
0001
0010
,
1000
0000
1100
0010
0001
0000
0101
0010
,
1000
0100
1000
0000
0001
0010
0001
0000
1000
0010
0100
0010
1000
0100
1000
0001
,
1000
0000
0100
0010
0000
0000
0100
0010
0000
0000
0001
0010
0000
0000
0001
0010
,
0100
0000
1000
0010
0000
0000
1000
0010
0000
0000
0100
0001
0000
0000
0100
0001
,
1000
0000
0010
1000
0000
0000
0010
1000
0000
0000
0100
1000
0000
0000
0100
1000
,
0010
0000
1000
0001
0000
0000
1000
0001
0000
0000
0010
0001
0100
0000
0020
0000
,
1030
0000
0100
0010
0000
0000
0010
0001
0000
0000
0001
0100
0000
0000
0100
0010
,
0000
0000
0010
1000
0000
0000
1000
0001
0000
0000
0001
0100
0010
0000
MM10
0000
,
0100
1000
0100
0000
1000
0001
1000
0000
0001
0100
0001
0000
0100
0010
0100
0000
,
0010
1000
0010
0000
1000
0100
1000
0000
0001
0010
0001
0000
0100
0000
0020
0000
,
1030
0000
0100
0010
0000
0000
0010
0001
0000
0000
0001
0100
0000
0000
0100
0010
,
0000
0000
0010
1000
0000
0000
1000
0001
0000
0000
0001
0100
0010
0000
0M1M
0000
,
0100
0001
0100
0010
0001
0100
0010
1000
,
0001
0010
0001
1000
0001
0010
0001
0100
0010
1000
0010
0100
0010
1000
0001
0000
,
2002
3003
0220
0330
2020
3030
0102
0000
,
1003
0100
1000
0000
0010
0100
0010
0000
0100
0001
0100
0002
0000
0000
1003
0000
,
0001
0010
0001
0000
0100
0010
0100
0000
0001
1000
0001
2000
0000
0000
3001
0000
,
0100
0010
1000
0000
0100
0010
0001
0000
0100
0010
1000
0002
0000
0000
1003
0000
,
0001
0010
0001
0000
0001
0100
0001
0000
0100
0010
0100
0010
0100
0000
0001
0000
,
0100
0010
0100
0000
0001
0010
0001
0000
0100
0010
1000
0020
0000
0000
0130
0000
,
0001
0010
0001
0000
0100
0010
0100
0000
0001
0010
0001
2000
0000
0000
3010
0000
,
0100
0010
1000
0000
0001
0100
0010
0000
1000
0001
1000
0200
0000
0000
0310
0000
,
0001
1000
0001
0000
0001
1000
0001
0000
0100
0010
0100
0010
1000
0000
0001
0000
,
2002
0000
0000
0000
,
3003
0000
0000
0000
;
