#TITLE:THE SHINING POLARIS;
#SUBTITLE:;
#ARTIST:L.E.D. feat. Sana;
#TITLETRANSLIT:;
#SUBTITLETRANSLIT:;
#ARTISTTRANSLIT:;
#GENRE:;
#CREDIT:;
#MUSIC:THE SHINING POLARIS.ogg;
#BANNER:THE SHINING POLARIS.png;
#BACKGROUND:THE SHINING POLARIS-bg.png;
#CDTITLE:;
#SAMPLESTART:85.075;
#SAMPLELENGTH:15.000;
#SELECTABLE:YES;
#OFFSET:1.226;
#BPMS:0.000=147.000;
#STOPS:;
#BGCHANGES:;
#FGCHANGES:;

//--------------- dance-single - forcednature ----------------
#NOTES:
     dance-single:
     forcednature:
     Beginner:
     3:
     0,0,0,0,0:
0000
0000
0000
0000
,
0000
0000
0000
0000
,
0000
0000
0000
0000
,
0000
0000
0000
0000
,
0010
0000
0000
0000
,
0100
0000
0000
0000
,
1000
0000
0000
0000
,
0001
0000
0000
0000
,
0010
0000
0000
0000
,
0001
0000
0000
0000
,
0100
0000
0000
0000
,
0010
0000
0000
0000
,
1000
0000
0000
0000
,
1001
0000
0000
0000
,
1000
0000
0000
0000
,
0100
0000
0000
0000
,
0010
0000
0000
0000
,
1001
0000
0000
0000
,
0001
0000
0000
0000
,
0100
0000
0000
0000
,
0010
0000
0000
0000
,
2002
0000
0000
0000
,
0000
0000
3003
0000
,
0001
0000
0000
0000
,
0100
0000
0000
0000
,
0020
0000
0000
0000
,
0200
0000
0000
0000
,
0000
0000
0000
0000
,
0000
0330
0000
0000
,
2002
0000
0000
0000
,
0000
0000
3003
0000
,
1000
0000
0000
0000
,
0001
0000
0000
0000
,
0100
0000
0000
0000
,
0020
0000
0000
0000
,
0200
0000
0000
0000
,
0000
0330
0000
0000
,
2002
0000
0000
0000
,
0000
0000
0000
0000
,
3003
0000
0000
0000
,
0000
0000
0000
0000
,
2002
0000
0000
0000
,
0000
0000
0000
0000
,
3003
0000
0000
0000
,
0000
0000
0000
0000
,
2000
0000
0000
3000
,
0002
0000
0000
0003
,
0200
0000
0000
0300
,
0020
0000
0000
0030
,
2002
0000
3003
0000
,
2002
0000
3003
0000
,
1001
0000
1001
0000
,
0100
0100
0100
0000
,
0020
0000
0000
0030
,
0200
0000
0000
0300
,
1000
0000
1000
0000
,
0001
0000
0001
0000
,
0200
0000
0000
0300
,
0020
0000
0000
0030
,
0001
0000
0001
0000
,
1000
0000
1000
0000
,
2002
0000
0000
0000
,
3003
0000
0100
0100
,
0200
0000
0000
0300
,
0020
0000
0000
0030
,
1000
0000
1000
0000
,
0001
0000
0001
0000
,
0010
0000
0100
0000
,
0010
0000
0100
0000
,
1001
0000
0000
0000
;

//--------------- dance-single - forcednature ----------------
#NOTES:
     dance-single:
     forcednature:
     Easy:
     5:
     0,0,0,0,0:
0000
0000
0000
0000
,
0000
0000
0000
0000
,
0000
0000
0000
0000
,
0000
0000
0000
0000
,
1001
0000
1000
0001
,
0100
0001
1000
0001
,
1000
0100
0010
0001
,
0010
0100
0010
0001
,
1000
0100
1000
0001
,
0100
0001
1000
0010
,
0100
0010
1000
0001
,
1000
0100
1000
0010
,
0100
0001
0010
0001
,
0110
1000
0001
0100
,
0020
0000
2030
0000
,
3200
0000
0001
0000
,
1000
0300
0000
0000
,
1001
0001
0100
0010
,
2000
3000
0020
0030
,
0002
0003
0020
0030
,
0220
0330
0100
0010
,
2002
0000
3003
0000
,
1000
1000
1000
0000
,
0001
0000
0100
0000
,
0010
0000
1000
0000
,
0100
0000
0010
0010
,
0001
0000
0100
0000
,
0020
0000
0000
0000
,
0000
0000
0030
0000
,
2002
0000
3003
0000
,
0001
0001
0001
0000
,
0100
0000
1000
0000
,
0100
0000
0010
0010
,
0010
0000
1000
0000
,
0001
0000
1000
0000
,
0220
0000
0000
0000
,
0000
0330
0100
0010
,
2002
0000
3003
0000
,
1000
0001
1000
0001
,
0100
0000
0100
0000
,
0010
0000
0010
0000
,
2002
0000
3003
0000
,
0001
0001
1000
1000
,
0100
0010
0100
0010
,
0001
0000
1000
0000
,
0110
0000
0001
0000
,
0100
0000
1000
0000
,
0010
0000
0001
0000
,
0100
0000
1000
0000
,
2002
0000
3003
0000
,
2002
0000
3003
0000
,
2000
0000
3002
0000
,
1003
0001
0100
0100
,
0110
1000
0001
0010
,
0100
1000
0010
0100
,
0001
0100
0010
1000
,
0100
0001
0100
0010
,
0001
1000
0001
0100
,
1000
0100
0010
1000
,
0100
0010
1000
0010
,
0001
1000
0010
0100
,
1001
0010
0100
1000
,
0001
0100
0010
0001
,
1000
0010
1000
0001
,
0100
0001
0010
0100
,
1000
0010
0001
1000
,
0100
0001
0010
1000
,
0001
0100
1000
0010
,
0100
0001
1000
0001
,
0110
0000
0000
0000
;

//--------------- dance-single - forcednature ----------------
#NOTES:
     dance-single:
     forcednature:
     Medium:
     7:
     0,0,0,0,0:
0000
0000
0000
0000
,
0000
0000
0000
0000
,
0000
0000
0000
0000
,
0000
0000
0000
0000
,
1001
0000
0000
0000
0100
0010
0100
0010
,
0100
0000
0000
0000
0001
1000
0001
0000
,
1000
0000
0100
0000
1000
0010
1000
0000
,
0001
0000
0100
0000
0001
0010
0001
0000
,
0100
0000
0010
0000
1000
0100
1000
0010
,
0100
0000
0001
0000
1000
0100
1000
0000
,
0001
0000
0010
0000
0001
0100
1000
0000
,
0100
0000
0010
0000
1000
0100
0001
0000
,
0100
0000
0010
0000
1000
0010
0001
0000
,
1001
0000
1000
0010
0000
0100
0000
0001
,
0000
0010
0000
0000
0000
0000
0100
1000
,
0010
0100
0001
0000
0100
0000
0010
0000
,
1000
0001
1000
0100
,
0110
0000
0010
0001
1000
0001
0100
0001
,
0000
1000
0000
0010
0000
1000
0000
0100
,
0000
0110
0000
2002
0000
0000
3003
0000
,
1000
0001
0100
0010
,
1001
0000
0000
1000
0000
0010
0000
0100
,
0000
0002
0000
0000
0000
0003
0000
0000
,
0020
0200
0300
0030
,
1000
0001
0100
1000
,
0100
0001
0010
1000
,
0100
0001
0010
0001
,
0200
0020
0000
0000
0000
0000
0000
0000
,
0330
0000
0000
0000
0000
1000
0000
0001
,
0100
0001
0000
1000
0000
0010
0000
1000
,
0000
0100
0020
0000
0030
0000
0000
0001
,
0100
0000
0000
0001
0000
1000
0000
0010
,
0000
0001
0000
0010
0000
1000
0100
0001
,
0200
0000
0300
0000
0010
0000
0001
1000
,
0000
0010
0000
0100
0000
1000
0100
0000
,
0010
1000
0200
0000
0000
0000
0000
0000
,
0010
0010
0020
0330
,
2002
0000
0000
3003
,
1000
1000
0001
0000
,
0100
0100
0010
0000
,
0001
0001
1000
0000
,
0220
0000
0000
0330
,
1000
1000
0001
0000
,
0001
0001
1000
0000
,
0100
0100
0010
0000
,
2002
0000
0000
3003
,
0220
0000
0000
0330
,
2002
0000
0000
3003
,
0220
0000
0000
0330
,
1001
0100
0010
0100
,
1001
0010
0100
0010
,
1001
1000
0110
0001
,
1001
0000
0110
0000
0100
0010
0000
0010
,
1001
0000
1000
0100
1000
0000
0010
0000
,
0100
0000
0001
0010
0001
0000
0100
0000
,
0010
0000
1000
0001
1000
0000
0010
0000
,
0100
0001
0100
0000
0010
1000
0010
0000
,
1000
0000
0100
0010
0100
0000
0001
0000
,
0100
0000
0010
0001
0010
0000
0001
0000
,
1000
0000
0010
0100
0010
0000
1000
0000
,
0001
0000
1000
0100
1000
0000
0001
0010
,
0001
0000
1000
0010
1000
0000
0001
0000
,
0100
0000
0010
0100
0010
0000
1000
0000
,
0001
0000
1000
0100
1000
0000
0001
0000
,
0010
0000
0001
0100
0001
0000
1000
0010
,
1000
0000
0001
0010
0001
0000
0100
0000
,
0010
0000
1000
0100
1000
0000
0010
0010
,
0100
0000
0001
0010
1000
0000
0100
0100
,
0010
0000
1000
0100
0000
0010
0000
0010
,
1001
0000
0000
0000
;

//--------------- dance-single - forcednature ----------------
#NOTES:
     dance-single:
     forcednature:
     Hard:
     10:
     0,0,0,0,0:
0000
0000
0000
0000
,
0000
0000
0000
0000
,
0000
0000
0000
0000
,
0000
0000
0000
0000
,
1001
0000
0000
0000
1000
0001
1000
0001
,
0100
0001
1000
0001
0100
0001
1000
0000
,
0010
1000
0001
1000
0100
0001
0100
0000
,
0010
0001
0010
1000
0010
0100
1000
0000
,
0010
0100
0001
0100
1000
0100
0010
0000
,
1000
0100
0010
0001
0100
0010
1000
0000
,
0001
0100
1000
0100
0010
1000
0001
0000
,
1000
0100
0001
0100
0010
0001
1000
0000
,
0010
0100
0001
1000
0100
0010
0001
0000
,
1001
0000
1000
0010
0000
0100
0000
0001
,
0000
1000
0000
0000
0100
0000
0010
0001
,
0000
0100
0010
0000
1000
0000
0001
1000
,
0010
0000
0100
0000
0001
0100
0001
0100
,
0101
0000
1000
0010
1000
0100
1000
0010
,
0100
0001
0000
0010
0000
0100
0000
1000
,
0001
0100
0000
0010
0000
0000
1000
0000
,
0100
1000
0010
0100
0001
0010
0001
1000
,
2002
0000
3003
1000
0000
0010
0000
0100
,
0000
0001
2000
0000
3000
0000
0000
0100
,
1000
0002
0000
0003
0000
0000
0000
0010
,
0000
1000
0000
0010
0000
0100
1000
0001
,
0200
0000
0300
0010
1000
0001
0100
0020
,
0000
2030
0000
3002
0000
0003
0010
0100
,
0000
2002
0000
0000
0000
0000
0000
0000
,
0000
0000
0000
3003
0000
1001
0000
1001
,
1000
0010
0000
0100
0000
0001
0000
0010
,
0000
0100
2000
0000
3000
0000
0000
0010
,
0002
0000
0003
0010
0000
0100
0000
0001
,
0000
0100
0000
1000
0000
0100
0010
1000
,
0200
0000
0300
0000
0010
0000
0001
0010
,
0000
1000
0000
0010
0000
0100
1000
0000
,
0001
0200
0020
0000
0000
0000
0000
0000
,
0000
0000
0330
0000
0100
0010
0100
0010
,
1001
0000
1000
0000
0010
0000
0000
0100
0000
0001
0000
0100
0000
0000
0000
0000
,
0010
0000
1000
0000
0100
0000
0000
0010
0000
0001
0000
1000
0000
0000
0000
0000
,
0100
0000
1000
0000
0001
0000
0000
0100
0000
0001
0000
1000
0000
0000
0000
0000
,
0010
1000
0001
0000
0100
0010
1000
0001
,
1001
0000
1000
0000
0100
0000
0000
0010
0000
0001
0000
0100
0000
0000
0000
0000
,
0010
1000
0000
0000
1000
0001
0000
0000
0001
0100
0000
0000
0100
0010
0000
0000
,
1000
0000
0100
0000
0010
0000
0000
0100
0000
0010
0000
0001
0000
0000
0000
0000
,
0100
0010
1000
0000
0100
0010
0100
0010
,
1001
0000
1000
0000
0000
0000
0000
0020
0000
0100
0000
0000
0000
0031
0000
0000
,
0010
0000
0100
0000
0000
0000
0000
0002
0000
0100
0000
0000
0000
0013
0000
0000
,
0001
0000
1000
0000
0000
0000
0000
0200
0000
0010
0000
0000
0000
0301
0000
0000
,
0100
0000
1000
0000
0000
0000
0000
0020
0000
0001
0000
0000
0000
1030
0000
0000
,
0110
0000
0001
0000
0000
0000
0000
2000
0000
0100
0000
0000
0000
3010
0000
0000
,
1001
0000
1000
0000
0000
0000
0000
0020
0000
0001
0000
0000
0000
1030
0000
0000
,
0110
1000
0001
0000
0110
0001
1000
0000
,
1001
0000
0110
0000
1000
0100
0001
0100
,
1001
0000
0000
0000
1000
0000
0010
0000
1000
0000
0000
0001
0000
0000
0100
0000
,
0010
0000
0000
0000
1000
0000
0100
0000
0001
0000
0000
0100
0000
0000
0010
0000
,
0001
0000
0000
0000
1000
0000
0010
0000
0100
0000
0000
0001
0000
0000
0100
0000
,
1000
0000
0000
0000
0100
0000
0010
0000
1000
0000
0000
0100
0000
0000
0001
0000
,
0100
0000
0000
0000
0010
0000
0001
0000
1000
0000
0000
0010
0000
0000
0100
0000
,
0001
0000
0000
0000
1000
0000
0100
0000
1000
0000
0000
0010
0000
0000
0100
0000
,
0001
0000
0000
0000
0010
0000
1000
0000
0010
0000
0000
0100
0000
0000
1000
0000
,
0010
0000
0100
0001
0100
0010
0100
1000
,
0100
0000
0010
0000
1000
0000
0100
0000
0020
0000
0000
0001
0000
0000
1030
0000
,
0010
0000
0100
0000
1000
0000
0010
0000
0200
0000
0000
1000
0000
0000
0301
0000
,
0100
0000
0010
0000
1000
0000
0001
0000
2000
0000
0000
0100
0000
0000
3010
0000
,
1000
0000
0100
0000
0001
0000
0100
0000
0020
0000
0000
1000
0000
0000
0031
0000
,
0010
0000
0100
0000
1000
0000
0001
0000
0200
0000
0000
1000
0000
0000
0301
0000
,
0100
0000
0010
0000
1000
0000
0001
0000
0020
0000
0000
0100
0000
0000
0031
0000
,
0010
0100
0001
0100
1000
0010
0100
0001
,
0010
0000
1000
0000
0010
0000
0001
0000
0100
0000
0010
0000
1000
0001
1000
0000
,
0100
0000
0000
0000
;

//--------------- dance-single - forcednature ----------------
#NOTES:
     dance-single:
     forcednature:
     Challenge:
     12:
     0,0,0,0,0:
0000
0000
0000
0000
,
0000
0000
0000
0000
,
0000
0000
0000
0000
,
0000
0000
0000
0000
,
1001
0000
0000
0000
0000
0000
0000
0000
1000
0000
0001
0100
0010
1000
0001
0000
,
1000
0000
0100
0000
0010
0000
0100
0000
1000
0000
0010
0000
0100
0001
0000
0001
,
0100
0000
0010
0000
1000
0000
0001
0000
0010
0000
1000
0000
0010
0100
0000
0100
,
1000
0000
0001
0000
0100
0000
0010
0000
0001
0000
0010
0000
0100
0001
0000
0001
,
1000
0100
0010
0100
1000
0001
0100
0010
,
1000
0000
0010
0000
0001
0000
0010
0000
0100
0000
0001
0000
0010
0100
0000
0100
,
1000
0000
0001
0000
1000
0000
0100
0000
0010
0000
0100
0000
1000
0001
0000
0001
,
0100
0000
1000
0000
0100
0000
0001
0000
1000
0000
0100
0000
0010
0100
0000
0100
,
1000
0001
0010
1000
0010
0001
1000
0010
,
0210
0000
0302
0203
0000
2300
0000
3002
,
0000
0023
0000
0030
1000
0000
0100
0020
,
0000
2030
0000
3000
0001
0000
0110
0000
,
0010
0000
0000
0000
1100
0000
0000
0000
0001
0000
0000
0000
1010
0000
0000
0001
,
0100
0000
0001
2000
3200
0320
0230
0302
,
0100
0203
0000
2300
0000
3002
0000
0203
,
1000
0000
2300
0000
0000
0000
3200
0000
0000
0000
0300
0000
0001
0000
1000
0100
,
1000
0100
1000
0000
0010
0000
0100
0000
0001
0000
0101
0000
1000
0000
1010
0000
,
2002
0000
3003
1000
0000
0100
0000
0001
,
0000
0100
0020
0000
0030
0000
0000
0001
,
0200
2000
0300
3000
0000
0000
0000
0100
,
0000
0010
0000
1000
0000
0001
0010
1000
,
0020
0000
0030
0100
1000
0010
0100
0002
,
0000
2003
0000
3200
0000
0300
0010
0001
,
0000
2002
0000
0000
0000
0000
0000
0000
,
0000
0000
0000
0000
0000
0000
0000
0000
0000
0000
0000
0000
0000
3003
0000
0000
0000
0000
0000
0000
1100
0000
0000
0000
0000
0000
0000
0000
0011
0000
0000
0000
,
0001
0100
0000
0010
0000
0001
0000
0010
,
0000
1000
0002
0000
0003
0000
0000
1000
,
0200
0000
0300
0020
0000
2030
0000
3020
,
0000
0032
0000
0203
0000
0301
1000
0010
,
0200
0000
0300
0000
2000
0000
3100
0002
,
0000
1003
0000
0200
0000
0301
0100
0000
,
0020
0000
0032
0000
0203
0000
0000
0300
0010
0100
0010
0000
1000
0000
0000
0000
,
0001
0000
0010
0000
0001
0000
0100
0000
0010
1000
0010
0000
0100
0001
0100
0000
,
0001
1000
0001
0000
0010
0000
0100
1000
0000
0001
0000
0010
0000
0000
0000
0000
,
0001
0100
0001
0000
1000
0000
0010
0100
0000
0001
0000
1000
0000
0000
0000
0000
,
0100
1000
0100
0000
0010
0000
0001
1000
0000
0010
0000
0100
0000
0000
0000
0000
,
0001
1000
0001
0000
0010
0000
0100
1000
0100
0000
1000
0000
0000
0000
0010
0000
,
0100
0001
0100
0000
0010
0000
1000
0001
0000
1000
0000
0100
0000
0000
0000
0000
,
0010
0001
0010
0000
0100
1000
0100
0000
1000
0010
1000
0000
0001
0100
0001
0000
,
1000
0100
0010
0000
0001
0000
0100
0010
0000
1000
0000
0001
0000
0000
0000
0000
,
1000
0010
0100
0000
0001
0000
0010
0100
0000
1000
0001
0000
0000
0000
0110
0000
,
1001
0000
1000
0020
0000
0000
0030
1000
0000
0001
0200
0000
0000
0310
0000
0000
,
1000
0000
0100
0002
0000
0000
0003
0100
0000
0010
0002
0000
0000
1003
0000
0000
,
0010
0000
0001
0020
0000
0000
0030
0100
0000
0001
2000
0000
0000
3100
0000
0000
,
1000
0000
0001
0200
0000
0000
0300
1000
0000
0100
0002
0000
0000
0103
0000
0000
,
0110
0000
1000
0002
0000
0000
0003
0010
0000
0100
2000
0000
0000
3001
0000
0000
,
0110
0000
0001
2000
0000
0000
3000
0100
0000
1000
0002
0000
0000
0103
0000
0000
,
1001
0000
1000
0100
0000
1000
0010
0000
1001
0000
0001
0100
0000
0010
0100
0000
,
1001
0000
0110
0010
0000
1100
0000
0011
,
1001
0000
0000
0000
1000
0000
0010
0000
1000
0000
0001
0010
0000
0001
0010
0000
,
0100
0000
1000
0000
0010
0000
0100
0000
0001
0000
1000
0100
0000
1000
0100
0000
,
0010
0000
0001
0000
0100
0000
0010
0000
1000
0000
0001
0100
0000
0001
0100
0000
,
0000
0000
1000
0000
0000
0000
0100
0000
0010
0000
1000
0001
0000
1000
0001
0000
,
0100
0000
1000
0000
0100
0000
0001
0000
1000
0000
0100
0010
0000
0001
0010
0000
,
0100
0000
1000
0000
0001
0000
1000
0000
0010
0000
0100
0001
0000
0100
0010
0000
,
1000
0000
0001
0000
1000
0000
0100
0000
0010
0000
0001
0100
0000
0001
1000
0000
,
0010
0000
1000
0000
0100
0000
1000
0001
1000
0100
1000
0100
0010
0001
0010
0001
,
0100
0000
0010
0000
1000
0000
0001
0000
0100
0000
1000
0100
0000
0010
0100
0000
,
0001
0000
0010
0000
1000
0000
0010
0000
0100
0000
1000
0001
0000
1000
0010
0000
,
1000
0000
0001
0000
1000
0000
0100
0000
0010
0000
0001
0100
0000
0001
0010
0000
,
0000
0000
1000
0000
0000
0000
0010
0000
0001
0000
1000
0010
0000
0100
0001
0000
,
1000
0000
0100
0000
1000
0000
0010
0000
0100
0000
0001
1000
0000
0100
0001
0000
,
0100
0000
1000
0000
0010
0000
0100
0000
1000
0000
0100
0010
0000
1000
0001
0000
,
1000
0100
1000
0100
0010
0000
0100
0010
0001
0000
0010
0001
0000
1000
0010
0000
,
0100
0001
1000
0001
1000
0000
0010
0100
0001
0000
0011
0000
1000
0000
1100
0000
,
1001
0000
0000
0000
;

//--------------- dance-double - forcednature ----------------
#NOTES:
     dance-double:
     forcednature:
     Easy:
     5:
     0,0,0,0,0:
00000000
00000000
00000000
00000000
,
00000000
00000000
00000000
00000000
,
00000000
00000000
00000000
00000000
,
00000000
00000000
00000000
00000000
,
00011000
00000000
00001000
00010000
,
01000000
00010000
00001000
00100000
,
00010000
10000000
00100000
01000000
,
00001000
00010000
00000100
00001000
,
00000001
00000010
00000100
00001000
,
00001001
00000001
00000100
00000010
,
00001000
00000100
00010000
00001000
,
00100000
00010000
10000000
00100000
,
01000000
00010000
00100000
01000000
,
10010000
20000000
00000000
01000000
,
00100000
30000000
10000000
00010000
,
02000000
00001000
03010000
00001000
,
00010000
00000100
00000010
00000001
,
00001001
00001000
00000002
00000000
,
00000100
00000000
00000010
00000003
,
00000001
00000100
00000010
00001000
,
00000100
00010000
00001000
00001000
,
00022000
00000000
00033000
00000000
,
02000000
00000000
03000000
00000000
,
20000000
00000000
00000000
00000000
,
00000000
00000000
30000000
00000000
,
00020000
00000000
00030000
00000000
,
02000000
00000000
03000000
00000000
,
00002000
00000000
00000000
00000000
,
00000000
00000000
00003000
00000000
,
00022000
00000000
00033000
00000000
,
00000200
00000000
00000300
00000000
,
00000020
00000000
00000030
00000000
,
00000002
00000000
00000003
00000000
,
00000200
00000000
00000300
00000000
,
00000020
00000000
00000030
00000000
,
00022000
00000000
00000000
00000000
,
00033000
00000000
00010000
00001000
,
00022000
00000000
00000000
00000000
,
00033000
00000000
00001000
00010000
,
00000100
00000000
00010000
00000000
,
00001000
00000000
00100000
00000000
,
00022000
00000000
00000000
00000000
,
00000000
00033000
00001000
00010000
,
00000010
00000000
00001000
00000000
,
00000001
00000000
00000100
00000100
,
00000110
00000000
00000000
00000000
,
00000001
00000000
00000000
00000000
,
00001000
00000000
00000000
00000000
,
00000100
00000000
00000000
00000000
,
00011000
00000000
00000000
00000000
,
00011000
00000000
00000000
00000000
,
00011000
00000000
00011000
00000000
,
00010000
00001000
00010000
00001000
,
00010000
01000000
00010000
00001000
,
00100000
00010000
10000000
00100000
,
01000000
00001000
00010000
00000100
,
00001000
00000001
00000100
00000010
,
00001000
00000100
00000010
00000001
,
00000100
00000010
00001000
00000100
,
00000010
00000001
00000100
00000001
,
00001000
00000010
00000100
00000001
,
00000110
00001000
00000100
00010000
,
00001000
00100000
00010000
10000000
,
00100000
01000000
00001000
00010000
,
00000010
00001000
00000001
00001000
,
00000100
00010000
00001000
00100000
,
00010000
01000000
00001000
00010000
,
00000010
00001000
00000001
00000010
,
00000100
00010000
00001000
00100000
,
10010000
00000000
00000000
00000000
;

//--------------- dance-double - forcednature ----------------
#NOTES:
     dance-double:
     forcednature:
     Medium:
     8:
     0,0,0,0,0:
00000000
00000000
00000000
00000000
,
00000000
00000000
00000000
00000000
,
00000000
00000000
00000000
00000000
,
00000000
00000000
00000000
00000000
,
00011000
00000000
00000000
00000000
00001000
00010000
00001000
00000000
,
00100000
00010000
00100000
00000000
01000000
00000000
10000000
00000000
,
00010000
01000000
00010000
00000000
00100000
00000000
00001000
00000000
,
00010000
00000100
00010000
00000000
00001000
00000000
00000010
00000000
,
00000001
00000100
00000001
00000000
00001000
00000000
00000010
00000000
,
00010000
00001000
00010000
00000000
00000100
00000000
00010000
00000000
,
00001000
00100000
00001000
00000000
01000000
00000000
00010000
00000000
,
10000000
01000000
10000000
00000000
00010000
00000000
00100000
00000000
,
00001000
00010000
00001000
00000000
01000000
00000000
00010000
00000000
,
10000000
00000000
00100000
01000000
00000000
00010000
00000000
00100000
,
00000000
00001000
00000000
00000000
00010000
00000000
00000100
00001000
,
00000000
00000001
00000000
00000000
00000100
00000000
00000010
00000000
,
00001000
00000100
00000010
00000001
,
00001001
00000000
00000000
00001000
00000100
00010000
00001000
00100000
,
00000000
00010000
00000000
10000000
00000000
00100000
00000000
01000000
,
00000000
00010000
00000000
00100000
00000000
00000000
00001000
00000000
,
00010000
00000000
00000100
00000000
00001000
00000001
00001000
00000000
,
00002002
00000000
00000000
00003003
,
00000001
00000100
00000010
00001000
,
00000200
00000000
00000000
00000300
,
00010000
00001000
00100000
00010000
,
10000000
00100000
01000000
00010000
,
00100000
10000000
00100000
00010000
,
02000000
00000000
00000000
00000000
,
00010000
00010000
03010000
00000000
,
10000000
00010000
01000000
00000000
00001000
00000000
00010000
00000000
,
00000100
00001000
00000001
00000000
,
00000100
00000010
00001000
00000000
00000100
00000000
00000010
00000000
,
00000001
00001000
00000001
00000000
,
00000100
00000001
00001000
00000000
00000010
00000000
00010000
00000000
,
00001000
00100000
00010000
00000000
,
10000000
01000000
10000000
00000000
00100000
00000000
01000000
00000000
,
00010000
00100000
00001000
00000000
,
00022000
00000000
00000000
00033000
,
00001000
00010000
01000000
10000000
,
00100000
01000000
00010000
00100000
,
00001000
00010000
00100000
10000000
,
20020000
00000000
00000000
30030000
,
10000000
00010000
01000000
00001000
,
00010000
00000010
00001000
00000100
,
00000010
00000000
00000001
00000000
00000000
00000100
00000000
00000100
,
00001001
00000000
00000000
00000000
00000000
00000000
00000000
00000001
00000000
00000100
00000000
00000000
00000000
00000010
00000000
00000000
,
00001000
00000000
00000100
00000000
00000000
00000000
00000000
00010000
00000000
00001000
00000000
00000000
00000000
00100000
00000000
00000000
,
00010000
00000000
10000000
00000000
00000000
00000000
00000000
00100000
00000000
01000000
00000000
00000000
00000000
00010000
00000000
00000000
,
10000000
00000000
01000000
00000000
00000000
00000000
00000000
00100000
00000000
00001000
00000000
00000000
00000000
00010000
00000000
00000000
,
00000100
00000000
00001000
00000000
00000000
00000000
00000000
00000001
00000000
00000100
00000000
00000000
00000000
00000010
00000000
00000000
,
00001000
00000000
00000100
00000000
00000000
00000000
00000000
00010000
00000000
00001000
00000000
00000000
00000000
00000000
00000000
00000000
,
00110000
01000000
10100000
01000000
,
10010000
00000000
10010000
00000000
00000000
01000000
00000000
01000000
,
00010000
00100000
00010000
00000000
01000000
00000000
00001000
00000000
,
00010000
00000100
00001000
00000000
00000001
00000000
00000100
00000000
,
00000010
00001000
00000010
00000000
00000100
00000000
00000001
00000000
,
00000010
00000100
00000010
00000000
00000001
00001000
00000001
00000000
,
00000100
00000010
00000100
00000000
00001000
00000000
00010000
00000000
,
01000000
00100000
01000000
00000000
00010000
00000000
10000000
00000000
,
01000000
10000000
01000000
00000000
00100000
00000000
00010000
00000000
,
10000000
00100000
10000000
00000000
00010000
01000000
00010000
00000000
,
00100000
00010000
00100000
00000000
00001000
00000000
00010000
00000000
,
00000010
00001000
00000010
00000000
00000100
00000000
00000001
00000000
,
00001000
00000100
00001000
00000000
00000010
00000000
00010000
00000000
,
00001000
00100000
00001000
00000000
01000000
00010000
01000000
00000000
,
00100000
10000000
00100000
00000000
10000000
00000000
01000000
00000000
,
00100000
00001000
00100000
00000000
00001000
00000000
00010000
00000000
,
00000010
00001000
00000010
00000000
00000100
00000000
00000001
00000000
,
00001000
00000100
00001000
00000000
00000000
00000100
00000000
00000100
,
00001001
00000000
00000000
00000000
;

//--------------- dance-double - forcednature ----------------
#NOTES:
     dance-double:
     forcednature:
     Hard:
     11:
     0,0,0,0,0:
00000000
00000000
00000000
00000000
,
00000000
00000000
00000000
00000000
,
00000000
00000000
00000000
00000000
,
00000000
00000000
00000000
00000000
,
00011000
00000000
00000000
00000000
00001000
00010000
00001000
00010000
,
00000100
00001000
00000010
00001000
00000100
00001000
00000001
00000100
,
00001000
00000100
00000010
00001000
00000100
00000010
00000001
00000100
,
00001000
00010000
01000000
10000000
00100000
10000000
00010000
10000000
,
01000000
00010000
01000000
00100000
00001000
00010000
00000010
00000100
,
00000001
00001000
00000100
00010000
00001000
01000000
00010000
10000000
,
01000000
00010000
01000000
10000000
00100000
00010000
00001000
00000100
,
00000001
00001000
00000010
00010000
00001000
00100000
00010000
10000000
,
01000000
00100000
00010000
00001000
00000100
00000010
00000001
00000100
,
00000020
00000000
00010030
00002000
00000000
00203000
00000000
02300000
,
00000000
23000000
00000000
30000000
00100000
00000000
01000000
00002000
,
00000000
00023000
00000000
00030000
01000000
00000000
00010000
00000000
,
00001000
00000000
00000100
00000000
00000001
00001000
00000001
00001000
,
00001001
00000000
00001000
00000100
00010000
00000100
00001000
00010000
,
00100000
02000000
00000000
23000000
00000000
30020000
00000000
02030000
,
00000000
03002000
00000000
00003200
00000000
00000300
00000001
00000000
,
00001000
00000001
00000100
00000010
00000100
00001000
00010000
01000000
,
20020000
00000000
30030000
10000000
00000000
00010000
00000000
00001000
,
00000000
00000001
00000200
00000000
00000300
00000000
00000000
00000010
,
00001000
00000200
00000000
00000300
00000000
00000000
00000000
00010000
,
00000000
00001000
00000000
00100000
00000000
00010000
01000000
10000000
,
02000000
00000000
03000000
00100000
10000000
01000000
00010000
00001000
,
00000000
00000100
00000000
00000002
00000000
00000003
00000100
00000010
,
00000000
00022000
00000000
00000000
00000000
00000000
00000000
00000000
,
00000000
00000000
00000000
00033000
00000000
00010000
00000000
00001000
,
00010000
00100000
00000000
10000000
00000000
01000000
00000000
00010000
,
00000000
01000000
00200000
00000000
00300000
00000000
00000000
00001000
,
00020000
00000000
00030000
00000100
00000000
00001000
00000000
00000001
,
00000000
00000100
00000000
00001000
00000000
00000100
00000010
00000100
,
00000002
00000000
00000003
00000000
00001000
00000000
00000010
00010000
,
00000000
00000100
00000000
00001000
00000000
00000001
00000010
00000000
,
00001000
00020000
00200000
00000000
00000000
00000000
00000000
00000000
,
00000000
00330000
00000000
00000000
10000000
00010000
10000000
00010000
,
10000000
00000000
01000000
00000000
00010000
00000000
00000000
01000000
00000000
00100000
00000000
00001000
00000000
00000000
00000000
00000000
,
00010000
00000000
00000010
00000000
00001000
00000000
00000000
00000001
00000000
00001000
00000000
00000100
00000000
00000000
00000000
00000000
,
00000010
00000000
00000001
00000000
00000100
00000000
00000000
00000010
00000000
00010000
00000000
00001000
00000000
00000000
00000000
00000000
,
00100000
00000000
00010000
00000000
01000000
00000000
00000000
00100000
10000000
00000000
01000000
00000000
00100000
00000000
00010000
00000000
,
01000000
00000000
00001000
00000000
00010000
00000000
00000000
00000100
00000000
00001000
00000000
00000001
00000000
00000000
00000000
00000000
,
00000100
00000010
00000000
00000000
00000010
00001000
00000000
00000000
00001000
00000100
00000000
00000000
00000100
00010000
00000000
00000000
,
00010000
00000000
00001000
00000000
00100000
00000000
00000000
00010000
00000000
10000000
00000000
00100000
00000000
00000000
00000000
00000000
,
01000000
00010000
00100000
00000000
01000000
00100000
01000000
00100000
,
01100000
00000000
10000000
00010000
00000000
00000000
00000000
01000000
00000000
00001000
00000000
00000000
00000000
00010000
00000000
00000000
,
00000100
00000000
00001000
00000001
00000000
00000000
00000000
00000100
00000000
00000010
00000000
00000000
00000000
00001000
00000000
00000000
,
00000100
00000000
00010000
00001000
00000000
00000000
00000000
01000000
00000000
00010000
00000000
00000000
00000000
10000000
00000000
00000000
,
00100000
00000000
10000000
01000000
00000000
00000000
00000000
00100000
00000000
00001000
00000000
00000000
00000000
00010000
00000000
00000000
,
00000110
00000000
00001000
00000001
00000000
00000000
00000000
00000100
00000000
00001000
00000000
00000000
00000000
00010000
00000000
00000000
,
00000010
00000000
00001000
00000100
00000000
00000000
00000000
00010000
00000000
00001000
00000000
00000000
00000000
00100000
00000000
00000000
,
00010000
00000000
10000000
00100000
00000000
00000000
00000000
00000000
10000000
00000000
00010000
00100000
00000000
00000000
00000000
00000000
,
00011000
00000000
00011000
00000000
00000100
00001000
00000010
00001000
,
00000100
00000000
00000000
00000000
00000010
00000000
00000001
00000000
00000100
00000000
00000000
00001000
00000000
00000000
00000100
00000000
,
00000010
00000000
00000000
00000000
00001000
00000000
00000100
00000000
00010000
00000000
00000000
00001000
00000000
00000000
01000000
00000000
,
00010000
00000000
00000000
00000000
10000000
00000000
00100000
00000000
00010000
00000000
00000000
00100000
00000000
00000000
01000000
00000000
,
00010000
00000000
00100000
01000000
10000000
01000000
00100000
00010000
,
01000000
00000000
00000000
00000000
00001000
00000000
00010000
00000000
00000100
00000000
00000000
00001000
00000000
00000000
00000001
00000000
,
00000100
00000000
00000000
00000000
00001000
00000000
00000100
00000000
00000010
00000000
00000000
00001000
00000000
00000000
00000100
00000000
,
00000010
00000000
00000000
00000000
00000001
00000000
00000100
00000000
00000010
00000000
00000000
00001000
00000000
00000000
00000100
00000000
,
00000010
00000000
00000000
00000000
00000001
00000000
00000100
00000000
00000001
00001000
00000000
00000000
00001000
00000001
00000000
00000000
,
00000110
00000000
00000000
00000000
00000001
00000000
00000100
00000000
00000020
00000000
00000000
00001000
00000000
00000000
00000100
00000000
,
00001030
00000000
00000000
00000000
00000010
00000000
00010000
00000000
00002000
00000000
00000000
00100000
00000000
00000000
00010000
00000000
,
01003000
00000000
00000000
00000000
00001000
00000000
00100000
00000000
02000000
00000000
00000000
00010000
00000000
00000000
10000000
00000000
,
03100000
00000000
00000000
00000000
01000000
00000000
10000000
00000000
00020000
00000000
00000000
01000000
00000000
00000000
00100000
00000000
,
10030000
00000000
00010000
00000000
01000000
00000000
00001000
00000000
00010000
00000000
00000000
00100000
00000000
00000000
00010000
00000000
,
00001000
00000000
00000100
00000000
00000001
00000000
00000010
00000000
00000100
00000000
00000000
00001000
00000000
00000000
00000001
00000000
,
00000100
00000000
00001000
00000000
00010000
00000000
00100000
00000000
00010000
00000000
00000000
00001000
00000000
00000000
00010000
00000000
,
01000000
10000000
00010000
00100000
01000000
00010000
00001000
00000010
,
00000001
00000000
00000000
00000000
;

//--------------- dance-double - forcednature ----------------
#NOTES:
     dance-double:
     forcednature:
     Challenge:
     13:
     0,0,0,0,0:
00000000
00000000
00000000
00000000
,
00000000
00000000
00000000
00000000
,
00000000
00000000
00000000
00000000
,
00000000
00000000
00000000
00000000
,
00011000
00000000
00000000
00000000
00000000
00000000
00000000
00000000
00001000
00000000
00010000
00000100
00001000
00000001
00000100
00000000
,
00000010
00000000
00001000
00000000
00000100
00000000
00010000
00000000
00001000
00100000
00000000
00100000
01000000
00000000
10000000
00000000
,
00100000
00000000
00010000
00000000
00001000
00000000
00100000
00000000
01000000
10000000
00000000
10000000
00010000
00000000
00100000
00000000
,
00001000
00000000
00010000
00000000
00000100
00000000
00000010
00000000
00000001
00000100
00000000
00000100
00001000
00000000
00010000
00000000
,
00000100
00001000
00000010
00000100
00000001
00000010
00001000
00010000
,
01000000
00000000
00100000
00000000
00001000
00000000
00010000
00000000
00100000
10000000
00000000
10000000
00010000
00000000
00100000
00000000
,
00001000
00000000
00010000
00000000
00000010
00000000
00000100
00000000
00001000
00010000
00000000
00010000
00000100
00000000
00001000
00000000
,
00000001
00000000
00000100
00000000
00000010
00000000
00010000
00000000
00001000
01000000
00000000
01000000
00100000
00000000
10000000
00000000
,
01000000
00010000
00001000
00000010
00000100
00010000
00001000
00100000
,
02100000
00000000
13000000
00200000
00000000
00320000
00000000
00032000
,
00000000
00003200
00000000
00000300
00000001
00000000
00001000
00000200
,
00000000
00020300
00000000
00030000
00001000
00000000
01100000
00000000
,
10000000
00000000
00000000
00000000
01001000
00000000
00000000
00000000
00010000
00000000
00000000
00000000
00000110
00000000
00000000
00000001
,
00001000
00000000
00000100
00020000
00032000
00003200
00020300
02030000
,
00100000
03200000
00000000
00320000
00000000
00030020
00000000
00002030
,
00000100
00000000
00003200
00000000
00000000
00000000
00020300
00000000
00000000
00000000
00030000
00000000
00001000
00000000
00100000
00010000
,
10000000
01000000
00100000
00000000
00010000
00000000
01000000
00000000
00100000
00000000
01100000
00000000
10000000
00000000
10010000
00000000
,
02200000
00000000
03300000
00001000
00000000
00010000
00000000
00000100
,
00000000
00000010
00000002
00000000
00000003
00000000
00000000
00000100
,
00002000
00020000
00003000
00030000
00000000
00000000
00000000
01000000
,
00000000
00100000
00000000
00010000
00000000
10000000
00100000
00010000
,
00002000
00000000
00003000
00100000
00001000
00010000
00001000
00000200
,
00000000
00000302
00000000
00002003
00000000
00003000
00000100
00010000
,
00000000
00022000
00000000
00000000
00000000
00000000
00000000
00000000
,
00000000
00000000
00000000
00000000
00000000
00000000
00000000
00000000
00000000
00000000
00000000
00000000
00000000
00033000
00000000
00000000
00000000
00000000
00000000
00000000
01010000
00000000
00000000
00000000
00000000
00000000
00000000
00000000
10100000
00000000
00000000
00000000
,
10000000
00010000
00000000
00100000
00000000
00001000
00000000
00000100
,
00000000
00000001
00002000
00000000
00003000
00000000
00000000
00000100
,
00020000
00000000
00030000
00200000
00000000
20300000
00000000
32000000
,
00000000
03002000
00000000
00003020
00000000
00000031
00000010
00001000
,
00000200
00000000
00000300
00000000
00020000
00000000
01030000
20000000
,
00000000
30100000
00000000
00020000
00000000
00031000
00000100
00000000
,
00000002
00000000
00002003
00000000
00003200
00000000
00000300
00000000
00010000
00001000
00010000
00000000
00100000
00000000
00000000
00000000
,
01000000
00000000
10000000
00000000
01000000
00000000
00010000
00000000
00100000
00001000
00010000
00000000
00000100
00010000
00001000
00000000
,
00010000
00000010
00001000
00000000
00000100
00000000
00000010
00000001
00000000
00000100
00000000
00000010
00000000
00000000
00000000
00000000
,
00010000
00001000
00010000
00000000
01000000
00000000
00100000
00010000
00000000
10000000
00000000
00100000
00000000
00000000
00000000
00000000
,
01000000
00100000
10000000
00000000
00100000
00000000
00010000
00001000
00000000
00100000
00000000
00010000
00000000
00000000
00000000
00000000
,
01000000
00001000
00010000
00000000
00000100
00000000
00001000
00000010
00000100
00000000
00000001
00000000
00001000
00000000
00000100
00000000
,
00010000
00001000
00100000
00000000
01000000
00000000
10000000
00010000
00000000
00100000
00000000
00001000
00000000
00000000
00000000
00000000
,
00010000
00000100
00010000
00000000
00001000
01000000
00001000
00000000
00010000
00000100
00010000
00000000
00001000
01000000
00001000
00000000
,
00100000
00010000
01000000
00000000
00001000
00000000
00010000
00000100
00000000
00001000
00000000
00000001
00000000
00000000
00000000
00000000
,
00000100
00000010
00001000
00000000
00000100
00000000
00010000
00001000
00000000
00100000
01000000
00000000
00000000
00000000
10010000
00000000
,
11000000
00000000
10000000
00020000
00000000
00000000
00030000
00100000
00000000
00001000
00020000
00000000
00000000
00030010
00000000
00000000
,
00000100
00000000
00001000
00000200
00000000
00000000
00000300
00000001
00000000
00001000
00000020
00000000
00000000
00010030
00000000
00000000
,
00001000
00000000
00100000
00020000
00000000
00000000
00030000
01000000
00000000
10000000
02000000
00000000
00000000
03010000
00000000
00000000
,
10000000
00000000
01000000
00020000
00000000
00000000
00030000
00001000
00000000
00000010
00000002
00000000
00000000
00001003
00000000
00000000
,
00000110
00000000
00000001
00000200
00000000
00000000
00000300
00001000
00000000
00010000
02000000
00000000
00000000
13000000
00000000
00000000
,
01100000
00000000
10000000
00200000
00000000
00000000
00300000
00010000
00000000
00001000
00000020
00000000
00000000
00000031
00000000
00000000
,
00001001
00000000
00000001
00000100
00000000
00001000
00010000
00000000
00011000
00000000
00001000
00010000
00000000
01000000
10000000
00000000
,
10010000
00000000
10010000
00000000
00000000
00101000
00000000
00010010
,
00011000
00000000
00000000
00000000
00001000
00000000
00100000
00000000
01000000
00000000
10000000
00010000
00000000
10000000
00010000
00000000
,
01000000
00000000
00001000
00000000
00010000
00000000
00000010
00000000
00001000
00000000
00000100
00000010
00000000
00000100
00000010
00000000
,
00000001
00000000
00000100
00000000
00001000
00000000
00010000
00000000
00000100
00000000
00010000
00001000
00000000
00010000
00001000
00000000
,
00000000
00000000
00100000
00000000
00000000
00000000
01000000
00000000
10000000
00000000
00010000
01000000
00000000
00010000
01000000
00000000
,
00001000
00000000
00010000
00000000
00000100
00000000
00000010
00000000
00000001
00000000
00000100
00000010
00000000
00001000
00000100
00000000
,
00010000
00000000
00001000
00000000
00100000
00000000
00010000
00000000
01000000
00000000
00100000
10000000
00000000
00010000
00100000
00000000
,
01000000
00000000
10000000
00000000
00010000
00000000
00100000
00000000
00001000
00000000
00010000
00001000
00000000
00100000
00010000
00000000
,
01000000
00000000
00001000
00000000
00010000
00000000
00000100
00001000
00000100
00000010
00000100
00000010
00000001
00001000
00000001
00001000
,
00000010
00000000
00000100
00000000
00001000
00000000
00010000
00000000
01000000
00000000
10000000
00100000
00000000
00010000
00100000
00000000
,
01000000
00000000
00001000
00000000
00010000
00000000
01000000
00000000
00100000
00000000
00001000
00010000
00000000
00000100
00000010
00000000
,
00000001
00000000
00000100
00000000
00001000
00000000
00000100
00000000
00000010
00000000
00010000
00000100
00000000
00010000
00001000
00000000
,
00000000
00000000
00100000
00000000
00000000
00000000
10000000
00000000
00100000
00000000
00010000
01000000
00000000
00100000
00010000
00000000
,
00001000
00000000
00000100
00000000
00000001
00000000
00001000
00000000
00000100
00000000
00010000
00001000
00000000
01000000
00100000
00000000
,
10000000
00000000
01000000
00000000
00010000
00000000
01000000
00000000
00100000
00000000
00001000
00010000
00000000
00000010
00000100
00000000
,
00000001
00000100
00000001
00000100
00000010
00000000
00000100
00000010
00001000
00000000
00000100
00010000
00000000
00001000
01000000
00000000
,
00010000
01000000
00010000
01000000
00100000
00000000
10000000
01000000
00100000
00000000
00110000
00000000
00001000
00000000
00011000
00000000
,
01001000
00000000
00000000
00000000
;
