#TITLE:THE SECOND YOU SLEEP;
#SUBTITLE:(I STAY TO WATCH YOU FADE AWAY);
#ARTIST:TESS;
#TITLETRANSLIT:;
#SUBTITLETRANSLIT:;
#ARTISTTRANSLIT:;
#GENRE:;
#CREDIT:hooky;
#BANNER:THE SECOND YOU SLEEP (I STAY TO WATCH YOU FADE AWAY).png;
#BACKGROUND:THE SECOND YOU SLEEP (I STAY TO WATCH YOU FADE AWAY)-bg.png;
#LYRICSPATH:;
#CDTITLE:;
#MUSIC:THE SECOND YOU SLEEP (I STAY TO WATCH YOU FADE AWAY).ogg;
#OFFSET:0.000000;
#SAMPLESTART:72.599998;
#SAMPLELENGTH:14.000000;
#SELECTABLE:YES;
#DISPLAYBPM:138.000000;
#BPMS:0.000000=138.000000
;
#STOPS:
;
#BGCHANGES:0.000=THE SECOND YOU SLEEP (I STAY TO WATCH YOU FADE AWAY).avi=1.000=0=0=0=StretchNoLoop====,
99999=-nosongbg-=1.000=0=0=0 // don't automatically add -songbackground-
;
#KEYSOUNDS:;
#ATTACKS:;

//---------------dance-single - ----------------
#NOTES:
     dance-single:
     :
     Hard:
     12:
     0.368817,0.682665,0.027081,0.243729,0.248242,286.000000,283.000000,3.000000,27.000000,0.000000,0.000000,0.368817,0.682665,0.027081,0.243729,0.248242,286.000000,283.000000,3.000000,27.000000,0.000000,0.000000:
// measure 0
0000
0000
0000
0000
,  // measure 1
0000
0000
0000
0000
,  // measure 2
0000
0000
0000
0000
,  // measure 3
0000
0000
0000
0000
,  // measure 4
0000
0000
0000
0000
,  // measure 5
0000
0000
0000
0000
,  // measure 6
0020
0000
0000
0000
,  // measure 7
0000
0000
0000
0030
,  // measure 8
2000
0000
0000
3000
,  // measure 9
0002
0000
0000
0003
,  // measure 10
2000
0000
0000
0000
,  // measure 11
0000
0000
0000
3000
,  // measure 12
0200
0000
0000
0000
,  // measure 13
0000
0000
0000
0300
,  // measure 14
0002
0100
0000
0103
,  // measure 15
0200
1000
0000
1300
,  // measure 16
2000
0001
0000
3001
,  // measure 17
0002
0000
0100
0103
,  // measure 18
0001
0100
0010
0000
0010
1000
0100
0000
,  // measure 19
2000
0100
0001
3010
,  // measure 20
0100
0001
0010
0000
0010
0100
1000
0000
,  // measure 21
1000
0010
0100
0000
0010
1000
0100
0010
,  // measure 22
0001
0001
1000
0000
0001
0010
0100
0000
,  // measure 23
0020
1000
0100
0031
,  // measure 24
0002
1003
2000
3010
,  // measure 25
0020
0130
0200
0301
,  // measure 26
0020
0001
0001
0031
,  // measure 27
0010
0100
1000
0001
0010
0001
0100
0010
,  // measure 28
2000
0010
0001
3100
,  // measure 29
0100
0010
0001
1000
0010
0100
0001
0010
,  // measure 30
0020
0001
0001
0031
,  // measure 31
0002
1000
1000
1003
,  // measure 32
0220
0000
0000
0000
,  // measure 33
0330
0000
0000
1001
,  // measure 34
0001
0100
1000
0000
0001
0100
1000
0000
,  // measure 35
0001
0100
1000
0100
0001
0100
1000
0100
,  // measure 36
0001
0010
1000
0000
0001
0010
1000
0000
,  // measure 37
0001
0010
1000
0010
0001
0010
1000
0010
,  // measure 38
0002
0010
0010
0013
,  // measure 39
0200
0000
1300
0000
0010
0000
1000
0010
,  // measure 40
0100
0001
0010
0100
,  // measure 41
0010
0000
0001
1000
0010
0100
0001
1000
,  // measure 42
0100
0000
1000
0000
0100
1000
0000
0100
1000
0000
0000
0010
0000
0000
0100
0010
,  // measure 43
0000
0000
0100
0000
0001
0010
0000
0001
0010
0000
0000
0100
0000
0000
0010
0000
,  // measure 44
0001
0000
1000
0000
0010
1000
0000
0010
1000
0000
0000
0010
0000
0000
0100
0000
,  // measure 45
0001
0000
0010
0000
0001
0100
0000
0001
0100
0000
0000
0001
0000
0000
0010
0000
,  // measure 46
0100
0000
1000
0000
0010
1000
0000
1000
0100
0000
0000
0010
0000
0000
0001
0000
,  // measure 47
0100
0000
0001
0000
0010
0001
0000
0100
0001
0000
0000
0100
0000
0000
0010
0000
,  // measure 48
0100
0000
0001
0000
0010
0100
0000
0100
1000
0000
1000
0001
0000
0001
1000
0000
,  // measure 49
0001
0100
0001
0000
0010
0000
0001
0000
0010
0100
1000
0000
1000
0000
0010
0000
,  // measure 50
0100
0001
0100
0000
0001
0010
0000
0001
0100
0000
0001
1000
0000
1000
0010
0000
,  // measure 51
0100
0010
1000
0000
0100
1000
0000
1000
0100
0000
0010
0001
0000
0001
0100
0000
,  // measure 52
0001
0010
0001
0000
0001
0010
0000
0010
0100
0000
0100
1000
0000
1000
0001
0000
,  // measure 53
0001
0100
0010
0100
0001
0000
0001
1000
0010
0000
0100
0001
0000
0001
0010
0000
,  // measure 54
0010
0100
1000
0000
1000
0000
0010
0100
0001
0000
0010
0001
0000
0001
0100
0000
,  // measure 55
0010
1000
0010
0000
0100
0001
0100
0000
0001
0010
0001
0000
0001
1000
0100
0000
,  // measure 56
2002
0000
0000
3003
,  // measure 57
0001
0000
0000
0010
0000
0000
0100
0000
0000
0000
0000
0100
0000
0000
0000
0000
,  // measure 58
0000
2000
0000
0000
0002
0000
0000
0000
,  // measure 59
0000
0000
0000
0000
,  // measure 60
0000
0000
3003
0000
;
