#TITLE:THE DOOR INTO RAINBOW;
#SUBTITLE:;
#ARTIST:L.E.D.;
#TITLETRANSLIT:;
#SUBTITLETRANSLIT:;
#ARTISTTRANSLIT:;
#GENRE:;
#CREDIT:;
#MENUCOLOR:;
#METERTYPE:DDR;
#BANNER:THE DOOR INTO RAINBOW.png;
#BACKGROUND:THE DOOR INTO RAINBOW-bg.png;
#LYRICSPATH:;
#CDTITLE:./CDTITLES/BEATMANIA IIDX.PNG;
#MUSIC:THE DOOR INTO RAINBOW.ogg;
#OFFSET:0.000;
#SAMPLESTART:76.645;
#SAMPLELENGTH:15.000;
#SELECTABLE:YES;
#LISTSORT:;
#BPMS:0.000=155.000;
#STOPS:;
#BGCHANGES:0.000=THE DOOR INTO RAINBOW.avi=1.000=0=0=0,
99999=-nosongbg-=1.000=0=0=0 // don't automatically add -songbackground-
;
#ATTACKS:;

//---------------dance-single - ----------------
#NOTES:
     dance-single:
     :
     Beginner:
     3:
     0.123,0.184,0.024,0.032,0.000:
0000
0000
0000
0000
,
0000
0000
0000
0000
,
0000
0000
0000
0000
,
0000
0000
0000
0000
,
0000
0000
0000
0000
,
0000
0000
0000
0000
,
1000
0000
0000
0000
,
0000
0000
0000
0000
,
0001
0000
0001
0000
,
0001
0000
0000
0000
,
0100
0000
0100
0000
,
0010
0000
0010
0000
,
1000
0000
1000
0000
,
0001
0000
0001
0000
,
1000
0000
0000
0000
,
0001
0000
0000
0000
,
0010
0000
0010
0000
,
0100
0100
0100
0000
,
0010
0000
0000
0000
,
0000
0000
0000
0000
,
0000
0000
0000
0000
,
0000
0000
0000
0000
,
0001
0000
0000
0000
,
0000
0000
0000
0000
,
1000
0000
0000
0000
,
0000
0000
0000
0000
,
0000
0001
0000
0001
,
0001
0000
0000
0000
,
0000
1000
0000
1000
,
1000
0000
0000
0000
,
0000
0010
0000
0010
,
0010
0000
0000
0000
,
0000
0100
0000
0100
,
0100
0000
0000
0000
,
0001
0000
0001
0000
,
0010
0000
0000
0000
,
1000
0000
1000
0000
,
0100
0000
0000
0000
,
0001
0000
0001
0000
,
0100
0000
0000
0000
,
1000
0000
1000
0000
,
0010
0000
0000
0000
,
2000
0000
0000
0000
,
3000
0000
0000
0000
,
0002
0000
0000
0000
,
0003
0000
0000
0000
,
0020
0000
0000
0000
,
0030
0000
0000
0000
,
0200
0000
0000
0000
,
0300
0000
0000
0000
,
0010
0000
0010
0000
,
0010
0000
0000
0000
,
0001
0000
0001
0000
,
0001
0000
0000
0000
,
1000
0000
1000
0000
,
1000
0000
0000
0000
,
0010
0000
0010
0000
,
0100
0100
0100
0000
,
0010
0000
0000
1000
,
1000
0000
0000
0001
,
0001
0000
0000
0010
,
0010
0000
0000
0000
,
0100
0000
0000
0000
,
0010
0000
0000
0000
,
0001
0000
1000
0000
,
0001
0001
0001
0000
,
1000
0000
1000
0000
,
0100
0000
0100
0000
,
0010
0000
0010
0000
,
0001
0000
0001
0000
,
1001
0000
0000
0000
,
0110
0000
0000
0000
,
1001
0000
0000
0000
,
1000
1000
1000
0000
,
0001
0000
0001
0000
,
0010
0000
0010
0000
,
0100
0000
0100
0000
,
1000
0000
1000
1000
,
1000
0000
0000
0000
;

//---------------dance-single - ----------------
#NOTES:
     dance-single:
     :
     Easy:
     6:
     0.313,0.405,0.095,0.229,0.008: // measure 1
0000
0000
0000
0000
,  // measure 2
0000
0000
0000
0000
,  // measure 3
0000
0000
0000
0000
,  // measure 4
0000
0000
0000
0000
,  // measure 5
0000
0000
0000
0000
,  // measure 6
0000
0000
0000
0000
,  // measure 7
0001
0001
1000
1000
,  // measure 8
0010
0010
0100
0100
,  // measure 9
0001
1000
0001
1000
,  // measure 10
2002
0000
0000
3003
,  // measure 11
1000
0000
0000
0100
0000
1000
0000
0100
,  // measure 12
0000
0001
0000
0100
0000
1000
0000
0000
,  // measure 13
0001
0000
0000
0100
0000
0001
0000
0100
,  // measure 14
0000
1000
0000
0100
0000
0001
0000
0000
,  // measure 15
0010
0000
0000
1000
0000
0010
0000
0001
,  // measure 16
0000
0010
0000
1000
0000
0010
0000
0000
,  // measure 17
0001
0000
0000
1000
0000
0100
0000
0001
,  // measure 18
0000
0100
0000
1000
0000
0001
0000
0000
,  // measure 19
2002
0000
0000
0000
,  // measure 20
0000
0000
0000
0000
,  // measure 21
3003
0000
0000
0000
,  // measure 22
0000
0000
0000
0000
,  // measure 23
0000
0000
0010
0000
0000
0010
0000
0000
,  // measure 24
1000
0000
0000
1000
0000
0000
0001
0000
,  // measure 25
0000
0000
0100
0000
0000
0100
0000
0000
,  // measure 26
0010
0000
0000
0100
0000
0000
0001
0000
,  // measure 27
1000
0000
0100
0000
0000
1000
0000
0000
,  // measure 28
0001
0000
0000
0010
0000
0000
0100
0000
,  // measure 29
0010
0000
0001
0000
0000
1000
0000
0000
,  // measure 30
0010
0000
0000
0100
0000
0000
0010
0000
,  // measure 31
1001
0000
0100
0000
0000
0010
0000
0000
,  // measure 32
1001
0000
0000
0100
0000
0000
0000
1000
,  // measure 33
1000
0000
0000
0001
0001
0000
0000
1000
,  // measure 34
1000
0010
0100
0110
,  // measure 35
0001
0100
0010
0100
,  // measure 36
0001
0010
0100
1000
,  // measure 37
0001
0010
0100
0010
,  // measure 38
0001
0100
0010
1000
,  // measure 39
1001
0100
0010
0001
,  // measure 40
1000
0010
0100
0010
,  // measure 41
1000
0010
0100
0001
,  // measure 42
1000
0000
0100
0000
0001
0000
0100
2000
,  // measure 43
0000
0000
0000
0000
,  // measure 44
0000
0000
3000
0000
0002
0000
0103
0020
,  // measure 45
0000
0130
0002
0000
0000
0000
0000
0000
,  // measure 46
0000
0000
0000
0000
0003
1000
0000
0100
,  // measure 47
0000
0000
1000
0020
0000
0000
0000
0000
,  // measure 48
0000
0030
0200
0301
,  // measure 49
1000
0002
0000
0000
,  // measure 50
1003
0000
0000
0000
0000
0001
1000
0000
,  // measure 51
0002
0100
0010
1000
,  // measure 52
0100
0013
2000
3100
,  // measure 53
2000
0010
0100
0001
,  // measure 54
0010
3100
0020
0130
,  // measure 55
0002
0100
1000
0010
,  // measure 56
1000
0103
2000
3010
,  // measure 57
1000
1000
0001
0001
,  // measure 58
0100
0010
0100
1001
,  // measure 59
0001
0010
0200
0300
,  // measure 60
1000
0010
0200
0300
,  // measure 61
0001
0010
2000
3000
,  // measure 62
0001
0100
2000
3000
,  // measure 63
0001
1000
2002
3003
,  // measure 64
1000
0010
0220
0330
,  // measure 65
0010
1000
0100
0010
,  // measure 66
0001
0100
0010
1000
,  // measure 67
0001
0010
0100
1000
,  // measure 68
0001
0010
1000
0010
,  // measure 69
0001
0100
0010
1000
,  // measure 70
0001
0100
1000
0100
,  // measure 71
0001
0000
0000
2001
0000
0000
3001
0000
,  // measure 72
1000
0000
0000
0120
0000
0000
0130
0000
,  // measure 73
0010
0000
0000
0010
0000
0000
0000
0000
1000
0000
0000
1000
0000
0000
0000
0000
,  // measure 74
0001
0000
0001
0000
1000
1000
0001
0000
,  // measure 75
1000
0100
1000
0000
0001
0000
0001
0000
,  // measure 76
1000
0010
1000
0000
0001
0000
0001
0000
,  // measure 77
0010
0100
0010
0000
0100
0000
0100
0000
,  // measure 78
0010
0001
1000
0000
0001
0000
1000
0000
,  // measure 79
2002
0000
0000
0000
,  // measure 80
3003
0000
0000
0000
;

//---------------dance-single - ----------------
#NOTES:
     dance-single:
     :
     Medium:
     10:
     0.458,0.561,0.166,0.205,0.055: // measure 1
0000
0000
0000
0000
,  // measure 2
0000
0000
0000
0000
,  // measure 3
0000
0000
0000
0000
,  // measure 4
0000
0000
0000
0000
,  // measure 5
0000
0000
0000
0000
,  // measure 6
0000
0000
0000
0000
,  // measure 7
0001
1000
0001
1000
,  // measure 8
0010
0100
0010
0100
,  // measure 9
0001
1000
0001
1000
0001
0000
0001
0000
,  // measure 10
1000
2000
0000
0000
0000
0000
3001
0000
,  // measure 11
1000
0000
0100
0010
0000
0001
0000
0010
,  // measure 12
0000
1000
0000
0010
0000
0100
1000
0000
,  // measure 13
0001
0000
0100
1000
0000
0100
0000
0001
,  // measure 14
0000
0100
0000
0010
0000
1000
0010
0000
,  // measure 15
1000
0000
0001
0010
0000
1000
0000
0010
,  // measure 16
0000
0100
0000
1000
0001
0100
0001
0000
,  // measure 17
1000
0000
0001
0100
0000
1000
0000
0100
,  // measure 18
0010
0100
0010
0000
1000
0001
1000
0000
,  // measure 19
2002
0000
0000
0000
,  // measure 20
0000
0000
0000
0000
,  // measure 21
3003
0000
0000
0000
,  // measure 22
0000
0000
0000
0000
,  // measure 23
0010
0000
0010
0000
0000
1000
0000
0000
,  // measure 24
0010
0000
0000
0100
0000
0000
0001
0000
,  // measure 25
1000
0000
0001
0000
0000
0010
0000
0000
,  // measure 26
0100
0000
0000
0010
0000
0000
0001
1000
,  // measure 27
0001
0000
0100
0000
0000
1000
0000
0000
,  // measure 28
0100
0000
0000
0001
0000
0000
0010
0000
,  // measure 29
1000
0000
0010
0000
0000
0001
0000
0000
,  // measure 30
0100
0000
0000
0010
0000
0000
1000
0000
,  // measure 31
1001
0000
0010
0000
0000
0100
0000
0001
,  // measure 32
1001
0000
1000
0000
0000
0000
0010
1000
,  // measure 33
1001
0000
0000
0001
1001
0000
0000
1000
,  // measure 34
0001
0001
1000
1000
0010
0100
0001
0000
,  // measure 35
1000
0100
0010
0000
0100
1000
0000
0100
,  // measure 36
0010
0000
0001
0100
0000
0001
0010
0100
,  // measure 37
0010
0001
1000
0000
0001
0100
0000
0010
,  // measure 38
0100
0000
0001
1000
0000
0010
1000
0100
,  // measure 39
1000
0010
0100
0000
0010
1000
0000
0010
,  // measure 40
0001
0000
0010
0100
0000
0001
0010
0001
,  // measure 41
1000
0100
0001
0000
0100
1000
0000
0100
,  // measure 42
0010
0000
0110
0000
0001
1000
0001
0200
,  // measure 43
0001
0010
1000
0010
,  // measure 44
0001
0000
0310
0000
2000
0000
3100
0020
,  // measure 45
0000
0130
2000
0000
0010
0000
0001
0000
,  // measure 46
0100
0000
0001
0000
3010
0100
0001
0200
,  // measure 47
0000
0301
0010
0002
0100
0000
1000
0000
,  // measure 48
0010
0103
0020
0130
,  // measure 49
0001
1000
0020
0000
1000
0000
0130
0000
,  // measure 50
1000
0001
1000
0001
1000
0001
1001
0000
,  // measure 51
2010
0100
0001
0010
,  // measure 52
0100
0000
3001
0000
0020
0000
0130
0001
,  // measure 53
0010
0102
0010
1000
,  // measure 54
0100
0000
0010
0000
1003
0001
0100
0001
,  // measure 55
1000
0100
0010
0000
0210
0000
1000
0000
,  // measure 56
0001
0010
2300
3001
,  // measure 57
0100
0010
0100
0001
0100
0010
0100
1000
,  // measure 58
0100
0100
0010
0010
1000
0001
1001
0000
,  // measure 59
1000
0000
0000
0100
0000
0000
0020
0000
0000
0000
0031
0000
0100
0000
0000
0000
,  // measure 60
0001
0000
0000
0010
0000
0000
0200
0000
0000
0000
1300
0000
0010
0000
0000
0000
,  // measure 61
1000
0000
0000
0100
0000
0000
0002
0000
0000
0000
0103
0000
0010
0000
0000
0000
,  // measure 62
0001
0000
0000
0010
0000
0000
2000
0000
0000
0000
3010
0000
0100
0000
0000
0000
,  // measure 63
1000
0000
0000
1001
0000
0000
0210
0000
0000
0000
0310
0000
1000
0000
0000
0000
,  // measure 64
0001
0000
0000
1001
0000
0000
0120
0000
0000
0000
0130
0000
0010
0000
1000
0000
,  // measure 65
0001
0001
1000
1000
0010
0010
0100
0100
,  // measure 66
0001
0010
0100
1000
0001
0010
0100
1000
,  // measure 67
0001
0000
0000
0010
0000
0000
0001
0000
0100
0000
1000
0000
0100
0000
0010
0000
,  // measure 68
1000
0000
0000
0100
0000
0000
1000
0000
0010
0000
0001
0000
0010
0000
0100
0000
,  // measure 69
0001
0000
0000
0010
0000
0000
0100
0000
0010
0000
0001
0000
0010
0000
0100
0000
,  // measure 70
1000
0000
0000
0010
0000
0000
1000
0000
0010
0000
0100
0000
0001
0000
0100
0000
,  // measure 71
0110
0000
0000
0001
0000
0000
0200
0000
0000
0000
0310
0000
1000
0000
0001
0000
,  // measure 72
1001
0000
0000
0100
0000
0000
2000
0000
0000
0000
3001
0000
0010
0000
0100
0000
,  // measure 73
0010
0000
0000
0110
0000
0000
0001
0000
1000
0000
0000
1001
0000
0000
0001
0000
,  // measure 74
0100
0100
0010
0010
1000
0001
1001
0000
,  // measure 75
1000
0100
0001
0000
0010
1000
0100
0000
,  // measure 76
0001
0100
1000
0000
0010
0001
0100
0000
,  // measure 77
1000
1000
0100
0100
0010
0010
0001
0001
,  // measure 78
1000
0010
0001
0000
1000
0100
0010
1000
,  // measure 79
2002
0000
0000
0000
,  // measure 80
3003
0000
0000
0000
;

//---------------dance-single - ----------------
#NOTES:
     dance-single:
     :
     Hard:
     14:
     0.619,1.000,0.173,0.166,0.327: // measure 1
0000
0000
0000
0000
,  // measure 2
0000
0000
0000
0000
,  // measure 3
0000
0000
0000
0000
,  // measure 4
0000
0000
0000
0000
,  // measure 5
0000
0000
0000
0000
,  // measure 6
0000
0000
0000
0000
,  // measure 7
0001
0101
0001
0101
,  // measure 8
1000
1100
1000
1100
,  // measure 9
1000
1000
0001
0001
0100
0100
0010
0010
,  // measure 10
1000
2000
0000
0000
0000
0000
3001
0000
,  // measure 11
1001
0000
1000
0010
0100
0010
0001
0010
,  // measure 12
0100
0010
1000
0100
0010
0001
1000
0001
,  // measure 13
0010
0000
0001
0100
1000
0100
0010
0100
,  // measure 14
0001
0100
0001
0010
0100
1000
0020
0000
,  // measure 15
1030
1000
0001
0001
0100
0010
1000
0001
,  // measure 16
0010
0000
0010
0000
0100
0000
0100
0000
0010
0000
0001
0000
1000
0100
0000
0100
,  // measure 17
1000
0000
0001
0000
1000
0100
1000
0000
0001
0000
1000
0000
0001
0010
0001
0000
,  // measure 18
1000
0100
1000
0000
0001
0100
0001
0000
1000
0001
1000
0001
1000
0001
1000
0001
,  // measure 19
0200
0000
0000
0000
,  // measure 20
0000
0000
0000
0000
,  // measure 21
0300
0000
0000
0000
,  // measure 22
0000
0000
0000
0000
,  // measure 23
0010
0000
0010
0000
0000
1000
0000
0000
,  // measure 24
0100
0000
0000
0001
0000
0000
0100
0000
,  // measure 25
0000
0000
1000
0000
0000
0010
0000
0000
,  // measure 26
0100
0000
0000
0001
0000
0000
1000
0001
,  // measure 27
1000
0000
0010
0000
1000
0100
0010
0000
,  // measure 28
0002
0000
0000
0100
0000
0000
1003
0000
,  // measure 29
0001
0000
0010
0000
0001
0100
0010
0000
,  // measure 30
2000
0000
0000
0010
0000
0000
3001
0000
,  // measure 31
1001
0000
1000
0000
0100
0010
0001
1000
,  // measure 32
1001
0000
0001
0000
0100
0010
1000
0001
,  // measure 33
1001
0000
1000
0100
1100
0000
0001
0010
,  // measure 34
0001
0000
0001
0000
0100
0000
0100
0000
0010
0100
0010
0000
1000
0001
1000
0001
,  // measure 35
1000
0100
0010
0000
0001
0100
1000
0100
,  // measure 36
0010
1000
0100
0010
0001
1000
0010
0100
,  // measure 37
0001
0010
0100
0000
1000
0010
0001
0010
,  // measure 38
0100
0001
0010
0100
1000
0001
0100
0010
,  // measure 39
1010
0000
0100
0001
0010
1000
0010
0100
,  // measure 40
1000
0010
0100
0010
0001
0010
1000
0100
,  // measure 41
1000
0001
1000
0000
0001
0000
0100
0000
0001
1000
0001
0000
1000
0000
0010
0000
,  // measure 42
0110
0000
1001
0000
1100
0100
1000
0002
,  // measure 43
0010
1000
0100
1000
,  // measure 44
0010
0000
0103
0000
2000
0000
3100
0001
,  // measure 45
0100
1000
0020
0000
0100
0000
0001
0000
,  // measure 46
1000
0000
0001
0000
0130
0010
1000
0001
,  // measure 47
0010
1000
0010
0200
1000
0000
0010
0000
,  // measure 48
0001
1000
0320
0130
,  // measure 49
1000
0100
1000
0100
0001
0100
0001
0100
,  // measure 50
1000
0010
1000
0000
0001
0100
0001
0000
1000
0001
1000
0001
1000
0000
0001
0000
,  // measure 51
0201
0010
1000
0001
,  // measure 52
0010
0000
0301
0000
2100
0000
3001
0010
,  // measure 53
0001
0100
0120
0000
1000
0000
0001
0000
,  // measure 54
0100
0000
0001
0000
1030
0100
0010
0100
,  // measure 55
1100
0100
0010
0002
0100
0000
1000
0000
,  // measure 56
0010
0100
0023
0031
,  // measure 57
1000
0000
1000
0000
0001
0100
0001
0100
0001
0000
1000
0000
0001
0010
0001
0010
,  // measure 58
0001
1000
0001
0000
1000
0100
1000
0000
0001
0100
0001
0000
2000
0000
0000
0000
,  // measure 59
3001
0000
0010
0100
0000
0010
0001
0000
1000
0000
0100
0000
0001
0000
0100
0000
,  // measure 60
1000
0000
0010
0100
0000
0010
1000
0000
0001
0000
0010
0000
1000
0000
0010
0000
,  // measure 61
0001
0000
0100
0001
0000
0010
0001
0000
1000
0000
0100
0000
0001
0000
0100
0000
,  // measure 62
0010
0000
0001
0010
0000
0001
1000
0000
0001
0000
0100
0000
1000
0000
0100
0000
,  // measure 63
0010
0000
0000
0110
0000
0000
1002
0000
0000
0000
1003
0000
0100
0000
0010
0000
,  // measure 64
0100
0000
0000
0110
0000
0000
2001
0000
0000
0000
3001
0000
0100
0000
0010
0000
,  // measure 65
0100
0100
0010
0010
1000
1000
0001
0001
,  // measure 66
1000
0100
1000
0000
0001
0100
0001
0000
1000
0001
1000
0001
1000
0000
0001
1000
,  // measure 67
0001
0000
0010
1000
0000
0010
0100
0000
1000
0000
0100
0000
0001
0000
0100
0000
,  // measure 68
1000
0000
0010
0001
0000
0010
0100
0000
0010
0000
1000
0000
0100
0000
0010
0000
,  // measure 69
0001
0000
0100
1000
0000
0100
0010
0000
0100
0000
0001
0000
1000
0000
0100
0000
,  // measure 70
1000
0000
0010
0001
0000
0010
0100
0000
0001
0000
0010
0000
0100
0000
1000
0001
,  // measure 71
1000
0000
0001
0100
0000
0100
0020
0000
0000
0000
1030
0000
0001
0000
0100
0000
,  // measure 72
0101
0000
1000
0010
0000
0010
0200
0000
0000
0000
0310
0000
1000
0000
0001
0000
,  // measure 73
1000
0000
0100
0010
0000
0000
0001
1000
0001
0100
0000
0010
0000
0000
1000
0001
,  // measure 74
1000
0100
1000
0100
1000
0100
1000
0100
0010
0001
0010
0001
0010
0001
0010
0001
,  // measure 75
1000
0010
0001
0010
0100
0001
0100
1000
,  // measure 76
0001
0010
1000
0010
0100
1000
0100
0001
,  // measure 77
1000
0100
1000
0100
1000
0100
1000
0100
0010
0100
0010
0100
0010
0100
0010
0100
,  // measure 78
0010
0001
0010
0001
0010
0001
0010
0001
1000
0001
1000
0001
1000
0001
1000
0001
,  // measure 79
0200
0000
0000
0000
,  // measure 80
0300
0000
0000
0000
;
