#TITLE:THE BRAVE MUST DIE;
#SUBTITLE:;
#ARTIST:L.E.D.-G;
#TITLETRANSLIT:;
#SUBTITLETRANSLIT:;
#ARTISTTRANSLIT:;
#GENRE:;
#CREDIT:;
#BANNER:banner.png;
#BACKGROUND:background.png;
#LYRICSPATH:;
#CDTITLE:CDtitle.png;
#MUSIC:THE BRAVE MUST DIE.mp3;
#OFFSET:-1.058000;
#SAMPLESTART:38.953487;
#SAMPLELENGTH:13.395351;
#SELECTABLE:YES;
#BPMS:0.000000=215.000000
;
#STOPS:68.000000=0.837000,
129.000000=0.279000,
192.000000=0.837000,
294.000000=0.837000,
437.500000=0.279000
;
#BGCHANGES:;
#KEYSOUNDS:;
#ATTACKS:;

//---------------dance-single - ----------------
#NOTES:
     dance-single:
     :
     Hard:
     16:
     0.706765,0.943952,0.335793,0.074621,0.246248,663.000000,618.000000,45.000000,10.000000,0.000000,0.000000,0.706765,0.943952,0.335793,0.074621,0.246248,663.000000,618.000000,45.000000,10.000000,0.000000,0.000000:
// measure 0
0000
0000
0000
0000
,  // measure 1
0000
0000
0000
0000
,  // measure 2
0020
0000
0000
0000
,  // measure 3
0000
0000
0000
0000
,  // measure 4
2030
0000
0000
0000
,  // measure 5
3200
0000
0000
0000
,  // measure 6
2300
0000
0000
0000
,  // measure 7
0000
0000
0000
0000
,  // measure 8
3002
0000
0000
0000
,  // measure 9
0023
0000
0230
0000
,  // measure 10
1300
1000
0001
1000
,  // measure 11
0010
0100
0001
0100
,  // measure 12
0010
0010
0100
0001
,  // measure 13
1000
0100
0001
0100
,  // measure 14
0010
0100
0010
0001
0010
0100
0010
0001
,  // measure 15
0010
0100
0010
0001
0010
0100
0010
0001
,  // measure 16
1000
0010
0100
0010
1000
0100
0010
0100
,  // measure 17
1000
0000
0000
0000
1000
0000
0001
1000
0001
0000
0000
0000
0101
0000
0000
0000
,  // measure 18
0001
0000
0010
0000
0100
0000
0000
0000
0010
0000
0000
0000
0001
0000
1000
0010
,  // measure 19
1000
0000
0001
0000
0010
0000
0100
1000
0100
0000
0000
0000
0110
0000
0000
0000
,  // measure 20
0100
0000
0010
0000
0001
0000
1000
0001
1000
0000
0001
0000
1000
0001
1000
0000
,  // measure 21
0001
0000
0100
0000
0001
0000
0010
0100
0010
0000
0000
0000
1001
0000
0000
0000
,  // measure 22
1000
0001
0010
0000
0100
0000
0010
0000
,  // measure 23
0001
0000
0010
0000
0001
0000
1000
0001
1000
0000
0000
0000
0010
0000
0100
0000
,  // measure 24
0001
0000
1000
0000
0100
0000
0010
0100
0010
0000
0100
0010
0100
0000
0000
0000
,  // measure 25
0000
0000
0000
0000
0010
0000
0001
1000
0001
0000
0000
0000
1010
0000
0000
0000
,  // measure 26
1000
0001
0010
0000
0100
0010
0001
1000
,  // measure 27
0100
0000
0010
0000
0100
0000
1000
0001
1000
0000
0000
0000
0001
0010
0001
0000
,  // measure 28
0010
0001
0010
0000
0100
0000
1000
0001
0100
0000
0010
0000
0100
0001
1000
0000
,  // measure 29
0001
0000
0000
0000
1000
0000
0001
1000
0001
0000
0000
0000
1100
0000
0000
1000
,  // measure 30
0100
0000
1000
0000
0001
0000
0100
0000
0001
0000
0000
0000
0010
0000
0100
0010
,  // measure 31
0100
1000
0001
0000
1000
0001
0010
0100
,  // measure 32
0010
0000
0001
1000
0001
0000
0000
0000
0000
0000
0000
0000
0000
0000
0000
0000
,  // measure 33
1000
0010
1000
0001
0010
0100
0010
0001
,  // measure 34
1000
0010
0100
0001
0010
0100
0010
0001
,  // measure 35
1000
0001
0010
0001
1000
0100
1000
0010
,  // measure 36
0100
0001
0010
0100
0010
0001
1000
0010
,  // measure 37
0100
0001
1000
0100
0010
0100
1000
0001
,  // measure 38
0100
0001
0010
0100
0010
0001
1000
0010
,  // measure 39
1000
0100
1000
0001
0010
0100
0010
0001
,  // measure 40
1000
0100
1000
0010
0100
0001
0010
0100
,  // measure 41
1000
0001
0100
1000
0100
0001
1000
0010
,  // measure 42
1000
0001
1000
0100
0010
0100
1000
0001
,  // measure 43
0100
0001
0010
1000
0010
0100
0010
0001
,  // measure 44
1000
0010
1000
0001
0010
0100
1000
0001
,  // measure 45
0000
1000
0010
0001
0010
0100
0001
0010
,  // measure 46
0100
0010
0001
1000
0010
0100
0001
1000
,  // measure 47
0001
1000
0100
0001
0100
0010
0100
1000
,  // measure 48
0001
1001
0001
0010
,  // measure 49
0010
0001
1000
0100
,  // measure 50
0010
0100
1000
0000
0001
0000
0100
0000
,  // measure 51
0100
0000
0010
0000
1000
0000
0001
0010
,  // measure 52
0001
0010
0100
0000
1000
0000
1000
0000
,  // measure 53
0001
1000
0010
0000
0100
0000
0100
0000
,  // measure 54
0010
1000
1100
0000
0000
0000
0101
0000
,  // measure 55
0000
1001
0000
0000
,  // measure 56
0000
0000
0010
0100
0010
0000
0000
0000
1000
0000
0001
0000
0000
0000
0010
0000
,  // measure 57
0100
0000
0010
0001
0000
0010
0001
0100
,  // measure 58
1000
0100
0010
0000
1000
0010
0000
0100
,  // measure 59
0001
0000
0010
0100
0000
0010
0001
0100
,  // measure 60
1000
0100
0000
0010
0100
0001
0000
1000
,  // measure 61
0100
0000
0010
0100
0000
0010
0001
1000
,  // measure 62
0010
0001
0010
0000
0100
0001
0000
0010
,  // measure 63
0100
1001
0000
0000
,  // measure 64
0000
0101
0101
0101
,  // measure 65
0101
1010
1001
0011
,  // measure 66
1001
1100
1100
1100
,  // measure 67
1100
1001
0011
1001
,  // measure 68
1010
1001
1001
1001
,  // measure 69
1001
0110
1001
0110
,  // measure 70
1001
0110
0110
1001
,  // measure 71
1001
0101
0101
1010
,  // measure 72
1010
0000
0000
0000
0000
0000
1000
0001
0010
0001
1000
0010
,  // measure 73
1000
0001
0010
0001
1000
0001
1000
0000
0000
0001
1000
0100
,  // measure 74
1000
0001
0100
0001
1000
0100
1000
0001
1000
0001
1000
0001
,  // measure 75
0010
0001
1000
0010
1000
0001
0000
0000
0000
0010
0000
0000
,  // measure 76
0100
1000
0001
1000
,  // measure 77
0010
1000
0100
1000
0001
0100
0001
0000
0000
1000
0010
0100
,  // measure 78
0001
0010
0100
1000
0100
0010
0100
0000
0000
0110
0000
0000
,  // measure 79
0011
0000
0000
1000
0001
1000
0010
0000
0000
0000
0000
0000
,  // measure 80
0000
0000
0000
0000
,  // measure 81
0000
0000
0000
0000
,  // measure 82
0000
0000
0000
0000
,  // measure 83
0000
0000
0000
0000
1000
0000
0001
0100
,  // measure 84
0000
0001
1000
0000
0001
0010
0000
0001
,  // measure 85
1000
0001
0010
0001
1000
0000
1000
0010
,  // measure 86
0000
1000
0001
0000
1000
0100
0010
0100
,  // measure 87
1000
0001
0010
0100
0010
0000
0100
1000
,  // measure 88
0000
0100
0001
0000
0100
0010
0000
0100
,  // measure 89
0010
0001
0010
0001
1000
0000
0010
0001
,  // measure 90
0000
0010
0100
0000
0010
0100
0001
1000
,  // measure 91
0100
0010
0100
2000
0000
0000
0000
0000
,  // measure 92
0000
0000
0000
0000
,  // measure 93
0000
0000
0000
0000
0000
0000
0000
0000
3001
0010
0001
0010
0001
0000
0100
0000
,  // measure 94
0000
0010
1000
0000
0100
0010
0000
0100
,  // measure 95
0010
0001
1000
0001
0010
0000
0100
0010
,  // measure 96
0000
0100
1000
0000
1000
0010
0000
0010
,  // measure 97
0100
0000
0001
0000
0010
0000
0100
0000
0010
0000
0000
0000
0100
0010
0001
0000
,  // measure 98
1000
0000
0001
1000
0000
0010
0100
0001
,  // measure 99
1000
0100
1000
0100
1000
0100
1000
0100
1000
0000
0001
0000
0010
0000
0001
0000
,  // measure 100
1000
0100
0010
0100
0010
0010
0100
1000
,  // measure 101
0000
0000
0001
0000
1000
0000
1000
0000
0010
0100
0010
0100
0010
0000
1000
0000
,  // measure 102
0000
0010
1000
0000
1000
0100
0000
0010
,  // measure 103
0100
0010
0001
1000
0001
0000
0001
0010
,  // measure 104
0000
0001
0100
0000
0100
0010
0000
0010
,  // measure 105
0100
0001
0010
0100
1000
0000
0001
0000
,  // measure 106
0010
0100
0010
0001
,  // measure 107
1000
0000
0000
0000
0001
0000
0000
0000
0100
0000
0001
0100
0010
1000
0010
1000
,  // measure 108
0010
0010
1000
1000
0001
0001
0010
1000
,  // measure 109
0000
1000
0010
0001
2002
0000
0000
0000
,  // measure 110
3003
0000
0000
0000
;

//---------------dance-single - ----------------
#NOTES:
     dance-single:
     :
     Easy:
     10:
     0.399754,0.738745,0.231324,0.067159,0.000000,375.000000,344.000000,31.000000,9.000000,0.000000,0.000000,0.399754,0.738745,0.231324,0.067159,0.000000,375.000000,344.000000,31.000000,9.000000,0.000000,0.000000:
// measure 0
0000
0000
0000
0000
,  // measure 1
0000
0000
0000
0000
,  // measure 2
2000
0000
0000
0000
,  // measure 3
0000
0000
0000
3000
,  // measure 4
0001
0000
0000
0000
,  // measure 5
0100
0000
0010
0000
,  // measure 6
2000
0000
0000
0000
,  // measure 7
0000
0000
0000
3000
,  // measure 8
0001
0000
0000
0000
,  // measure 9
0100
0000
0010
0000
,  // measure 10
1000
0000
0001
0000
,  // measure 11
0100
0000
0010
0000
,  // measure 12
1001
0000
0001
0000
,  // measure 13
1000
0000
0100
0000
,  // measure 14
0110
0000
0100
0000
,  // measure 15
0110
0000
0010
0000
,  // measure 16
0110
0000
1001
0000
,  // measure 17
0110
0000
1000
0010
1000
0000
0010
0000
,  // measure 18
1000
0001
0010
0100
,  // measure 19
1000
0000
0001
1000
0001
0000
1000
0000
,  // measure 20
0001
0000
0100
0000
0000
0100
0000
0000
,  // measure 21
0100
0000
0010
0100
0010
0000
0100
0000
,  // measure 22
0010
1000
0001
0010
,  // measure 23
0100
0000
1000
0100
1000
0000
0100
0000
,  // measure 24
1000
0001
1000
0001
,  // measure 25
0000
0000
0100
0001
0100
0000
0001
0000
,  // measure 26
0100
0010
1000
0100
,  // measure 27
0010
0000
0001
0010
0001
0000
0010
0000
,  // measure 28
0001
0000
1000
0000
0000
1000
0000
0000
,  // measure 29
1000
0000
0001
1000
0001
0000
1000
0000
,  // measure 30
0001
0100
0010
1000
,  // measure 31
0010
0000
0100
0010
0100
0000
0010
0000
,  // measure 32
0100
1001
0000
0000
,  // measure 33
0001
1000
0010
1000
,  // measure 34
0100
1000
0010
0100
,  // measure 35
0001
0010
0100
0010
,  // measure 36
0001
0000
1000
0000
0010
0000
0100
0001
,  // measure 37
1000
0010
0100
0001
,  // measure 38
0010
0100
0110
1001
,  // measure 39
0001
1000
0100
0010
,  // measure 40
0100
1000
0001
0200
,  // measure 41
0310
1000
0010
0100
,  // measure 42
0001
0010
0100
0010
,  // measure 43
0001
1000
0100
0010
,  // measure 44
0100
0000
1000
0100
0000
0100
1000
0000
,  // measure 45
0000
1001
1000
0100
,  // measure 46
1000
0010
0100
0001
,  // measure 47
0010
0100
1000
0010
,  // measure 48
1001
0001
1000
0010
,  // measure 49
1000
0001
0010
0001
,  // measure 50
1000
0010
1000
0001
,  // measure 51
0010
0001
1000
0010
,  // measure 52
1000
0001
0010
0001
,  // measure 53
1000
0010
1000
0001
,  // measure 54
0010
1001
0000
0110
,  // measure 55
0000
1001
0000
0000
,  // measure 56
0000
0000
0001
0000
0000
0100
0000
0000
,  // measure 57
0010
0000
0000
1000
0000
0000
0100
0000
,  // measure 58
1000
0000
0010
0000
0000
0100
0000
0000
,  // measure 59
0001
0000
0000
1000
0000
0000
0100
0000
,  // measure 60
1000
0010
0100
0010
,  // measure 61
1000
0001
0010
0100
,  // measure 62
0010
0001
0010
0100
,  // measure 63
1000
1001
0000
0000
,  // measure 64
0000
0010
0010
0010
,  // measure 65
0010
0100
0100
0010
,  // measure 66
0010
1000
0001
1000
,  // measure 67
0001
1000
1000
0001
,  // measure 68
0001
1000
1000
0100
,  // measure 69
0100
0010
0010
0001
,  // measure 70
0001
1000
1000
0001
,  // measure 71
0001
0100
0100
0010
,  // measure 72
0010
0000
0110
0110
,  // measure 73
0110
0110
0110
1001
,  // measure 74
1001
1001
1001
1001
,  // measure 75
1001
1001
0000
0001
,  // measure 76
1000
0010
1000
0100
,  // measure 77
0010
0100
1000
0010
,  // measure 78
0100
0001
0010
0100
,  // measure 79
1000
1001
0110
0000
,  // measure 80
0000
0000
0000
0000
,  // measure 81
0000
0000
0000
0000
,  // measure 82
0000
0000
0000
0000
,  // measure 83
0000
0000
0020
0000
,  // measure 84
0000
0000
0000
0000
,  // measure 85
0000
0030
0200
0000
,  // measure 86
0000
0000
0000
0000
,  // measure 87
0000
0300
0002
0000
,  // measure 88
0000
0000
0000
0000
,  // measure 89
0000
0003
2000
0000
,  // measure 90
0000
0000
0000
0000
,  // measure 91
0000
0000
3000
0000
,  // measure 92
0000
0000
0000
0000
,  // measure 93
0000
0000
0000
0000
0001
0100
0010
1000
,  // measure 94
0000
0010
0100
0000
0001
0000
1000
0000
,  // measure 95
0100
0000
1000
0000
0010
1000
0010
0100
,  // measure 96
0000
0010
1000
0000
0001
0000
0010
0000
,  // measure 97
0100
1000
0100
1000
,  // measure 98
0010
0100
0001
1000
,  // measure 99
0010
0100
0010
0100
0010
0000
0100
0000
,  // measure 100
0010
0000
1000
0000
0001
1000
0001
1000
,  // measure 101
0000
0001
1000
0001
1000
0001
0100
0010
,  // measure 102
0000
0100
0010
0000
1000
0000
0010
0000
,  // measure 103
0100
0000
0001
0000
0010
0100
1000
0100
,  // measure 104
0000
0010
0001
0000
0010
0000
0100
0000
,  // measure 105
1000
0010
1001
0000
,  // measure 106
0001
0000
1000
0000
,  // measure 107
0001
0000
0100
0010
,  // measure 108
1000
0000
0001
0000
0010
0100
1000
0100
,  // measure 109
0000
0100
1000
0010
0202
0000
0000
0000
,  // measure 110
0303
0000
0000
0000
;

//---------------dance-single - ----------------
#NOTES:
     dance-single:
     :
     Medium:
     14:
     0.562854,0.738745,0.410414,0.082083,0.000000,528.000000,473.000000,55.000000,11.000000,0.000000,0.000000,0.562854,0.738745,0.410414,0.082083,0.000000,528.000000,473.000000,55.000000,11.000000,0.000000,0.000000:
// measure 0
0000
0000
0000
0000
,  // measure 1
0000
0000
0000
0000
,  // measure 2
0020
0000
0000
0000
,  // measure 3
0000
0000
0000
0000
,  // measure 4
0230
0000
0000
0000
,  // measure 5
0302
0000
2003
0000
,  // measure 6
3020
0000
0000
0000
,  // measure 7
0000
0000
0000
0000
,  // measure 8
0230
0000
0000
0000
,  // measure 9
0302
0000
2003
0000
,  // measure 10
3001
0010
0001
0010
,  // measure 11
0001
0010
0001
0010
,  // measure 12
0100
1000
0100
1000
,  // measure 13
0100
1000
0100
1000
,  // measure 14
0001
1000
0010
0000
0100
0001
0000
0010
,  // measure 15
0100
0000
0010
0001
0000
0010
0100
0000
,  // measure 16
0010
0001
0000
0100
0010
0000
1000
0001
,  // measure 17
0100
0000
0010
1000
0100
0000
0110
0000
,  // measure 18
0100
0000
1000
0000
0001
1000
0010
1000
,  // measure 19
0001
0000
0010
0100
1000
0000
1100
0000
,  // measure 20
0100
0000
1100
0000
0000
0101
0000
0000
,  // measure 21
1001
0000
0001
1000
0010
0000
0100
0000
,  // measure 22
0001
0010
0100
0000
0010
0001
0100
0001
,  // measure 23
1000
0000
0001
0010
0100
0000
0011
0000
,  // measure 24
0001
0000
1000
0001
0100
0001
1000
0000
,  // measure 25
0100
0000
0010
0100
1000
0000
1100
0000
,  // measure 26
0100
1000
0010
0000
0100
0010
1000
0001
,  // measure 27
0010
0000
0100
0010
0001
0000
1100
0000
,  // measure 28
0001
0000
1010
0000
0000
0011
0000
0000
,  // measure 29
1001
0000
1000
0001
0100
0000
0101
0000
,  // measure 30
0001
0100
0010
0000
1000
0001
0010
0100
,  // measure 31
0010
0001
1000
0010
0100
0000
0101
0000
,  // measure 32
0001
1000
0100
0000
0000
0000
0000
0000
,  // measure 33
1000
0000
0001
0100
0001
0000
0100
0010
,  // measure 34
0000
1000
0001
0010
0000
0010
0000
0010
,  // measure 35
0001
0000
1000
0001
0100
0000
0010
1000
,  // measure 36
0000
0100
0010
0100
0000
0100
0000
0010
,  // measure 37
0001
0000
1000
0001
0100
0000
0010
1000
,  // measure 38
0000
0001
1000
0100
0000
0100
0000
0010
,  // measure 39
0100
0000
0010
0001
1000
0000
0010
1000
,  // measure 40
0000
1000
0001
0010
0000
0010
0000
0100
,  // measure 41
0010
0001
0100
0010
1000
0001
0010
0100
,  // measure 42
0000
0010
0001
0100
0000
0010
0000
1000
,  // measure 43
0001
0010
0100
1000
0100
0010
0001
1000
,  // measure 44
0000
0001
1000
0010
0000
1000
0000
0001
,  // measure 45
0000
0000
1000
0001
0100
0010
1000
0100
,  // measure 46
0010
0000
0100
1000
0000
0100
0000
1000
,  // measure 47
0010
0100
0001
0010
0100
0010
0001
1000
,  // measure 48
0001
1010
1000
0010
,  // measure 49
0100
0001
0010
0100
,  // measure 50
1000
0100
1000
0000
0100
0000
1000
0000
,  // measure 51
0010
0000
0100
0000
0010
0000
1000
0001
,  // measure 52
1000
0001
1000
0000
0001
0000
0100
0000
,  // measure 53
0010
1000
0100
0000
0010
0000
0001
0000
,  // measure 54
0010
0100
1001
0000
0000
0000
0110
0000
,  // measure 55
0000
1001
0000
0000
,  // measure 56
0000
0000
0001
0000
0100
0010
0000
1000
,  // measure 57
0100
0000
0010
0001
0000
0010
0100
0000
,  // measure 58
0010
0001
0100
0000
0010
1000
0000
0001
,  // measure 59
0010
0000
0100
1000
0000
0100
1000
0010
,  // measure 60
0100
0001
0000
0000
1000
0100
0000
1000
,  // measure 61
0010
0100
0001
1000
0000
0001
0010
0000
,  // measure 62
0100
0010
0001
0000
1000
0010
0000
0100
,  // measure 63
0001
1001
0000
0000
,  // measure 64
0000
0101
0001
0101
,  // measure 65
0100
0101
0001
1000
,  // measure 66
0010
0110
0100
0110
,  // measure 67
0010
0110
0010
1000
,  // measure 68
0001
1100
0100
1100
,  // measure 69
1000
1100
0100
1000
,  // measure 70
0010
0110
0100
0110
,  // measure 71
0010
0110
0010
0110
,  // measure 72
1001
0000
0101
1010
,  // measure 73
0101
1010
0101
1100
,  // measure 74
0011
1100
0011
1100
,  // measure 75
0011
1001
0000
0101
,  // measure 76
0001
0100
0110
0010
,  // measure 77
1000
0010
0100
0110
,  // measure 78
0110
0110
1001
1001
,  // measure 79
0110
1001
0110
0000
,  // measure 80
0000
0000
0000
0000
,  // measure 81
0000
0000
0000
0000
,  // measure 82
0000
0000
0000
0000
,  // measure 83
0000
0000
0000
0000
1000
0000
0000
0100
,  // measure 84
0000
0000
1000
0000
0000
0010
0000
0000
,  // measure 85
0100
0000
0010
0000
1000
0000
0000
0001
,  // measure 86
0000
0010
0100
0010
,  // measure 87
0001
0000
0010
0000
1000
0000
0000
0010
,  // measure 88
0000
0000
0001
0000
0000
0100
0000
0000
,  // measure 89
1000
0000
0100
0000
0010
0000
0000
1000
,  // measure 90
0000
0000
0010
0000
0100
0010
1000
0001
,  // measure 91
0010
0100
1000
0020
0000
0000
0000
0000
,  // measure 92
0000
0000
0000
0000
,  // measure 93
0000
0000
0000
0000
0130
0010
0100
0001
,  // measure 94
0000
1000
0001
0000
0010
0100
0000
0010
,  // measure 95
0001
0000
0100
0000
0010
1000
0100
0010
,  // measure 96
0000
0100
1000
0000
0001
0100
0000
0010
,  // measure 97
1000
0001
0010
0100
0010
0000
0100
1000
,  // measure 98
0010
0000
0100
0001
0010
0000
0100
0000
,  // measure 99
0010
0001
0010
0001
0010
0000
0001
1000
,  // measure 100
0100
0001
0100
0010
0001
0100
0010
1000
,  // measure 101
0000
0001
0100
0010
1000
0001
1000
0001
,  // measure 102
0000
1000
0010
0000
0100
0001
0000
0010
,  // measure 103
0100
0000
0010
0000
0001
0100
0001
0100
,  // measure 104
0000
0010
1000
0000
0100
0010
0000
0100
,  // measure 105
1000
0001
0100
0010
1000
0000
0001
0000
,  // measure 106
0010
0100
0010
0001
,  // measure 107
1000
0000
0010
0000
0100
0000
0001
0100
,  // measure 108
1000
0100
0010
1000
0001
0010
0100
0010
,  // measure 109
0000
0001
0010
0100
2002
0000
0000
0000
,  // measure 110
3003
0000
0000
0000
;

//---------------dance-single - ----------------
#NOTES:
     dance-single:
     :
     Beginner:
     6:
     0.216400,0.367694,0.126855,0.037310,0.000000,203.000000,186.000000,17.000000,5.000000,0.000000,0.000000,0.216400,0.367694,0.126855,0.037310,0.000000,203.000000,186.000000,17.000000,5.000000,0.000000,0.000000:
// measure 0
0000
0000
0000
0000
,  // measure 1
0000
0000
0000
0000
,  // measure 2
0000
0000
0000
0000
,  // measure 3
0000
0000
0000
0000
,  // measure 4
0000
0000
0000
0000
,  // measure 5
0000
0000
0000
0000
,  // measure 6
0000
0000
0000
0000
,  // measure 7
0000
0000
0000
0000
,  // measure 8
0000
0000
0000
0000
,  // measure 9
0000
0000
0000
0000
,  // measure 10
0010
0000
0000
0000
,  // measure 11
0000
0000
0000
0000
,  // measure 12
0100
0000
0000
0000
,  // measure 13
0001
0000
1000
0000
,  // measure 14
0100
0000
0000
0000
,  // measure 15
0000
0000
0000
0000
,  // measure 16
0010
0000
0000
0000
,  // measure 17
0000
1000
0001
1000
,  // measure 18
0000
0000
0001
0000
,  // measure 19
0000
1000
0010
1000
,  // measure 20
0000
0101
0000
0000
,  // measure 21
0000
0001
0010
0001
,  // measure 22
0000
0000
1000
0001
,  // measure 23
0000
0100
0010
0100
,  // measure 24
0000
0010
0010
0010
,  // measure 25
0000
1000
0001
0100
,  // measure 26
0000
0000
0001
0000
,  // measure 27
0000
1000
0010
0100
,  // measure 28
0000
0110
0000
0000
,  // measure 29
0000
0010
1000
0100
,  // measure 30
0000
0000
0010
0100
,  // measure 31
1000
0001
1000
0010
,  // measure 32
0000
0000
0000
0000
,  // measure 33
1000
0000
0001
0000
,  // measure 34
0100
0000
0001
0010
,  // measure 35
0100
0000
0010
0000
,  // measure 36
0001
0000
1000
0001
,  // measure 37
0100
0000
0001
0000
,  // measure 38
0010
0000
0110
0110
,  // measure 39
0100
0000
0010
0000
,  // measure 40
0001
0000
1000
1100
,  // measure 41
0100
0000
1000
0000
,  // measure 42
0010
0000
0100
0000
,  // measure 43
0001
0000
1000
0000
,  // measure 44
1001
0000
0110
0000
,  // measure 45
0000
0010
0100
0000
,  // measure 46
0010
0000
1000
0000
,  // measure 47
0001
0000
1000
0000
,  // measure 48
0110
0002
0000
0000
,  // measure 49
0000
0000
0000
0000
,  // measure 50
0003
2000
0000
0000
,  // measure 51
0000
0000
0000
0000
,  // measure 52
3000
0020
0000
0000
,  // measure 53
0030
0200
0000
0000
,  // measure 54
0300
0010
0000
0100
,  // measure 55
0000
0110
0000
0000
,  // measure 56
0000
0100
0000
0000
,  // measure 57
0001
0000
0000
0010
,  // measure 58
0001
1000
0000
0000
,  // measure 59
0100
0000
0000
1000
,  // measure 60
0001
0000
1001
0000
,  // measure 61
0001
1000
0000
0001
,  // measure 62
0100
0010
0000
0100
,  // measure 63
0000
0001
0000
0000
,  // measure 64
0000
1000
0000
1000
,  // measure 65
0000
1000
0000
1000
,  // measure 66
0000
0001
0000
0001
,  // measure 67
0000
0001
0000
0001
,  // measure 68
0001
0100
0000
0100
,  // measure 69
0000
0100
0000
0100
,  // measure 70
0100
0010
0000
0010
,  // measure 71
0000
0010
0000
0010
,  // measure 72
0010
0000
0100
0100
,  // measure 73
0100
0100
0100
0010
,  // measure 74
0010
0010
0010
0010
,  // measure 75
0010
1000
0000
0001
,  // measure 76
0000
1000
0000
0001
,  // measure 77
0000
0100
0000
0001
,  // measure 78
0000
0010
0001
0100
,  // measure 79
0010
1000
1001
0000
,  // measure 80
0000
0000
0000
0000
,  // measure 81
0000
0000
0000
0000
,  // measure 82
0000
0000
0000
0000
,  // measure 83
0000
0000
0010
0000
,  // measure 84
0000
0000
0000
0000
,  // measure 85
0000
0000
0100
0000
,  // measure 86
0000
0000
0000
0000
,  // measure 87
0000
0000
0001
0000
,  // measure 88
0000
0000
0000
0000
,  // measure 89
0000
0000
1000
0000
,  // measure 90
0000
0000
0000
0000
,  // measure 91
0000
0000
0020
0000
,  // measure 92
0000
0000
0030
0000
,  // measure 93
0000
0000
0100
0100
,  // measure 94
0100
0000
0010
0000
,  // measure 95
1000
0000
0001
0001
,  // measure 96
0001
0000
1000
0000
,  // measure 97
0001
0000
1001
0000
,  // measure 98
0110
0000
0001
0000
,  // measure 99
1000
0010
1000
0000
,  // measure 100
0010
0000
0100
0100
,  // measure 101
0000
0100
0010
0000
,  // measure 102
0000
1000
1000
0000
,  // measure 103
0001
0000
1000
0001
,  // measure 104
0000
0100
0001
0000
,  // measure 105
0010
0000
0110
0000
,  // measure 106
0100
0000
1000
0000
,  // measure 107
0001
0000
0101
0000
,  // measure 108
1010
0000
0001
1000
,  // measure 109
0000
0001
0110
0000
;

//---------------dance-single - ----------------
#NOTES:
     dance-single:
     :
     Challenge:
     18:
     0.922099,1.149159,0.291021,0.179090,0.664125,865.000000,826.000000,39.000000,24.000000,0.000000,0.000000,0.922099,1.149159,0.291021,0.179090,0.664125,865.000000,826.000000,39.000000,24.000000,0.000000,0.000000:
// measure 0
0000
0000
0000
0000
,  // measure 1
0000
0000
0000
0000
,  // measure 2
1000
0000
0100
0000
0010
0001
0100
0000
0010
0000
0000
0000
1000
0000
0001
1000
,  // measure 3
0100
0010
0100
1000
0001
0100
0010
0100
,  // measure 4
0001
1000
0000
0100
0010
0000
0001
0010
,  // measure 5
0001
0000
0100
0000
0001
0000
0100
0000
0010
0000
1000
0000
0001
0010
0001
0000
,  // measure 6
0100
0000
0010
0000
1000
0001
0010
0000
0100
0000
0000
0000
0010
0000
0100
0000
,  // measure 7
0010
0000
0001
0000
0100
0000
0010
0000
0100
0000
0000
0000
0010
0000
0100
0010
,  // measure 8
1000
0100
1000
0001
0010
0100
1000
0001
,  // measure 9
1000
0000
0100
0000
0010
0000
0100
0000
1000
0000
0001
0000
0100
0010
0100
0010
,  // measure 10
1000
0001
0010
0100
0010
0001
1000
0010
,  // measure 11
0100
0001
0010
0100
0010
0001
1000
0010
,  // measure 12
0100
1000
0100
0001
0100
0010
1000
0010
,  // measure 13
0001
0010
0100
0010
1000
0010
1000
0100
,  // measure 14
0010
0001
0010
1000
0010
0100
0010
0001
,  // measure 15
0010
1000
0010
0001
0100
0010
1000
0001
,  // measure 16
0010
0010
0100
1000
0001
0001
0100
0010
,  // measure 17
1001
0000
0000
0000
0101
0000
1000
0010
0200
0000
0000
0000
0001
0000
0000
0000
,  // measure 18
0310
0000
1000
0000
1100
0000
0000
0100
0010
0000
0000
0010
0001
0000
0000
0001
,  // measure 19
0100
0000
0000
0100
0010
0000
1000
0001
0010
0000
0000
0000
0200
0000
0000
0000
,  // measure 20
0310
0000
0001
0000
1000
0001
0010
0001
1000
0001
0010
0001
1000
0001
0010
0001
,  // measure 21
1000
0000
0000
0000
0001
0000
1000
0001
0020
0000
0000
0000
0100
0000
0000
0000
,  // measure 22
0031
0000
0010
0000
0100
0000
0000
0010
0100
0000
0000
0100
1000
0000
0000
1000
,  // measure 23
0010
0000
0000
0010
0100
0000
0001
1000
0200
0000
0000
0000
0310
0000
0100
0000
,  // measure 24
1000
0000
0001
0000
0100
0000
0010
1000
0001
0000
0001
0010
0100
0000
0010
0000
,  // measure 25
0000
0000
0100
0000
0100
0000
1000
0010
0200
0000
0000
0000
0001
0000
0000
0000
,  // measure 26
0310
1000
0001
1000
0100
0000
0010
0001
,  // measure 27
0100
0001
0100
0000
0010
0000
1000
0000
0200
0000
0000
0000
0310
0100
1000
0000
,  // measure 28
1000
0100
0010
0000
0001
0100
0010
0100
0001
0100
0010
0100
0001
0100
0010
1000
,  // measure 29
0001
1000
0001
1000
0001
0000
0010
0001
2000
0000
0000
0000
0010
0000
0000
3001
,  // measure 30
0010
0000
0001
0000
0100
0000
0100
0000
0100
0000
0000
0000
0010
0000
0010
0100
,  // measure 31
0001
1000
0001
0010
0100
1000
0100
0001
,  // measure 32
0100
0000
0010
0002
2000
0000
0000
0000
0003
0000
3000
0000
0000
0000
0000
0000
,  // measure 33
1100
0000
0100
0000
1000
0000
0100
0000
0010
0000
0100
0000
0010
0000
0001
0010
,  // measure 34
0100
1000
0100
0010
0001
2000
0001
3001
,  // measure 35
0100
0001
0010
0100
0010
0001
1000
0010
,  // measure 36
0100
0000
0001
0000
0010
0000
0100
0000
1000
0000
0001
0000
0100
0010
1000
0100
,  // measure 37
0010
0000
0100
0000
1000
0000
0001
0000
0100
0000
0001
0000
0010
0000
0001
1000
,  // measure 38
0001
0010
0100
1000
1200
0000
0320
0000
,  // measure 39
0031
0000
0010
0000
0001
0000
0100
0000
0010
0000
1000
0000
0100
0010
0100
0000
,  // measure 40
0010
0001
0100
0010
1000
0100
1002
0000
,  // measure 41
0103
0000
1000
0000
0100
0000
0001
0000
0010
0000
0100
0000
0010
0001
0100
0000
,  // measure 42
0010
0100
0001
1000
0100
1000
0001
1000
,  // measure 43
0100
0010
0100
1000
0001
0100
0001
0010
,  // measure 44
0200
0000
1300
0200
0000
0301
0100
0010
,  // measure 45
0000
0000
0010
0000
1001
0000
1000
0000
0001
0000
0000
0000
1001
0000
1000
0001
,  // measure 46
0100
0010
1000
0001
0010
0100
0010
0001
,  // measure 47
0100
0000
0010
0000
1000
0000
0010
0100
0001
0000
0100
0000
0001
1000
0010
1000
,  // measure 48
0001
2100
0100
0100
,  // measure 49
0100
0100
0100
0100
,  // measure 50
3100
0010
0002
0000
0010
0000
0010
0000
,  // measure 51
0010
0000
0010
0000
0010
0000
0013
0001
,  // measure 52
0100
0010
0120
0000
0100
0000
0100
0000
,  // measure 53
0130
0001
0020
0000
0100
0000
0100
0000
,  // measure 54
0130
0010
1001
0000
0000
0000
1001
0000
,  // measure 55
0000
1001
0000
0000
,  // measure 56
0000
0000
0001
0010
0001
0000
0000
0000
0100
0000
0001
0000
0000
0000
0001
0000
,  // measure 57
1000
0000
0000
0000
0100
0010
0100
0000
0000
0000
0010
0000
0100
0000
0010
0000
,  // measure 58
0001
0100
0001
0000
0010
0100
0000
0010
,  // measure 59
0100
0000
1000
0000
0100
0000
0010
0100
1000
0000
0001
0010
0100
0010
0100
0010
,  // measure 60
0100
0010
0100
0010
0100
1000
0100
0010
0001
0000
1000
0000
1001
0000
1001
0000
,  // measure 61
1001
0000
0000
0010
1000
0000
1000
0000
0000
0000
0000
0100
0010
0000
0100
0000
,  // measure 62
0010
0000
0100
0000
0001
0000
0010
0000
1000
0000
0010
0000
0100
0000
1000
0010
,  // measure 63
0100
0000
0100
0001
1000
0000
0000
0000
0000
0000
0000
0000
0000
0000
0000
0000
,  // measure 64
0000
0000
0000
1010
0000
0000
0001
0100
0010
1000
0000
0000
,  // measure 65
0100
0010
0001
0010
0000
0000
0011
0000
0000
0010
0001
0100
,  // measure 66
0010
1000
0001
0010
0000
0000
0100
0010
0001
1000
0000
0000
,  // measure 67
1001
0000
0100
0001
0000
0000
0011
0000
0000
0100
0010
0001
,  // measure 68
0100
0010
0100
0001
0000
0000
1000
0001
0010
0100
0000
0000
,  // measure 69
1100
0000
0100
0010
0000
0000
0011
0000
0000
0001
0010
0001
,  // measure 70
0100
0001
1000
0100
0000
0000
0010
0100
1000
0001
0000
0000
,  // measure 71
0101
0000
1000
0010
0000
0000
0110
0000
0000
0010
1000
0001
,  // measure 72
0010
0100
0010
0000
0000
0000
1000
0100
0001
0100
0010
0001
,  // measure 73
0010
1000
0010
0001
0100
0010
1000
0000
0000
1000
0010
0001
,  // measure 74
0010
0100
1000
0100
0001
0100
0010
0001
0100
0010
1000
0010
,  // measure 75
0100
0001
0010
1000
0010
0001
0000
0000
0000
1001
0000
0000
,  // measure 76
0110
0000
0000
1010
0000
1000
0100
0000
0000
0110
0000
0000
,  // measure 77
0100
0010
0001
0010
0100
0010
0001
0000
0000
1000
0001
0100
,  // measure 78
0001
0010
0100
0010
0001
0100
0010
1000
0010
0001
0100
1000
,  // measure 79
0100
0010
0001
0010
0100
0010
1010
0000
0000
0000
0000
0000
,  // measure 80
0000
0000
0000
0000
,  // measure 81
0000
0000
0000
0000
,  // measure 82
0000
0000
0000
0000
,  // measure 83
0000
0000
0000
0000
0001
0010
0100
0010
,  // measure 84
0001
0100
0010
1000
0001
0010
0100
0010
,  // measure 85
0001
0010
0100
1000
0001
0100
0001
0010
,  // measure 86
0001
1000
0010
1000
0001
0010
0100
1000
,  // measure 87
0001
0010
0100
1000
0001
1000
0010
1000
,  // measure 88
0001
0010
0001
0100
0001
1000
0001
0010
,  // measure 89
0001
0010
0100
1000
0001
1000
0010
1000
,  // measure 90
0100
0010
0100
0010
0001
0010
0100
1000
,  // measure 91
0001
0010
0100
1000
0020
0000
0000
0000
,  // measure 92
0000
0000
0030
0000
,  // measure 93
0000
0000
0000
0000
0000
0000
0000
0000
0100
0010
0100
0001
0100
0000
0001
0000
,  // measure 94
0000
0010
0100
1000
0001
0000
1000
0001
,  // measure 95
0100
0010
1000
0001
0010
0100
1000
0100
0010
0001
0010
0100
0010
0001
0010
0000
,  // measure 96
0000
0000
0100
0000
1000
0000
0010
0000
0100
0000
0001
0100
0010
0000
0010
1000
,  // measure 97
0001
0000
1000
0000
0001
0000
0010
0000
0110
0000
0000
0000
1000
0100
0010
0001
,  // measure 98
1000
0000
0000
0001
0100
0000
0001
0000
0000
0000
1000
0000
0100
0000
1000
0000
,  // measure 99
0001
0100
0001
0100
0001
0100
0001
0100
0001
0000
0010
0000
0100
1000
0001
0000
,  // measure 100
0100
0000
0010
0000
1000
0000
0001
0000
1000
0100
1000
0100
1000
0200
2300
3000
,  // measure 101
0000
0000
0100
0000
1000
0000
0010
0000
0100
0001
0100
0010
0100
0000
0001
0000
,  // measure 102
0000
0100
0001
0010
0100
0000
0010
0000
,  // measure 103
0001
1000
0001
0010
0001
1000
0100
0010
0100
1000
0100
1000
0100
1000
0100
0000
,  // measure 104
0000
0000
1000
0000
0001
0000
0100
0000
0001
0000
1000
0001
0010
0000
0010
0001
,  // measure 105
0100
0000
0010
0000
1000
0000
0001
0000
0010
0000
0000
0000
0100
0010
0001
0100
,  // measure 106
0010
0100
0001
1000
0000
1000
0001
0100
,  // measure 107
0010
1000
0010
1000
0010
1000
0010
1000
0010
0000
0100
0000
1000
0010
0100
0001
,  // measure 108
0010
0110
1000
1001
0001
1010
0011
1001
,  // measure 109
0000
1100
0011
0110
2002
0000
0000
0000
,  // measure 110
3003
0000
0000
0000
;
