#VERSION:0.83;
#TITLE:TEETH;
#SUBTITLE:;
#ARTIST:5 Seconds of Summer;
#TITLETRANSLIT:;
#SUBTITLETRANSLIT:;
#ARTISTTRANSLIT:;
#GENRE:;
#ORIGIN:;
#CREDIT:;
#BANNER:TEETH.png;
#BACKGROUND:TEETH-bg.png;
#PREVIEWVID:;
#JACKET:TEETH-jacket.png;
#CDIMAGE:;
#DISCIMAGE:;
#LYRICSPATH:;
#CDTITLE:;
#MUSIC:TEETH.ogg;
#OFFSET:1.568179;
#SAMPLESTART:62.293999;
#SAMPLELENGTH:13.836000;
#SELECTABLE:YES;
#DISPLAYBPM:139.000000;
#BPMS:0.000=139.000;
#STOPS:;
#DELAYS:;
#WARPS:;
#TIMESIGNATURES:0.000=4=4;
#TICKCOUNTS:0.000=4;
#COMBOS:0.000=1;
#SPEEDS:0.000=1.000=0.000=0;
#SCROLLS:0.000=1.000;
#FAKES:;
#LABELS:0.000=Song Start;
#BGCHANGES:;
#KEYSOUNDS:;
#ATTACKS:
;

//---------------dance-single - ----------------
#NOTEDATA:;
#CHARTNAME:;
#STEPSTYPE:dance-single;
#DESCRIPTION:;
#CHARTSTYLE:;
#DIFFICULTY:Hard;
#METER:10;
#RADARVALUES:0.371361,0.476274,0.275568,0.349053,0.000000,283.000000,253.000000,30.000000,38.000000,0.000000,0.000000,0.000000,0.000000,0.000000,0.371361,0.476274,0.275568,0.349053,0.000000,283.000000,253.000000,30.000000,38.000000,0.000000,0.000000,0.000000,0.000000,0.000000;
#CREDIT:ohaiimian;
#DISPLAYBPM:139.000000;
#NOTES:
// measure 0
0000
0000
0000
0000
,  // measure 1
0000
0000
0000
0000
,  // measure 2
0000
0000
0000
0000
,  // measure 3
0000
0000
0000
0000
,  // measure 4
0000
0000
0000
0000
,  // measure 5
1000
0100
0010
0001
0010
0100
1000
0001
,  // measure 6
0100
0000
0000
0000
,  // measure 7
0010
1000
0001
0010
0100
0010
0001
1000
,  // measure 8
0010
0100
0001
1000
,  // measure 9
0100
0000
0010
0100
1000
0000
0100
0000
,  // measure 10
0010
0100
1000
0000
0100
0010
0001
0000
,  // measure 11
0100
0000
0010
0100
0001
0000
0100
0000
,  // measure 12
0010
0100
0001
0000
0100
0010
1000
0000
,  // measure 13
0001
1100
0001
1010
,  // measure 14
0001
0100
0010
0000
1000
0100
0010
0000
,  // measure 15
0100
0011
1000
0101
,  // measure 16
0100
0010
1000
0000
0100
0010
0001
0000
,  // measure 17
1000
0000
0010
0100
0001
0000
1000
0000
,  // measure 18
0010
0100
0001
0000
0010
0100
1000
0000
,  // measure 19
0100
0000
0010
0001
0100
0000
0010
0000
,  // measure 20
0100
0001
0010
0000
0100
0000
0000
0000
,  // measure 21
2000
0000
0000
0000
,  // measure 22
3002
0000
0000
0000
,  // measure 23
0203
0000
0320
0000
,  // measure 24
2030
0000
0000
0000
,  // measure 25
3002
0000
0000
0000
,  // measure 26
0023
0000
0000
0000
,  // measure 27
0230
0000
2300
0000
,  // measure 28
3000
0000
0000
0000
0000
0001
0100
0010
,  // measure 29
1010
0000
0011
0000
1000
0100
0010
0001
,  // measure 30
0101
1100
0022
0033
,  // measure 31
0011
0000
1010
0000
0001
0100
0010
1000
,  // measure 32
1100
0101
2020
3030
,  // measure 33
2000
0000
3002
0000
0103
0010
1000
0001
,  // measure 34
0011
1010
0202
0303
,  // measure 35
0001
0002
0000
0010
0023
0000
0100
0230
,  // measure 36
0000
1000
2300
0000
3010
0100
0001
0000
,  // measure 37
0101
0000
1100
0000
1000
0100
0010
0001
,  // measure 38
0101
1100
0022
0033
,  // measure 39
0011
0000
1010
0000
1000
0100
0010
0001
,  // measure 40
0011
1010
0202
0303
,  // measure 41
0002
0000
2003
0000
3100
0010
0001
1000
,  // measure 42
1010
0011
2200
3300
,  // measure 43
1000
2000
0000
0100
3200
0000
0010
0320
,  // measure 44
0000
0001
0032
0000
0103
0010
1000
0000
,  // measure 45
0001
0010
1000
0100
,  // measure 46
0001
0010
0100
0000
1000
0010
0100
0000
,  // measure 47
0001
0100
1000
0010
,  // measure 48
0001
1000
0010
0000
1000
0001
0010
0000
,  // measure 49
1000
0100
0001
0010
,  // measure 50
1000
0100
0010
0000
0001
0100
0010
0000
,  // measure 51
1000
2000
0000
0100
3200
0000
0010
0320
,  // measure 52
0000
0001
0032
0000
0103
0010
1000
0000
,  // measure 53
0001
1000
0100
0010
,  // measure 54
0001
0100
1000
0000
0001
0010
1000
0000
,  // measure 55
0100
0010
0001
0100
,  // measure 56
1000
0100
0001
0000
1000
0100
0001
0000
,  // measure 57
0100
1000
0001
0010
,  // measure 58
1000
0010
0001
0000
1000
0010
0001
0000
,  // measure 59
0010
1000
0001
0010
,  // measure 60
0001
0010
1000
0000
0001
0100
1000
0020
,  // measure 61
0030
0000
0000
0000
;

//---------------dance-single - ----------------
#NOTEDATA:;
#CHARTNAME:;
#STEPSTYPE:dance-single;
#DESCRIPTION:;
#CHARTSTYLE:;
#DIFFICULTY:Medium;
#METER:8;
#RADARVALUES:0.287378,0.335504,0.009186,0.146970,0.000000,219.000000,218.000000,1.000000,16.000000,0.000000,0.000000,0.000000,0.000000,0.000000,0.287378,0.335504,0.009186,0.146970,0.000000,219.000000,218.000000,1.000000,16.000000,0.000000,0.000000,0.000000,0.000000,0.000000;
#CREDIT:ohaiimian;
#DISPLAYBPM:139.000000;
#NOTES:
// measure 0
0000
0000
0000
0000
,  // measure 1
0000
0000
0000
0000
,  // measure 2
0000
0000
0000
0000
,  // measure 3
0000
0000
0000
0000
,  // measure 4
0000
0000
0000
0000
,  // measure 5
0100
0000
0010
0000
,  // measure 6
0001
0000
0000
0000
,  // measure 7
0100
0000
0010
0000
,  // measure 8
1000
0000
0001
0000
,  // measure 9
1000
0100
0100
0001
,  // measure 10
0100
0100
0000
0000
,  // measure 11
1000
0010
0010
0001
,  // measure 12
0010
0010
1000
0000
,  // measure 13
0001
0100
1000
0100
,  // measure 14
0001
0001
0010
0010
,  // measure 15
1000
0010
0001
0010
,  // measure 16
1000
1000
0100
0100
,  // measure 17
0010
0001
0100
0001
,  // measure 18
0010
0100
1000
0100
,  // measure 19
1000
0010
0100
0010
,  // measure 20
1000
0100
0010
0000
,  // measure 21
0002
0000
0000
0003
,  // measure 22
2000
0000
0000
3000
,  // measure 23
0200
0300
0020
0030
,  // measure 24
0002
0000
0000
0003
,  // measure 25
0020
0000
0000
0030
,  // measure 26
0200
0000
0000
0300
,  // measure 27
2000
3000
0002
0003
,  // measure 28
0000
0000
0000
0000
,  // measure 29
1000
0000
1000
0000
1000
0010
1000
0100
,  // measure 30
0010
0010
0020
0030
,  // measure 31
0001
0000
0001
0000
0001
0010
0001
0100
,  // measure 32
0010
0010
0020
0030
,  // measure 33
1000
0000
0100
0000
0010
0001
0010
0001
,  // measure 34
0100
0000
0100
0000
0200
0000
0000
0300
,  // measure 35
0010
1000
0000
1000
0100
0000
0010
0001
,  // measure 36
0000
0001
0100
0000
0010
0100
0010
0000
,  // measure 37
1000
0000
0010
0000
0100
0001
0100
0010
,  // measure 38
0100
0100
0200
0300
,  // measure 39
0001
0000
0010
0000
0100
1000
0100
0010
,  // measure 40
0100
0100
0200
0300
,  // measure 41
1000
0000
0100
0000
0010
0001
0010
0000
,  // measure 42
0001
1000
0001
0000
2002
0000
3003
0000
,  // measure 43
0001
0100
0000
0100
0010
0000
0010
1000
,  // measure 44
0000
1000
0100
0000
0010
0100
0010
0000
,  // measure 45
0001
0100
1000
0100
,  // measure 46
0001
0010
0001
0000
1000
0010
1000
0000
,  // measure 47
0001
0010
1000
0010
,  // measure 48
0001
0100
0001
0000
1000
0100
1000
0000
,  // measure 49
0100
0010
0001
1000
,  // measure 50
0100
0010
0100
0000
0010
0001
0010
0000
,  // measure 51
0001
0010
0000
0100
1000
0000
0001
0100
,  // measure 52
0000
0010
1000
0000
0001
1000
0001
0000
,  // measure 53
1000
1000
1000
1000
,  // measure 54
1000
0100
1000
0000
0100
1000
0100
0000
,  // measure 55
0001
0001
0001
0001
,  // measure 56
0001
0100
0001
0000
0100
0001
0100
0000
,  // measure 57
0100
0100
0100
0100
,  // measure 58
0100
0010
0100
0000
0010
0100
0010
0000
,  // measure 59
1000
1000
0001
0001
,  // measure 60
1000
0001
1000
0000
0010
0100
0010
0100
;

//---------------dance-single - ----------------
#NOTEDATA:;
#CHARTNAME:;
#STEPSTYPE:dance-single;
#DESCRIPTION:;
#CHARTSTYLE:;
#DIFFICULTY:Easy;
#METER:5;
#RADARVALUES:0.202083,0.251111,0.000000,0.266383,0.000000,154.000000,154.000000,0.000000,29.000000,0.000000,0.000000,0.000000,0.000000,0.000000,0.202083,0.251111,0.000000,0.266383,0.000000,154.000000,154.000000,0.000000,29.000000,0.000000,0.000000,0.000000,0.000000,0.000000;
#CREDIT:ohaiimian;
#DISPLAYBPM:139.000000;
#NOTES:
// measure 0
0000
0000
0000
0000
,  // measure 1
0000
0000
0000
0000
,  // measure 2
0000
0000
0000
0000
,  // measure 3
0000
0000
0000
0000
,  // measure 4
0000
0000
0000
0000
,  // measure 5
1000
0000
0100
0000
,  // measure 6
0010
0000
0000
0000
,  // measure 7
0001
0000
0100
0000
,  // measure 8
0010
0000
0010
0000
,  // measure 9
1000
1000
0001
0001
,  // measure 10
0100
0000
0100
0000
,  // measure 11
0001
0001
1000
1000
,  // measure 12
0010
0000
0010
0000
,  // measure 13
0000
1000
0000
1000
,  // measure 14
0000
0001
0000
0001
,  // measure 15
0000
0100
0000
0100
,  // measure 16
0000
0010
0000
0010
,  // measure 17
1000
1000
0001
0001
,  // measure 18
0100
0000
0100
0000
,  // measure 19
0001
0001
1000
1000
,  // measure 20
0010
0100
0000
0010
,  // measure 21
2000
0000
0000
3000
,  // measure 22
0200
0000
0000
0300
,  // measure 23
0020
0030
0002
0003
,  // measure 24
0200
0000
0000
0300
,  // measure 25
0020
0000
0000
0030
,  // measure 26
2000
0000
0000
3000
,  // measure 27
0002
0003
0020
0030
,  // measure 28
0100
0000
0000
0000
,  // measure 29
1000
1000
0100
0100
,  // measure 30
0010
0001
0200
0300
,  // measure 31
0010
1000
0100
0010
,  // measure 32
0010
0001
2000
3000
,  // measure 33
0010
0010
0100
0100
,  // measure 34
0001
1000
0002
0003
,  // measure 35
0010
0000
0000
0010
0000
0000
0010
0000
,  // measure 36
0000
0010
0000
0000
0100
0000
0100
0000
,  // measure 37
1000
0001
0100
0100
,  // measure 38
0010
0100
0200
0300
,  // measure 39
0001
0010
0100
1000
,  // measure 40
0010
0100
0020
0030
,  // measure 41
1000
1000
0001
0001
,  // measure 42
0010
0100
2000
3000
,  // measure 43
0010
0000
0000
0010
0000
0000
0010
0000
,  // measure 44
0000
0010
0000
0000
0100
0000
0100
0000
,  // measure 45
0001
0001
0001
0001
,  // measure 46
0020
0030
0020
0030
,  // measure 47
1000
1000
1000
1000
,  // measure 48
0200
0300
0200
0300
,  // measure 49
0001
1000
0001
1000
,  // measure 50
0020
0030
0200
0300
,  // measure 51
0001
0001
1000
1000
,  // measure 52
0100
0010
0001
1000
,  // measure 53
0010
0010
0100
0100
,  // measure 54
0002
0003
2000
3000
,  // measure 55
0100
0100
0010
0010
,  // measure 56
0002
0003
2000
3000
,  // measure 57
0010
0010
0100
0100
,  // measure 58
2000
3000
0002
0003
,  // measure 59
1000
1000
0001
0001
,  // measure 60
0200
0300
0020
0030
;

//---------------dance-single - ----------------
#NOTEDATA:;
#CHARTNAME:;
#STEPSTYPE:dance-single;
#DESCRIPTION:;
#CHARTSTYLE:;
#DIFFICULTY:Beginner;
#METER:2;
#RADARVALUES:0.137784,0.194505,0.000000,0.119413,0.000000,105.000000,105.000000,0.000000,13.000000,0.000000,0.000000,0.000000,0.000000,0.000000,0.137784,0.194505,0.000000,0.119413,0.000000,105.000000,105.000000,0.000000,13.000000,0.000000,0.000000,0.000000,0.000000,0.000000;
#CREDIT:ohaiimian;
#DISPLAYBPM:139.000000;
#NOTES:
// measure 0
0000
0000
0000
0000
,  // measure 1
0000
0000
0000
0000
,  // measure 2
0000
0000
0000
0000
,  // measure 3
0000
0000
0000
0000
,  // measure 4
0000
0000
0000
0000
,  // measure 5
1000
0000
0000
0000
,  // measure 6
0000
0000
0000
0000
,  // measure 7
0001
0000
0000
0000
,  // measure 8
0000
0000
0000
0000
,  // measure 9
0100
0000
0100
0000
,  // measure 10
0100
0000
0000
0000
,  // measure 11
0010
0000
0010
0000
,  // measure 12
0010
0000
0000
0000
,  // measure 13
0000
1000
0000
1000
,  // measure 14
0000
1000
0000
1000
,  // measure 15
0000
0001
0000
0001
,  // measure 16
0000
0001
0000
0001
,  // measure 17
0000
0100
0000
0100
,  // measure 18
0000
0010
0000
0010
,  // measure 19
0000
1000
0000
0001
,  // measure 20
0000
1000
0000
0001
,  // measure 21
0002
0000
0003
0000
,  // measure 22
2000
0000
3000
0000
,  // measure 23
0020
0000
0030
0000
,  // measure 24
0200
0000
0300
0000
,  // measure 25
0002
0000
0003
0000
,  // measure 26
2000
0000
3000
0000
,  // measure 27
0200
0000
0000
0000
,  // measure 28
0300
0000
0000
0000
,  // measure 29
0010
0000
0010
0000
,  // measure 30
0010
0000
0020
0030
,  // measure 31
0001
0000
0001
0000
,  // measure 32
0001
0000
0002
0003
,  // measure 33
1000
0000
1000
0000
,  // measure 34
1000
0000
2000
3000
,  // measure 35
0100
0000
0100
0000
,  // measure 36
0100
0000
0100
0100
,  // measure 37
0010
0000
0010
0000
,  // measure 38
0010
0000
0002
0003
,  // measure 39
0001
0000
0001
0000
,  // measure 40
0001
0000
2000
3000
,  // measure 41
1000
0000
1000
0000
,  // measure 42
1000
0000
0200
0300
,  // measure 43
0010
0000
0010
0000
,  // measure 44
0010
0000
0010
0010
,  // measure 45
0001
0000
0001
0000
,  // measure 46
1000
1000
1000
0000
,  // measure 47
1000
0000
1000
0000
,  // measure 48
0001
0001
0001
0000
,  // measure 49
0100
0000
0100
0000
,  // measure 50
0010
0010
0010
0000
,  // measure 51
0010
0000
0010
0000
,  // measure 52
0100
0100
0100
0000
,  // measure 53
0001
0000
0010
0000
,  // measure 54
0100
0100
0100
0000
,  // measure 55
1000
0000
0010
0000
,  // measure 56
0100
0100
0100
0000
,  // measure 57
0001
0000
0100
0000
,  // measure 58
0010
0010
0010
0000
,  // measure 59
1000
0000
0100
0000
,  // measure 60
0010
0010
0010
0000
;
