#VERSION:0.83;
#TITLE:Sweet Spot;
#SUBTITLE:;
#ARTIST:Kim Petras;
#TITLETRANSLIT:;
#SUBTITLETRANSLIT:;
#ARTISTTRANSLIT:;
#GENRE:;
#ORIGIN:;
#CREDIT:;
#BANNER:banner.png;
#BACKGROUND:Sweet Spot-bg.png;
#PREVIEWVID:;
#JACKET:jacket.png;
#CDIMAGE:;
#DISCIMAGE:;
#LYRICSPATH:;
#CDTITLE:;
#MUSIC:Sweet Spot.ogg;
#OFFSET:-0.164146;
#SAMPLESTART:74.434029;
#SAMPLELENGTH:12.000000;
#SELECTABLE:YES;
#BPMS:0.000=115.000;
#STOPS:;
#DELAYS:;
#WARPS:;
#TIMESIGNATURES:0.000=4=4;
#TICKCOUNTS:0.000=4;
#COMBOS:0.000=1;
#SPEEDS:0.000=1.000=0.000=0;
#SCROLLS:0.000=1.000;
#FAKES:;
#LABELS:0.000=Song Start;
#BGCHANGES:;
#KEYSOUNDS:;
#ATTACKS:
;

//---------------dance-single - ----------------
#NOTEDATA:;
#CHARTNAME:;
#STEPSTYPE:dance-single;
#DESCRIPTION:;
#CHARTSTYLE:;
#DIFFICULTY:Beginner;
#METER:2;
#RADARVALUES:0.084092,0.140098,0.000000,0.000000,0.000000,75.000000,75.000000,0.000000,0.000000,0.000000,0.000000,0.000000,0.000000,0.000000,0.084092,0.140098,0.000000,0.000000,0.000000,75.000000,75.000000,0.000000,0.000000,0.000000,0.000000,0.000000,0.000000,0.000000;
#CREDIT:;
#NOTES:
0000
0000
0000
0000
,
0000
0000
0000
0000
,
0000
0000
0000
0000
,
0000
0000
0000
0000
,
1000
0000
0000
0000
,
0001
0000
0000
0000
,
0100
0000
0000
0000
,
0010
0000
0000
0000
,
1000
0000
0000
0000
,
0100
0000
0000
0000
,
0010
0000
0000
0000
,
0001
0000
0000
0000
,
1000
0000
0000
0000
,
0000
0000
0000
0000
,
0010
0000
0000
0000
,
0000
0000
0000
0000
,
0100
0000
0000
0000
,
0000
0000
0000
0000
,
0001
0000
0000
0000
,
0000
0000
0000
0000
,
1000
0000
1000
0000
,
0001
0000
0000
0000
,
0001
0000
0001
0000
,
1000
0000
0000
0000
,
0010
0000
0010
0000
,
0100
0000
0000
0000
,
0100
0000
0100
0000
,
0010
0000
0000
0000
,
1000
0000
1000
0000
,
1000
0000
0000
0000
,
0000
0000
0100
0000
,
0100
0000
0000
0000
,
0010
0000
0010
0000
,
0010
0000
0000
0000
,
0000
0000
0001
0000
,
0001
0000
0000
0000
,
1000
1000
0000
1000
,
1000
0000
0000
0000
,
0001
0001
0000
0001
,
0001
0000
0000
0000
,
0100
0100
0000
0100
,
0100
0000
0000
0000
,
0010
0010
0000
0010
,
0010
0000
0010
0000
,
1000
0000
0000
0000
,
0100
0000
0000
0000
,
0010
0000
0000
0000
,
0001
0000
0000
0000
,
0100
0000
0000
0000
,
0010
0000
0000
0000
,
1000
0000
0000
0000
,
0001
0000
0000
0000
,
0010
0000
0010
0000
,
0100
0000
0100
0000
,
1000
0000
1000
0000
,
0001
0000
0001
0000
,
0100
0000
0100
0000
,
0010
0000
0010
0000
,
1000
0000
1000
0000
,
0001
0000
0001
0000
;

//---------------dance-single - ----------------
#NOTEDATA:;
#CHARTNAME:;
#STEPSTYPE:dance-single;
#DESCRIPTION:;
#CHARTSTYLE:;
#DIFFICULTY:Easy;
#METER:5;
#RADARVALUES:0.218640,0.282550,0.125578,0.070638,0.000000,195.000000,179.000000,16.000000,9.000000,0.000000,0.000000,0.000000,0.000000,0.000000,0.218640,0.282550,0.125578,0.070638,0.000000,195.000000,179.000000,16.000000,9.000000,0.000000,0.000000,0.000000,0.000000,0.000000;
#CREDIT:;
#NOTES:
0000
0000
0000
0000
,
0000
0000
0000
0000
,
0000
0000
0000
0000
,
0000
0000
0000
0000
,
1000
1000
0000
0001
,
0001
0000
0100
0100
,
0010
0010
0000
1000
,
1000
0000
0001
0001
,
0010
0010
0000
0100
,
0100
0000
1000
1000
,
0010
0010
0000
0100
,
0100
0000
0001
0001
,
2000
0100
3010
0000
,
0002
0100
0013
0000
,
2000
0100
3001
0000
,
0002
0010
1003
0000
,
2000
0010
3100
0000
,
0002
0100
0013
0000
,
2000
0010
3001
0000
,
0002
0100
1003
0000
,
1000
0100
0010
0001
,
0100
0000
0100
0000
,
0001
0000
0001
0000
,
1000
0000
1000
0000
,
0001
0010
0100
1000
,
0010
0000
0010
0000
,
1000
0000
1000
0000
,
0001
0000
0001
0000
,
1000
0100
1000
0000
,
0001
0100
0001
0000
,
1000
1000
0010
0010
,
0100
0100
0001
0000
,
0001
0010
0001
0000
,
1000
0010
1000
0000
,
0001
0001
0010
0010
,
0100
0100
1000
1000
,
0101
1010
0000
1100
,
0011
0000
1000
0001
,
0110
1001
0000
1010
,
0101
0000
0001
1000
,
0110
0101
0000
0110
,
1010
0000
1000
0001
,
0011
0110
0000
0110
,
1100
0000
1000
0001
,
1000
0010
0100
0100
,
0010
1000
0001
0000
,
0001
0010
0100
0100
,
0010
0001
1000
0000
,
0001
0100
0100
0001
,
1000
0010
0010
0000
,
1000
0001
0001
0010
,
0001
1000
1000
0000
,
0001
0100
0001
1000
,
0010
1000
0001
0001
,
1000
0100
1000
0001
,
0010
0001
1000
1000
,
0001
0100
0010
1000
,
0001
1000
0010
0100
,
0001
0010
0100
1000
,
0010
0100
0001
2000
,
3000
0000
0000
0000
;

//---------------dance-single - ----------------
#NOTEDATA:;
#CHARTNAME:;
#STEPSTYPE:dance-single;
#DESCRIPTION:;
#CHARTSTYLE:;
#DIFFICULTY:Medium;
#METER:7;
#RADARVALUES:0.283671,0.353188,0.141275,0.078486,0.000000,253.000000,235.000000,18.000000,10.000000,0.000000,0.000000,0.000000,0.000000,0.000000,0.283671,0.353188,0.141275,0.078486,0.000000,253.000000,235.000000,18.000000,10.000000,0.000000,0.000000,0.000000,0.000000,0.000000;
#CREDIT:;
#NOTES:
0000
0000
0000
0000
,
0000
0000
0000
0000
,
0000
0000
0000
0000
,
0000
0000
0000
0000
0000
0000
1000
0100
,
0010
0010
0001
1000
,
1000
0000
0000
0001
0100
0000
0010
0000
,
0100
0100
0001
1000
,
1000
0000
0000
0000
0001
0010
0001
0000
,
0100
0100
0010
0010
,
1000
0000
0000
0100
1000
0010
0100
0000
,
0001
0001
1000
1000
,
0100
0000
0000
1000
0001
1000
0001
1000
,
0010
0010
1000
1000
,
0001
0000
0001
0000
0100
0001
0010
0100
,
1000
1000
0010
0010
,
1000
0000
1000
0000
0001
0010
0100
1000
,
0001
0001
0100
0100
,
0001
0000
0001
0000
1000
0010
0100
0001
,
1000
1000
0100
0100
,
1000
0000
1000
0000
0001
0000
1000
0010
,
0100
0001
1000
0100
,
0010
0000
0100
0000
,
1000
0001
1000
0000
,
0001
0000
1000
0000
0001
0000
0010
0100
,
1000
0001
0100
0010
,
1000
0000
0100
0000
,
0001
0010
0001
0000
,
1000
0100
1000
0000
,
0001
0001
0100
0100
,
0020
0000
1030
0000
,
1000
1000
0100
1000
,
0020
0000
1030
0000
,
0001
0010
0100
1000
,
0020
0000
0130
0000
,
0100
0010
1000
0100
,
0020
0000
1000
0031
,
1100
0011
0001
1010
,
0101
0000
1000
0000
0100
0100
0010
0000
,
1100
0011
0001
1010
,
0101
0000
1000
0000
0001
0001
1000
0000
,
1100
1010
0100
0101
,
0011
0000
0001
0000
1000
1000
0010
0000
,
1010
0011
0001
0101
,
1100
0000
1000
0000
0001
1000
0001
1000
,
0020
0001
1000
0100
,
1000
0000
0001
0000
1030
0100
1000
0100
,
0020
1000
0001
0100
,
1000
0000
0031
0000
0001
0100
0001
1000
,
0002
0010
1000
0100
,
1000
0000
0010
0000
1003
0100
1000
0010
,
2000
0100
0001
0010
,
0001
0000
0100
0000
3001
0001
1000
0000
,
0010
1000
0100
0010
,
0001
0100
1010
0101
,
0001
0010
0100
1000
,
0010
0100
0001
1000
,
0001
1000
0100
1000
,
0001
0010
0001
1000
,
0010
0100
0001
0010
,
0100
1000
0002
2000
,
3003
0000
0000
0000
;

//---------------dance-single - ----------------
#NOTEDATA:;
#CHARTNAME:;
#STEPSTYPE:dance-single;
#DESCRIPTION:;
#CHARTSTYLE:;
#DIFFICULTY:Hard;
#METER:11;
#RADARVALUES:0.455220,0.423825,0.337490,0.031394,0.000000,406.000000,363.000000,43.000000,4.000000,0.000000,0.000000,0.000000,0.000000,0.000000,0.455220,0.423825,0.337490,0.031394,0.000000,406.000000,363.000000,43.000000,4.000000,0.000000,0.000000,0.000000,0.000000,0.000000;
#CREDIT:;
#NOTES:
// measure 0
0000
0000
0000
0000
,  // measure 1
0000
0000
0000
0000
,  // measure 2
0000
0000
0000
0000
,  // measure 3
0000
0000
0000
0000
0000
0000
1000
0001
,  // measure 4
1100
0011
0001
1010
,  // measure 5
0101
0000
1000
0010
0100
0001
1000
0001
,  // measure 6
1010
0101
0001
1100
,  // measure 7
0011
0000
1000
0000
0001
0100
1000
0100
,  // measure 8
0101
1010
1000
0011
,  // measure 9
1100
0000
1000
0100
0001
0100
1000
0001
,  // measure 10
0101
1010
1000
0011
,  // measure 11
1100
0000
1000
0100
0001
0100
1000
0001
,  // measure 12
1000
0010
0001
1000
0100
0001
0010
0100
,  // measure 13
1000
0100
0001
1000
0010
0001
0010
0100
,  // measure 14
1000
0010
0100
0001
0100
0010
1000
0001
,  // measure 15
1000
0100
0010
0001
0010
0100
1000
0001
,  // measure 16
1000
0010
0100
0010
0001
0010
0100
0010
,  // measure 17
1000
0100
0010
0100
0001
0100
0010
0100
,  // measure 18
1000
0010
0001
0010
1000
0100
0001
0100
,  // measure 19
1000
0010
0001
1000
0100
0001
0010
0100
,  // measure 20
1000
0100
1000
0001
0100
0001
0010
0100
,  // measure 21
2000
0000
0010
0000
3001
0000
1000
0100
,  // measure 22
0001
0000
0010
0000
1000
0000
1000
0010
,  // measure 23
0001
0000
0100
0000
1000
0000
0001
0100
,  // measure 24
1000
0001
1000
0100
0001
0010
1000
0010
,  // measure 25
0002
0000
0100
0000
1003
0000
0001
0010
,  // measure 26
1000
0000
0100
0000
0001
0000
0001
0100
,  // measure 27
1000
0010
0001
1000
,  // measure 28
0001
0011
1000
1010
,  // measure 29
0001
0101
1000
1100
,  // measure 30
0001
0000
0100
0000
0010
1000
0100
0010
,  // measure 31
0001
0001
1000
1000
,  // measure 32
0010
1100
0010
0101
,  // measure 33
1000
0011
0001
1010
,  // measure 34
1000
0000
0100
0000
0001
0100
0001
0100
,  // measure 35
1000
0000
0001
0000
1000
0010
0100
0001
,  // measure 36
1100
0000
0011
0000
1000
0001
1010
0000
,  // measure 37
0101
0000
1000
0100
0010
0001
0100
0010
,  // measure 38
0101
0000
1010
0000
1000
0001
1100
0000
,  // measure 39
0011
0000
1000
0000
0001
0100
0010
1000
,  // measure 40
0110
0000
1001
0000
0001
1000
0110
0000
,  // measure 41
1001
0000
0001
0100
0010
1000
0100
0010
,  // measure 42
0011
0000
1100
0000
0001
1000
0101
0000
,  // measure 43
1010
0000
0001
0100
1000
0100
1000
0100
,  // measure 44
0001
0010
1000
0001
0100
1000
0100
0010
,  // measure 45
0001
0100
1000
0001
0010
1000
0010
0100
,  // measure 46
0001
0010
0100
0010
1000
0010
0100
0010
,  // measure 47
0001
0100
0010
0100
1000
0100
0010
0100
,  // measure 48
0001
0010
1000
0010
0001
0100
1000
0100
,  // measure 49
0001
0010
0100
1000
0100
0001
0100
1000
,  // measure 50
0001
0100
0010
0100
1000
0100
0010
0100
,  // measure 51
0001
0010
0100
1000
0010
0010
1001
0000
,  // measure 52
1000
0100
0010
0100
0001
0100
0010
0100
,  // measure 53
1000
0010
0100
0001
1010
0000
0101
0000
,  // measure 54
0001
0010
0100
1000
0100
0001
0100
1000
,  // measure 55
0010
0001
0010
0100
0001
1000
0001
0000
,  // measure 56
1000
0010
0001
1000
0100
0001
0010
0100
,  // measure 57
1000
0100
0001
0100
1000
0001
0100
0010
,  // measure 58
0100
0001
0010
0100
1000
0100
0001
0100
,  // measure 59
1000
0010
0100
0001
1000
0001
0200
0020
,  // measure 60
0330
0000
0000
0000
;
