#TITLE:Supercalifragilisticexpialidocious;
#SUBTITLE:;
#ARTIST:Go Go Girls;
#TITLETRANSLIT:;
#SUBTITLETRANSLIT:;
#ARTISTTRANSLIT:;
#GENRE:EUROBEAT;
#CREDIT:Graphics made by TonyAkita;
#MUSIC:Supercalifragilisticexpialidocious.ogg;
#BANNER:Supercalifragilisticexpialidocious.png;
#BACKGROUND:Supercalifragilisticexpialidocious-bg.png;
#CDTITLE:;
#SAMPLESTART:18.727;
#SAMPLELENGTH:15.000;
#SELECTABLE:YES;
#OFFSET:1.322;
#BPMS:0.000=155.060
,84.000=154.600
,88.000=155.060
,100.000=155.250
,112.000=155.060
,127.500=154.750
,128.000=155.060
,151.500=155.500
,152.000=118.000
,153.500=115.000
,155.000=113.100
,156.000=114.700
,157.000=114.000
,158.000=113.750
,159.000=115.500
,160.000=112.750
,161.000=113.850
,162.000=114.000
,162.500=113.800
,163.000=120.200
,163.500=121.000
,164.000=120.400
,164.500=119.400
,165.000=120.000
,165.500=120.250
,166.000=120.000
,166.500=122.000
,167.000=125.000
,167.500=124.600
,168.500=125.000
,170.000=126.000
,170.500=125.400
,171.000=131.000
,172.000=130.900
,173.000=128.100
,174.000=129.200
,174.500=129.400
,175.000=135.500
,176.500=135.400
,177.000=135.800
,178.000=134.500
,179.000=140.300
,180.000=139.900
,180.500=138.500
,181.000=140.500
,181.500=140.100
,182.000=140.700
,183.000=145.000
,183.500=147.000
,184.000=144.300
,185.500=144.990
,186.000=144.500
,187.000=149.990
,187.500=150.200
,188.000=150.500
,188.500=148.500
,189.000=149.750
,189.500=150.050
,190.500=151.100
,191.000=155.500
,192.500=155.100
,193.000=154.850
,194.500=153.000
,195.000=161.500
,195.500=161.000
,196.000=160.600
,196.500=159.750
,197.500=160.500
,198.000=161.400
,199.000=162.600
,200.000=166.900
,201.000=164.500
,202.500=165.000
,202.750=164.650
,203.000=168.000
,203.500=169.420
,203.521=169.900
,203.750=170.700
,204.000=170.500
,204.500=170.750
,205.000=170.100
,205.500=170.500
,206.000=171.000
,206.500=170.000
,206.750=169.500
,207.000=174.500
,208.750=174.100
,209.000=175.550
,210.000=175.600
,211.000=179.600
,212.000=180.500
,215.000=184.500
,217.000=184.000
,217.500=183.100
,218.000=187.000
,218.500=187.500
,218.750=185.000
,219.000=189.000
,220.000=191.750
,221.000=190.750
,222.000=190.250
,222.500=189.500
,223.000=195.000
,225.000=195.500
,226.500=192.900
,227.000=200.125
,249.000=200.600
,250.500=200.125
,263.000=200.000
;
#STOPS:;
#DISPLAYBPM:112.000:200.000;
#JACKET:Supercalifragilisticexpialidocious-jacket.png;
#BGCHANGES:;
#FGCHANGES:;

//--------------- dance-single - forcednature ----------------
#NOTES:
     dance-single:
     forcednature:
     Beginner:
     3:
     0,0,0,0,0:
0000
0000
0000
0000
,
0000
0000
0000
0000
,
0000
0000
0000
0000
,
0000
0000
0000
0000
,
0000
0000
0000
0000
,
1000
0000
0001
0000
,
1000
0000
0001
0000
,
0010
0000
0100
0000
,
0010
0000
0010
0000
,
1001
0000
0000
0000
,
0001
0000
0000
0000
,
0010
0000
0000
0000
,
0100
0000
0000
0000
,
1000
0000
0010
0000
,
1000
0000
0000
0000
,
0001
0000
0100
0000
,
0001
0000
0000
0000
,
0010
0000
0001
0000
,
0010
0000
0000
0000
,
0100
0000
1000
0000
,
0100
0000
0000
0000
,
1000
0000
0001
0000
,
1000
0000
0001
0000
,
0100
0000
0010
0000
,
0100
0000
0010
0000
,
1000
0000
0000
0000
,
1000
0000
0000
0000
,
0001
0000
0000
0000
,
1001
0000
0000
0000
,
0001
0000
0001
0000
,
1000
0000
0000
0000
,
1000
0000
0001
0000
,
0100
0000
0100
0000
,
0010
0000
0010
0000
,
0100
0000
0010
0000
,
0100
0000
0010
0000
,
1000
0000
0001
0000
,
0010
0000
0000
0000
,
0000
0000
0000
0100
,
0000
0100
0000
0100
,
0000
0000
0000
1000
,
0000
0001
0000
1000
,
0000
0000
0000
0001
,
0000
1000
0000
0001
,
0000
0000
0000
1000
,
0000
0001
0000
1000
,
0000
0000
0000
0001
,
0000
1000
0000
0001
,
0000
0000
0000
1000
,
0000
0001
0000
1000
,
0000
0000
0000
0001
,
0000
1000
0000
0001
,
0000
0000
0000
1000
,
0000
0001
0000
1000
,
0000
0000
0000
0001
,
0000
1000
0000
0001
,
0000
0000
0000
1000
,
0000
0100
0000
0010
,
0000
0000
0000
0001
,
0000
0100
0000
0010
,
0000
0000
0000
1000
,
0000
0001
0000
0100
,
0000
0000
0000
0001
,
0000
1000
0000
0100
,
0000
0000
0000
0010
,
0000
0001
0000
1000
,
0000
0001
1000
0000
;

//--------------- dance-single - forcednature ----------------
#NOTES:
     dance-single:
     forcednature:
     Easy:
     7:
     0,0,0,0,0:
0000
0000
0000
0000
,
0000
0000
0000
0000
,
0000
0000
0000
0000
,
0000
0000
0000
0000
,
0000
0000
0000
0000
,
0001
1000
0010
0010
,
0001
1000
0010
0010
,
0001
1000
0100
0010
,
0100
1000
1001
0000
,
1000
1000
0001
0001
,
0100
0100
0010
0010
,
1000
0100
0010
0001
,
0100
0010
1001
1001
,
0001
0001
0100
0010
,
1000
0100
0110
0110
,
0010
0010
0100
1000
,
0001
1000
1001
1001
,
1000
0010
0100
0001
,
0100
0010
0110
0110
,
0001
1000
0100
0010
,
0001
1000
1001
1001
,
1000
0010
1000
0010
,
0100
0001
0100
0001
,
0010
0100
0010
0100
,
1000
0001
1001
1001
,
1000
0001
0100
0101
,
1000
0001
0100
0100
,
1000
0001
0100
0100
,
0110
0000
1000
0000
,
0001
0000
0100
0100
,
0110
0000
1000
0000
,
0001
0000
0110
0000
,
1001
1000
0010
0100
,
0100
0100
0100
0000
,
0001
0010
0100
1000
,
0100
0100
0100
0000
,
0010
0001
1000
0010
,
0100
0100
0100
0000
,
0000
0000
0000
1000
,
0001
1000
0001
0100
,
0100
0100
0000
0001
,
1000
0001
1000
0001
,
1000
1001
1001
1000
,
0001
1000
0001
1000
,
0001
1001
1001
0001
,
1000
0001
1000
0001
,
1000
1001
1001
1000
,
0001
1000
0001
1000
,
0001
1001
1001
0001
,
1000
0001
1000
0001
,
1000
1001
1001
1000
,
0001
1000
0001
1000
,
0001
1001
1001
0001
,
1000
0001
1000
0001
,
1000
1001
1001
1000
,
0001
1000
0001
1000
,
0001
1001
1001
0001
,
1000
0001
1000
0001
,
1000
1001
1001
1000
,
0001
1000
0001
1000
,
0001
1001
1001
0001
,
1000
0001
1000
0001
,
1000
1001
1001
1000
,
0001
1000
0001
1000
,
0001
1000
0001
1000
,
0001
1000
0001
1000
,
0001
1001
1001
0000
;

//--------------- dance-single - forcednature ----------------
#NOTES:
     dance-single:
     forcednature:
     Medium:
     12:
     0,0,0,0,0:
0000
0000
0000
0000
,
0000
0000
0000
0000
,
0000
0000
0000
0000
,
0000
0000
0000
0000
,
0000
0000
0000
0000
,
1000
0000
0000
0010
0000
0000
1000
0000
1001
0000
0000
0000
0110
0000
0000
0000
,
0001
0000
0000
0010
0000
0000
0001
0000
1001
0000
0000
0000
0110
0000
0000
0000
,
1000
0000
0000
0100
0000
0000
0010
0000
0001
0000
0000
0100
0000
0000
0010
0000
,
1000
0000
0000
0001
0000
0000
1000
0000
1001
0000
0000
0000
0000
0000
0000
0000
,
0001
0000
0000
0100
0000
0000
0001
0000
0010
0000
0000
0100
0000
0000
1000
0000
,
0010
0000
0000
0100
0000
0000
0001
0000
1000
0000
0000
0100
0000
0000
1000
0000
,
0001
0000
0000
0010
0000
0000
0001
0000
1000
0000
0000
0010
0000
0000
0001
0000
,
0010
0000
0000
0100
0000
0000
0001
0000
1001
0000
0000
0000
0110
0000
0000
0000
,
1000
0100
0010
0001
0100
0010
1000
0001
,
0100
0001
1000
0010
1010
0000
1001
0000
,
0001
0100
0010
1000
0001
1000
0100
0010
,
0001
0100
0010
1000
1100
0000
0011
0000
,
0001
1000
0001
0100
0001
1000
0100
0010
,
0001
0100
0010
1000
1010
0000
0101
0000
,
0001
0010
0001
0100
0010
1000
0100
1000
,
0010
0100
0001
0010
1001
0000
1001
0000
,
1000
0000
0000
0100
0000
0000
0001
0000
0100
0000
0000
0010
0000
0000
0001
0000
,
0100
0000
0000
1000
0000
0000
0100
0000
0010
0000
0000
1000
0000
0000
0001
0000
,
1000
0000
0000
0010
0000
0000
0001
0000
0010
0000
0000
1000
0000
0000
0001
0000
,
0010
0000
0000
1000
0000
0000
0010
0000
0110
0000
0000
0000
1001
0000
0000
0000
,
1000
0100
0010
0001
0100
0010
1000
0000
,
0001
0100
0010
1000
0100
0010
0001
0000
,
1000
0001
1000
0001
0100
0100
0100
0000
,
0110
0000
0000
0001
1000
0000
0000
1000
0100
0000
0000
0100
0010
0000
0000
0010
,
0001
0000
0000
0001
1000
0000
0000
1000
0010
0000
0000
0000
0110
0000
0000
0000
,
0110
0000
0000
0001
0100
0000
0000
0010
1000
0000
0000
0100
0010
0000
0000
0001
,
1000
0000
0000
0010
0100
0000
0000
0000
1001
0000
0000
0000
0000
0000
1000
0000
,
0100
0010
0001
0100
0010
1000
0001
0100
,
0010
1000
0100
0010
0110
0000
1001
0000
,
0001
0010
0001
1000
0010
1000
0100
0010
,
0001
0100
0010
1000
1010
0000
0101
0000
,
1000
0001
0010
0100
1000
0001
0100
0010
,
1000
0100
0010
0001
0100
0000
0110
0000
,
0000
0000
0000
0000
0000
1000
0001
0100
,
0010
1000
0001
0010
0100
1000
0100
0001
,
0100
1000
0100
0000
0000
0000
0010
0001
,
0100
0001
0010
0100
1000
0010
0100
0001
,
1000
0100
0110
0000
1001
0000
0001
0010
,
0001
1000
0010
0100
0001
1000
0100
1000
,
0100
0010
0110
0000
1001
0000
0001
0100
,
0001
1000
0010
1000
0001
0010
0100
1000
,
0010
0100
0110
0000
1001
0000
1000
0010
,
1000
0001
0100
0001
1000
0100
1000
0001
,
0010
0001
1001
0000
0110
0000
0001
0100
,
0010
1000
0100
0010
0001
0100
0010
1000
,
0100
0010
0110
0000
1001
0000
1000
0100
,
1000
0100
0010
0001
0010
0001
0100
0010
,
0100
0010
1001
0000
1001
0000
0001
0100
,
0001
0100
0010
1000
0010
1000
0001
0010
,
0001
0010
0110
0000
1001
0000
1000
0001
,
1000
0001
0010
0100
0010
0100
1000
0001
,
1000
0001
1001
0000
0110
0000
1000
0100
,
1000
0100
1000
0001
1000
0001
0100
0001
,
0100
0001
0101
0000
1010
0000
0001
0010
,
0001
0010
0001
1000
0001
1000
0010
1000
,
0010
1000
1010
0000
0101
0000
1000
0100
,
0010
0001
0100
0010
1000
0100
0010
0001
,
0100
0010
0110
0000
1001
0000
0001
0100
,
0001
0100
0010
1000
0010
1000
0001
0010
,
0001
0010
0100
1000
0100
1000
0010
0100
,
0010
0100
0001
1000
0001
1000
0100
0010
,
0100
0010
0110
0000
1001
0000
0000
0000
;

//--------------- dance-single - forcednature ----------------
#NOTES:
     dance-single:
     forcednature:
     Hard:
     15:
     0,0,0,0,0:
0000
0000
0000
0000
,
0000
0000
0000
0000
,
0000
0000
0000
0000
,
0000
0000
0000
0000
,
0000
0000
0000
0000
,
1000
0001
0000
0100
0000
0001
1000
0000
1001
0000
0000
0000
0110
0000
0000
0000
,
0001
1000
0000
0100
0000
1000
0001
0000
1001
0000
0000
0000
0110
0000
0000
0000
,
1000
0010
0000
1000
0000
0001
0010
0000
0100
1000
0000
0001
0000
0100
0001
0000
,
1000
0100
0000
0010
0000
0001
0100
0000
1001
0000
0000
0000
0000
0000
0000
0000
,
0001
0000
0000
0100
0000
0010
1000
0010
1000
0010
0000
0100
0000
0001
0010
0000
,
0100
0000
0000
1000
0000
0001
0010
0001
0010
0001
0000
0100
0000
0010
1000
0000
,
0100
0000
0000
1000
0000
0001
0100
0001
0100
0001
0000
0010
0000
0100
1000
0100
,
1000
0100
0000
0010
0000
0001
1000
0000
1001
0000
0000
0000
0110
0000
0000
0000
,
1000
0100
0001
0100
0010
0001
0100
1000
,
0100
0000
0010
0000
1000
0000
0001
0000
1000
0010
1000
0010
0100
0001
0100
0000
,
0001
0010
1000
0010
0100
1000
0001
0100
,
0010
0000
1000
0000
0010
0000
0001
0000
0010
0100
0010
0100
0001
1000
0001
0000
,
0010
0001
1000
0100
0001
0100
0010
1000
,
0010
0000
0001
0000
1000
0000
0010
0000
1000
0001
1000
0001
0100
0010
0100
0000
,
0010
1000
0100
0000
0010
0001
0100
0000
0001
0010
0100
0000
1000
0100
0010
0000
,
0001
1000
0100
0000
1000
0001
0100
0000
0110
0000
0000
0000
1001
0000
0000
0000
,
0001
0000
0000
1000
0000
0100
0010
0100
0010
0100
0000
1000
0000
0010
0100
0000
,
0001
0000
0000
0010
0000
0001
1000
0001
1000
0001
0000
0100
0000
0010
1000
0000
,
0100
0000
0000
1000
0000
0001
0100
0001
0100
0001
0000
0010
0000
0001
1000
0001
,
1000
0001
0000
1000
0000
0100
0010
0000
0110
0000
0000
0000
1001
0000
0000
0000
,
1000
1000
1000
0100
1000
1000
0100
0000
,
0001
0001
0001
0100
0001
0001
0100
0000
,
1000
1000
1000
0001
1000
1000
0001
0000
,
1002
0100
0023
1000
,
0230
0001
2300
0010
,
3020
0001
0230
1000
,
0320
0000
0001
0030
0110
0000
0000
0001
,
0100
0010
1000
0100
0001
0100
1000
0001
,
0100
0010
1000
0100
0110
0000
1001
0001
,
0100
1000
0100
0001
0010
1000
0010
0100
,
1000
0001
0010
0100
0110
0000
1001
1000
,
0010
0001
1000
0100
0001
1000
0100
0010
,
0001
0100
1000
0100
0001
0000
0110
0000
,
0000
0000
0000
0000
0000
1000
0001
0100
,
0001
1000
0100
1000
0001
1000
0010
0001
,
0010
0100
0010
0000
0010
0000
1000
0100
,
0010
0001
0100
1000
0100
0001
0010
0100
,
1000
0000
0001
0000
1000
0010
0100
0001
0100
0010
1000
0000
0001
0000
0010
0000
,
0100
1000
0100
0001
0100
1000
0010
0100
,
0001
0000
0010
0000
0100
1000
0100
0010
0001
0010
0100
0000
1000
0000
0010
0000
,
0001
0010
1000
0100
0001
0100
1000
0001
,
0100
0000
0010
0000
1000
0100
0010
0001
0010
0100
1000
0000
0001
0100
0010
1000
,
0010
0100
0001
0000
1000
0001
1000
0100
1000
0001
1000
0000
0001
0010
0100
0010
,
0001
1000
0100
0000
0010
0000
0000
0000
1001
0000
0000
0000
0001
0000
0100
0000
,
0010
1000
0100
0010
1000
0010
0001
1000
,
0010
0000
0100
0000
0001
0100
0001
0100
0010
1000
0010
0000
1000
0000
0100
0000
,
0001
0100
0010
0001
1000
0010
0001
0010
,
0100
0000
0001
0000
1000
0100
1000
0100
0010
0001
0010
0000
0100
0000
0001
0000
,
0100
1000
0010
0100
0001
1000
0010
0001
,
0010
0000
1000
0000
0001
0010
0001
0010
0001
1000
0001
0000
1000
0010
1000
0010
,
0100
0010
0100
0000
0001
1000
0001
1000
0100
1000
0100
0000
0010
0001
0010
0001
,
1000
0001
1000
0000
0010
0000
0000
0000
1001
0000
0000
0000
0001
0000
0100
0000
,
1000
0100
0001
0010
1000
0010
0100
0010
,
0001
0000
1000
0000
0100
1000
0100
1000
0100
1000
0100
0000
0010
0000
0001
0000
,
1000
0001
0100
1000
0100
0010
1000
0100
,
0010
0000
0001
0000
0100
0001
0100
0001
0100
0001
0100
0000
0010
0000
1000
0000
,
0001
0010
0100
0001
0100
1000
0010
0100
,
0001
0000
1000
0000
0100
0010
0100
0010
0100
0010
0100
0000
1000
0001
1000
0001
,
1000
0001
1000
0000
0001
0100
0001
0100
0001
0100
0001
0000
1000
0010
1000
0010
,
1000
0010
1000
0000
0001
0010
0001
0010
0001
0010
0001
0000
1000
0001
1000
0001
,
1000
0001
1000
0000
0001
1000
0001
1000
0001
1000
0001
0000
1000
0001
1000
0001
,
1000
0001
1000
0000
0100
0000
0000
0000
1001
0000
0000
0000
0000
0000
0000
0000
;

//--------------- dance-single - forcednature ----------------
#NOTES:
     dance-single:
     forcednature:
     Challenge:
     17:
     0,0,0,0,0:
0000
0000
0000
0000
,
0000
0000
0000
0000
,
0000
0000
0000
0000
,
0000
0000
0000
0000
,
0000
0000
MMMM
MMMM
,
0001
0100
0000
0010
0000
1000
0001
0000
1001
0000
0000
0000
0110
0000
0000
0000
,
1000
0100
0000
0010
0000
0001
0100
0000
0010
1000
0001
0100
0001
0010
0100
1000
,
0001
0100
0010
1000
0100
1000
0100
0010
0001
0010
0001
0100
0010
1000
0001
1000
,
0100
0010
0000
0001
0000
0100
0010
0000
1001
0000
0000
0000
0000
0000
0000
0000
,
1000
0000
0000
0001
0000
0100
0001
1000
0010
1000
0000
0100
0000
0010
0001
0100
,
0001
0000
0000
1000
0000
0010
0100
0001
0010
0100
0000
1000
0000
0010
0100
0000
,
0001
0000
0000
1000
0000
0100
1000
0001
0100
0010
0000
1000
0000
0100
0010
0001
,
0100
0001
0000
1000
0000
0010
0100
0000
0110
0000
0000
0000
1001
0000
0000
0000
,
0001
0100
0010
1000
0100
0001
0100
1000
,
0010
0000
0100
0000
0001
0000
1000
0000
0100
1000
0001
0010
0001
0100
0010
0000
,
1000
0010
0100
0001
1000
0010
0001
0010
,
1000
0000
0100
0000
0010
0000
0001
0000
0100
0010
1000
0001
0010
0100
1000
0000
,
0001
0100
1000
0100
0001
0010
1000
0010
,
0100
0000
1000
0000
0010
0000
0100
0000
0001
0010
0001
1000
0010
0100
0010
1000
,
0100
0010
0001
0100
0010
1000
0100
0010
0001
1000
0010
1000
0100
0010
0001
1000
,
0001
0100
0010
1000
0001
0010
0001
0000
0110
0000
0000
0000
1001
0000
0000
0000
,
1000
0000
0000
0001
0000
0100
0001
1000
0001
0010
0000
0100
0000
1000
0010
1000
,
0001
0000
0000
0100
0000
0010
1000
0100
0010
0001
0000
0100
0000
0001
0010
0000
,
0100
0000
0000
1000
0000
0001
0100
0001
1000
0100
0000
0010
0000
0001
1000
0010
,
1000
0001
0000
1000
0000
0100
0010
0000
0110
0000
0000
0000
1001
0000
0000
0000
,
1000
0000
0001
0100
0001
0100
0001
0100
0010
0000
0100
0001
0100
0000
0000
0000
,
0010
0000
1000
0100
1000
0100
1000
0100
0010
0000
0100
1000
0100
0000
0000
0000
,
1000
0000
0010
0100
0010
0100
0010
0100
0001
0000
0100
0010
0100
0000
0000
0000
,
0110
0000
1000
0001
1000
0000
0000
0010
0100
0000
0001
0010
0001
0000
0000
0010
,
0100
0000
1000
0001
1000
0000
0000
0010
1000
0000
0001
0100
0001
0000
0000
0000
,
1001
0000
1000
0010
0000
1000
0001
0000
0010
0000
0001
0100
0000
0010
1000
0000
,
0100
0000
0010
0001
0000
1000
0001
0000
2002
0000
0000
0000
3003
0000
1000
0000
,
0100
0001
0100
0010
0001
1000
0010
0001
,
0010
0100
0010
1000
1001
0000
MMMM
0001
,
1000
0010
0100
0001
0010
1000
0010
0100
,
1000
0010
0001
0010
0110
0000
MMMM
1000
,
0001
1000
0100
0010
0001
0010
1000
0010
,
0001
0100
1000
0100
0010
0000
1001
0000
,
0000
0000
0000
MMMM
0000
1000
0001
0100
,
0001
1000
0010
0001
0010
1000
0100
0010
,
0001
0100
2002
0000
3003
0000
1000
0100
,
1000
0010
0001
0010
0100
0001
0010
0100
,
1000
0000
0001
0000
1000
0010
0100
0010
1000
0001
0010
0000
0100
0000
1000
0000
,
0001
0100
1000
0100
0010
1000
0100
0010
,
0001
0000
0100
0000
0010
1000
0001
0100
0001
0010
0100
0000
1000
0000
0001
0000
,
1000
0010
0100
0001
0010
1000
0010
0100
,
1000
0000
0001
0000
0100
0001
1000
0010
1000
0100
0010
0001
0010
0001
0100
0010
,
1000
0100
1000
0010
0100
0001
0010
0001
1000
0100
0010
0100
1000
0010
1000
0100
,
0010
0001
0100
0010
1000
0000
0000
0000
1001
0000
0000
0000
0001
0000
0100
0000
,
1000
0100
0001
0010
1000
0010
0100
1000
,
0010
0000
0100
0000
0001
0010
0100
1000
0010
0100
0010
0000
1000
0000
0001
0000
,
0100
0001
1000
0100
0001
0100
1000
0010
,
0100
0000
0001
0000
0010
0100
1000
0010
0100
0001
0010
0000
0100
0000
1000
0000
,
0100
0001
0100
0010
0001
1000
0010
0100
,
0001
0000
1000
0000
0100
1000
0001
1000
0010
0100
0001
0100
0010
1000
0001
0010
,
0100
1000
0001
0100
0010
1000
0010
0100
0001
1000
0100
0010
0100
1000
0100
0010
,
0001
0100
0010
1000
0001
0000
0000
0000
1001
0000
0000
0000
0001
0000
0100
0000
,
0001
0010
0001
0100
1000
0100
0010
1000
,
0010
0000
0100
0000
0001
1000
0100
0010
0001
1000
0100
0000
0010
0000
0001
0000
,
0010
1000
0010
0100
1000
0001
0010
0001
,
0100
0000
0010
0000
1000
0010
0100
0001
1000
0010
0100
0000
0010
0000
1000
0000
,
0010
0100
0001
0010
1000
0010
0100
1000
,
0010
0000
1000
0000
0100
0010
0001
1000
0100
0010
0001
0000
0100
0010
1000
0001
,
0100
0010
1000
0001
0010
0100
1000
0001
0010
0100
1000
0000
0001
0100
0010
1000
,
0010
0100
0001
1000
0100
0010
0001
1000
0001
0100
0010
0000
1000
0100
0010
0001
,
1000
0001
0100
0010
1000
0010
0100
0001
0010
0100
1000
0000
0001
0100
0010
1000
,
0100
0010
0001
0000
0100
0000
0000
0000
1001
0000
0000
0000
0000
0000
0000
0000
;

//--------------- dance-double - forcednature ----------------
#NOTES:
     dance-double:
     forcednature:
     Easy:
     11:
     0,0,0,0,0:
00000000
00000000
00000000
00000000
,
00000000
00000000
00000000
00000000
,
00000000
00000000
00000000
00000000
,
00000000
00000000
00000000
00000000
,
00000000
00000000
00000000
00000000
,
00001000
00010000
00110000
00110000
,
01000000
10000000
01100000
01100000
,
00010000
01000000
00001000
00010000
,
00000010
00000100
00001001
00000000
,
00000001
00000000
00000000
00000100
00000000
00000000
00000001
00000000
00000010
00000000
00000000
00000000
00000100
00000000
00001000
00000000
,
00000010
00000000
00000000
00010000
00000000
00000000
00001000
00000000
00100000
00000000
00000000
00000000
00010000
00000000
10000000
00000000
,
00100000
00000000
00000000
01000000
00000000
00000000
00010000
00000000
10000000
00000000
00000000
00000000
01000000
00000000
00100000
00000000
,
00010000
01000000
00011000
00001100
,
00000001
00000100
00000001
00000100
00000001
00000100
00000001
00000100
,
00000001
00000100
00000001
00000100
00000010
00000000
00001000
00000000
,
00000100
00000010
00000100
00000010
00000100
00000010
00000100
00000010
,
00000100
00000010
00000100
00000010
00000001
00000000
00001000
00000000
,
00000100
00010000
00000100
00010000
00000100
00010000
00000100
00010000
,
00000100
00010000
00000100
00010000
00001000
00000000
01000000
00000000
,
00010000
10000000
00010000
10000000
00010000
10000000
00010000
10000000
,
00010000
10000000
00010000
10000000
00100000
00000000
01000000
00000000
,
00010000
00000000
00000000
00100000
00000000
00000000
01000000
00000000
10000000
00000000
00000000
00000000
00010000
00000000
01000000
00000000
,
00001000
00000000
00000000
00010000
00000000
00000000
00000100
00000000
00001000
00000000
00000000
00000000
00000010
00000000
00000100
00000000
,
00000001
00000000
00000000
00000010
00000000
00000000
00000100
00000000
00010000
00000000
00000000
00000000
00001000
00000000
00100000
00000000
,
01000000
10000000
10010000
01100000
,
10000000
01000000
10000000
00000000
00100000
00000000
00010000
00000000
,
00001000
00000100
00001000
00000000
00010000
00000000
00001000
00000000
,
00000010
00000001
00000010
00000000
00000100
00000000
00001000
00000000
,
00001001
00000001
00000100
00001000
,
00010000
01000000
10000000
10010000
,
10010000
10000000
01000000
00010000
,
00001000
00000100
00001001
00000000
,
00000110
00000001
00001000
00000100
,
00010000
00001000
00010000
00001000
00010000
00000000
00000000
00000000
,
00100000
01000000
00010000
10000000
,
01000000
00100000
01000000
00100000
01000000
00000000
00000000
00000000
,
00010000
00001000
00000100
00000010
,
00001000
00000001
00001000
00000001
00001000
00000000
00000000
00000000
,
00000000
00000000
00000000
00000010
,
00000100
00000000
00000001
00000000
00001000
00000000
00000100
00010000
,
00000100
00010000
00001000
00000000
00000000
00000000
00100000
00001000
,
00100000
00001000
00100000
00001000
00100000
00001000
00100000
00001000
,
00100000
00001000
01000000
00000000
00010000
00000000
10000000
01000000
,
10000000
01000000
10000000
01000000
10000000
01000000
10000000
01000000
,
10000000
01000000
00100000
00000000
00001000
00000000
00010000
00000010
,
00010000
00000010
00010000
00000010
00010000
00000010
00010000
00000010
,
00010000
00000010
00001000
00000000
00000001
00000000
00000010
00000100
,
00000010
00000100
00000010
00000100
00000010
00000100
00000010
00000100
,
00000010
00000100
00001000
00000000
00000001
00000000
00001000
00000100
,
00001000
00000100
00001000
00000100
00001000
00000100
00001000
00000100
,
00001000
00000100
00010000
00000000
00001000
00000000
00100000
00010000
,
00100000
00010000
00100000
00010000
00100000
00010000
00100000
00010000
,
00100000
00010000
01000000
00000000
00100000
00000000
10000000
00010000
,
10000000
00010000
10000000
00010000
10000000
00010000
10000000
00010000
,
10000000
00010000
01000000
00000000
00001000
00000000
00010000
00000010
,
00010000
00000010
00010000
00000010
00010000
00000010
00010000
00000010
,
00010000
00000010
00001000
00000000
00000001
00000000
00000100
00000010
,
00000100
00000010
00000100
00000010
00000100
00000010
00000100
00000010
,
00000100
00000010
00001000
00000000
00000100
00000000
00010000
00001000
,
00010000
00001000
00010000
00001000
00010000
00001000
00010000
00001000
,
00010000
00001000
00100000
00000000
01000000
00000000
10000000
00010000
,
10000000
00010000
10000000
00010000
10000000
00010000
10000000
00010000
,
10000000
00010000
10000000
00000000
00100000
00000000
01000000
00001000
,
01000000
00001000
01000000
00001000
01000000
00001000
00010000
00001000
,
00010000
00001000
00010000
00001000
00010000
00001000
00010000
00000100
,
00010000
00000100
00010000
00000100
00010000
00000100
00001000
00000001
,
00001000
00000001
00000010
00000000
00000100
00000000
00000000
00000000
;

//--------------- dance-double - forcednature ----------------
#NOTES:
     dance-double:
     forcednature:
     Medium:
     15:
     0,0,0,0,0:
00000000
00000000
00000000
00000000
,
00000000
00000000
00000000
00000000
,
00000000
00000000
00000000
00000000
,
00000000
00000000
00000000
00000000
,
00000000
00000000
00000000
00000000
,
00001000
00000000
00000000
00010000
00000000
00000000
00000100
00000000
00010100
00000000
00000000
00000000
00101000
00000000
00000000
00000000
,
00010000
00000000
00000000
00001000
00000000
00000000
01000000
00000000
01001000
00000000
00000000
00000000
00010010
00000000
00000000
00000000
,
00000100
00000000
00000000
00010000
00000000
00000000
00001000
00000000
00100000
00000000
00000000
01000000
00000000
00000000
10000000
00000000
,
00010000
00000000
00000000
01000000
00000000
00000000
00001000
00000000
00011000
00000000
00000000
00000000
00000000
00000000
00000000
00000000
,
00000001
00000000
00000000
00000100
00000000
00000000
00010000
00000000
00000100
00000000
00000000
00000010
00000000
00000000
00001000
00000000
,
00000100
00000000
00000000
00010000
00000000
00000000
01000000
00000000
10000000
00000000
00000000
00010000
00000000
00000000
01000000
00000000
,
00100000
00000000
00000000
00010000
00000000
00000000
00001000
00000000
00000010
00000000
00000000
00000001
00000000
00000000
00000100
00000000
,
00000010
00000000
00000000
00001000
00000000
00000000
00000001
00000000
00000110
00000000
00000000
00000000
00001001
00000000
00000000
00000000
,
00000001
00000100
00000010
00001000
00000100
00000010
00001000
00010000
,
01000000
00100000
00010000
10000000
00100000
00000000
10010000
00000000
,
10000000
00100000
00010000
00001000
00100000
01000000
00010000
00001000
,
00000010
00000100
00010000
00001000
00000100
00000000
00001001
00000000
,
00000001
00000100
00001000
00000100
00010000
00001000
00100000
00010000
,
00100000
10000000
01000000
00100000
00001000
00000000
01100000
00000000
,
10000000
00010000
00100000
10000000
00010000
01000000
00001000
00010000
,
00000010
00001000
00000010
00000001
00000100
00000000
00001001
00000000
,
00000001
00000000
00000000
00001000
00000000
00000000
00000100
00000000
00010000
00000000
00000000
00100000
00000000
00000000
01000000
00000000
,
00010000
00000000
00000000
10000000
00000000
00000000
01000000
00000000
00010000
00000000
00000000
00001000
00000000
00000000
00000100
00000000
,
00000001
00000000
00000000
00001000
00000000
00000000
00000100
00000000
00010000
00000000
00000000
01000000
00000000
00000000
00001000
00000000
,
00000100
00000000
00000000
00000010
00000000
00000000
00000001
00000000
00000110
00000000
00000000
00000000
00001001
00000000
00000000
00000000
,
00000001
00000100
00000010
00001000
00100000
10000000
01000000
00000000
,
10000000
01000000
00100000
00010000
00000010
00000001
00000100
00000000
,
00000001
00000100
00000010
00001000
00100000
10000000
01000000
00000000
,
10010000
10000000
01000000
00010000
00001000
00000010
00000100
00001000
,
00010000
00100000
01000000
00010000
00001000
00000010
00000100
00001000
,
01000000
00010000
00000100
00010000
00000010
00010000
00100000
00010000
,
00001000
00000100
00000001
00000010
00000100
00000000
00000000
00001000
,
00000100
00000001
00000100
00010000
00001000
01000000
00100000
00001000
,
00100000
10000000
01000000
00100000
10010000
00000000
00000000
10000000
,
00100000
00001000
00100000
00010000
00000100
00001000
01000000
00010000
,
00001000
00000010
00000001
00000100
00001001
00000000
00000000
00000001
,
00001000
00000100
00000010
00010000
00100000
01000000
00010000
10000000
,
00100000
00001000
00010000
00000010
00001001
00000000
00000110
00000000
,
00000000
00000000
00000000
00000000
00000000
00000001
00000100
00000010
,
00001000
00010000
01000000
00100000
10000000
01000000
00100000
00010000
,
00001000
00000100
00001001
00000000
00000000
00000000
00000001
00000100
,
00001000
00000100
00010000
01000000
00100000
10000000
00010000
00100000
,
00001000
00000010
00000100
00000000
00001001
00000000
00001000
00000100
,
00010000
00100000
01000000
00001000
00100000
10000000
00100000
01000000
,
00010000
00000100
00001000
00000000
00000110
00000000
00000001
00001000
,
00000010
00000100
00010000
01000000
00010000
00100000
00001000
00000010
,
00000001
00001000
00010000
00000000
01100000
00000000
10000000
00010000
,
01000000
00001000
00000010
00010000
00100000
00001000
00000100
00000001
,
00001000
00000100
00000010
00000000
00011000
00000000
00100000
00010000
,
01000000
10000000
00010000
00100000
00001000
00000100
00000010
00010000
,
00000001
00000100
00001000
00000000
00000110
00000000
00000001
00001000
,
00010000
00100000
01000000
00001000
00010000
10000000
00100000
00010000
,
00000010
00001000
00000100
00000000
00001001
00000000
00001000
00000100
,
00010000
00100000
01000000
00010000
10000000
00100000
00010000
10000000
,
00010000
00001000
00000100
00000000
00001001
00000000
00000001
00000100
,
00000010
00000001
00001000
00000100
00010000
00100000
01000000
00001000
,
00010000
00100000
10000000
00000000
01100000
00000000
10000000
01000000
,
00001000
00010000
00100000
00001000
00010000
00000010
00000001
00001000
,
00000100
00000010
00010000
00000000
00001001
00000000
00010000
00000100
,
00001000
01000000
10000000
00010000
01000000
00001000
00000010
00000100
,
00010000
00000010
00000001
00000000
00000110
00000000
00001000
00000100
,
00010000
00000010
00001000
00100000
01000000
00001000
00100000
10000000
,
00010000
01000000
00001000
00000000
10010000
00000000
10000000
00010000
,
01000000
00100000
00001000
00000100
00000010
00010000
00001000
00000100
,
00010000
00100000
01000000
00001000
00100000
00010000
00000010
00001000
,
00010000
00000100
00000001
00001000
00000010
00010000
00100000
01000000
,
10000000
00010000
00001000
00000000
01100000
00000000
00000000
00000000
;

//--------------- dance-double - forcednature ----------------
#NOTES:
     dance-double:
     forcednature:
     Hard:
     15:
     0,0,0,0,0:
00000000
00000000
00000000
00000000
,
00000000
00000000
00000000
00000000
,
00000000
00000000
00000000
00000000
,
00000000
00000000
00000000
00000000
,
00000000
00000000
00000000
00000000
,
00001000
00010000
00000000
00000100
00000000
00010000
00001000
00000000
00011000
00000000
00000000
00000000
00101000
00000000
00000000
00000000
,
10000000
00010000
00000000
00100000
00000000
01000000
10000000
00000000
10010000
00000000
00000000
00000000
01010000
00000000
00000000
00000000
,
00001000
00010000
00000000
00000100
00000000
00010000
00001000
00000000
00000010
00000001
00000000
00000100
00000000
00000010
00001000
00000000
,
00000001
00000100
00000000
00001000
00000000
00010000
00000100
00000000
00011000
00000000
00000000
00000000
00000000
00000000
00000000
00000000
,
00101000
00000000
00000000
00101000
00000000
00100000
00010000
00000000
10000000
00100000
00000000
01000000
00000000
00001000
00010000
00000000
,
00010100
00000000
00000000
00010100
00000000
00000001
00001000
00000000
00000010
00000100
00000000
00000001
00000000
00000010
00001000
00000000
,
00011000
00000000
00000000
00010100
00000000
00010000
00001000
00000000
00100000
01000000
00000000
00010000
00000000
01000000
10000000
00000000
,
00100000
00010000
00000000
00001000
00000000
00000010
00000001
00000000
00001001
00000000
00000000
00000000
00000110
00000000
00000000
00000000
,
00000001
00000100
00001000
00010000
01000000
10000000
00010000
00100000
,
00001000
00000000
00010000
00000000
00000100
00000000
00001000
00000000
00000001
00000010
00000100
00001000
00000100
00000010
00000001
00000000
,
00000100
00000010
00010000
00001000
01000000
00100000
00010000
00100000
,
10000000
00000000
01000000
00000000
00010000
00000000
00001000
00000000
01000000
00010000
10000000
00100000
10000000
00010000
01000000
00000000
,
00100000
00010000
00001000
00000010
00000100
00010000
00001000
01000000
,
00010000
00000000
10000000
00000000
00100000
00000000
01000000
00000000
00010000
00100000
00001000
00010000
00001000
00100000
00010000
00000000
,
01000000
00001000
00010000
00000100
00010000
00001000
01000000
00000000
00001000
00010000
00000100
00001000
00000100
00010000
00001000
00000000
,
00000010
00000001
00000100
00000010
00000100
00000001
00000010
00000000
00000110
00000000
00000000
00000000
00001001
00000000
00000000
00000000
,
00001010
00000000
00000000
00001010
00000000
00001000
00000001
00000000
00000100
00000010
00000000
00010000
00000000
00001000
00100000
00000000
,
01100000
00000000
00000000
01100000
00000000
01000000
10000000
00000000
00010000
00100000
00000000
00001000
00000000
00010000
00000010
00000000
,
00000110
00000000
00000000
00000110
00000000
00000001
00001000
00000000
00000100
00010000
00000000
00001000
00000000
01000000
00010000
00000000
,
10000000
00100000
00000000
00010000
00000000
00001000
00100000
00000000
01100000
00000000
00000000
00000000
10010000
00000000
00000000
00000000
,
10000000
01000000
00100000
00010000
00001000
00000100
00000010
00000000
,
00000001
00000100
00000010
00001000
00010000
01000000
00100000
00000000
,
10000000
01000000
00010000
00001000
00000100
00000001
00000010
00000000
,
00020100
01000000
00032000
00000100
,
00023000
01000000
00032000
00000100
,
00023000
00100000
00032000
00000010
,
00023000
00000000
00100000
00030000
00011000
00000000
00000000
00001000
,
00100000
01000000
00010000
10000000
00100000
00010000
01000000
00001000
,
00000100
00000001
00000010
00000100
00001001
00000000
00000110
00000001
,
00001000
00000100
00000010
00001000
00100000
00010000
01000000
10000000
,
00010000
00100000
10000000
01000000
10010000
00000000
01100000
10000000
,
00010000
01000000
00100000
00001000
00000010
00000100
00001000
00010000
,
00000100
00000001
00001000
00000010
00000110
00000000
00001001
00000000
,
00000000
00000000
00000000
00000000
00000000
00000001
00001000
00000100
,
00010000
01000000
10000000
00010000
01000000
00100000
00010000
00000100
,
00000010
00001000
00010000
00000000
00000000
00000000
00000100
00001000
,
00000001
00000010
00001000
00010000
00100000
10000000
00010000
01000000
,
00100000
00000000
10000000
00000000
01000000
00100000
00010000
10000000
01000000
00100000
00010000
00000000
01000000
00000000
00001000
00000000
,
00010000
00000100
00001000
00000010
00000001
00000010
00000100
00001000
,
00010000
00000000
00000100
00000000
00001000
00000010
00000100
00000001
00001000
00000010
00000100
00000000
00000001
00000000
00000010
00000000
,
00001000
00010000
00000100
00010000
00001000
01000000
00100000
10000000
,
00010000
00000000
00100000
00000000
01000000
10000000
00010000
00100000
01000000
10000000
00010000
00000000
00100000
00001000
01000000
00010000
,
00100000
00001000
01000000
00000000
00001000
00010000
00000100
00000010
00001000
00010000
00000100
00000000
00000010
00000001
00001000
00000100
,
00000010
00000001
00001000
00000000
00000010
00000000
00000000
00000000
00001001
00000000
00000000
00000000
00000001
00000000
00000100
00000000
,
00001000
00000100
00001000
00010000
01000000
10000000
00100000
00010000
,
00001000
00000000
00010000
00000000
00000100
00010000
00000100
00010000
00001000
00100000
00001000
00000000
01000000
00000000
00100000
00000000
,
10000000
00010000
00100000
00001000
00010000
00000010
00000100
00000001
,
00000100
00000000
00001000
00000000
00010000
00000010
00010000
00000010
00000100
00000001
00000100
00000000
00000010
00000000
00001000
00000000
,
00000100
00010000
00001000
01000000
00010000
10000000
01000000
00100000
,
00010000
00000000
10000000
00000000
00100000
01000000
00100000
01000000
00010000
10000000
00010000
00000000
00100000
00001000
00100000
00001000
,
00010000
00001000
00010000
00000000
00000100
00001000
00000100
00001000
00000010
00001000
00000010
00000000
00000100
00000001
00000100
00000001
,
00000010
00000001
00000010
00000000
00000100
00000000
00000000
00000000
00001001
00000000
00000000
00000000
00000001
00000000
00000100
00000000
,
00000010
00001000
00000100
00010000
00001000
01000000
00010000
10000000
,
01000000
00000000
00100000
00000000
00010000
10000000
00010000
10000000
00010000
10000000
00010000
00000000
01000000
00000000
00001000
00000000
,
00010000
00000100
00010000
00001000
00100000
00001000
00010000
00000010
,
00001000
00000000
00000001
00000000
00000010
00000100
00000010
00000100
00000010
00000100
00000010
00000000
00000001
00000000
00000100
00000000
,
00000010
00010000
00001000
00100000
00010000
10000000
00100000
01000000
,
00010000
00000000
10000000
00000000
01000000
10000000
01000000
10000000
01000000
10000000
01000000
00000000
00100000
00010000
00100000
00010000
,
00100000
00010000
00100000
00000000
00001000
00010000
00001000
00010000
00001000
00010000
00001000
00000000
01000000
00001000
01000000
00001000
,
01000000
00001000
01000000
00000000
00000100
00010000
00000100
00010000
00000100
00010000
00000100
00000000
00001000
00000001
00001000
00000001
,
00001000
00000001
00001000
00000000
00000010
00000100
00000010
00000100
00000010
00000100
00000010
00000000
00001000
00000100
00001000
00000100
,
00001000
00000100
00001000
00000000
00000001
00000000
00000000
00000000
00001001
00000000
00000000
00000000
00000000
00000000
00000000
00000000
;

//--------------- dance-double - forcednature ----------------
#NOTES:
     dance-double:
     forcednature:
     Challenge:
     17:
     0,0,0,0,0:
00000000
00000000
00000000
00000000
,
00000000
00000000
00000000
00000000
,
00000000
00000000
00000000
00000000
,
00000000
00000000
00000000
00000000
,
00000000
00000000
0000MMMM
MMMM0000
,
00001000
00010000
00000000
00100000
00000000
10000000
01000000
00000000
0011MMMM
00000000
00000000
00000000
MMMM1100
00000000
00000000
00000000
,
00000001
00001000
00000000
00000100
00000000
00010000
00001000
00000000
0100MMMM
00100000
00010000
00001000
MMMM0010
00000100
00001000
00000100
,
00000010
00000001
00000100
00000010
00001000
00000100
00001000
00000010
00010000
00001000
01000000
00010000
00100000
01000000
10000000
00010000
,
01000000
00001000
00000000
00010000
00000000
00100000
00010000
00000000
00011000
00000000
00000000
00000000
00000000
00000000
00000000
00000000
,
00001000
00000000
00000000
00010000
00000000
00000100
00001000
00000001
00000010
00000001
00000000
00000100
00000000
00000010
00010000
00001000
,
00010000
00000000
00000000
01000000
00000000
10000000
00010000
01000000
00100000
10000000
00000000
01000000
00000000
00100000
00001000
00000000
,
00010000
00000000
00000000
00000100
00000000
00001000
00000001
00000100
00000010
00001000
00000000
00000100
00000000
00010000
00001000
00100000
,
01000000
10000000
00000000
00100000
00000000
01000000
00001000
00000000
00011000
00000000
00000000
00000000
00010100
00000000
00000000
00000000
,
00010000
00001000
00000010
00000001
00000100
00010000
01000000
00100000
,
10000000
00000000
01000000
00000000
00010000
00000000
00001000
00000000
00000100
00000010
00001000
00000001
00000010
00000100
00001000
00000000
,
00000010
00010000
00100000
01000000
00010000
10000000
01000000
00010000
,
00001000
00000000
00100000
00000000
00001000
00000000
00000010
00000000
00000001
00000100
00000010
00001000
00000010
00010000
00001000
00000000
,
00010000
01000000
10000000
00100000
00010000
00001000
00000010
00000100
,
00010000
00000000
00001000
00000000
01000000
00000000
00100000
00000000
10000000
01000000
00100000
00010000
01000000
00010000
10000000
00100000
,
01000000
00001000
00010000
00001000
00010000
00000010
00001000
00000010
00000100
00000001
00001000
00000100
00000010
00000001
00000100
00000010
,
00010000
00000100
00010000
00001000
00100000
00010000
01000000
00000000
01100000
00000000
00000000
00000000
10010000
00000000
00000000
00000000
,
00001000
00000000
00000000
00010000
00000000
00000100
00001000
00000001
00001000
00000010
00000000
00010000
00000000
00001000
00100000
01000000
,
10000000
00000000
00000000
00100000
00000000
01000000
00010000
00100000
00001000
00010000
00000000
00000100
00000000
00001000
00000001
00000000
,
00000100
00000000
00000000
00000010
00000000
00001000
00000100
00000010
00000001
00000100
00000000
00000010
00000000
00001000
00000100
00010000
,
00001000
00100000
00000000
00010000
00000000
00100000
01000000
00000000
01100000
00000000
00000000
00000000
10010000
00000000
00000000
00000000
,
10000000
00000000
00010000
01000000
00010000
01000000
00010000
01000000
00001000
00000000
00010000
00000100
00010000
00000000
00000000
00000000
,
00000010
00000000
00001000
00000001
00001000
00000001
00001000
00000001
00000010
00000000
00000100
00001000
00000100
00000000
00000000
00000000
,
00010000
00000000
00001000
01000000
00001000
01000000
00001000
01000000
00100000
00000000
10000000
00010000
10000000
00000000
00000000
00000000
,
00011000
00000000
00100000
00010000
00100000
00000000
00000000
00001000
00010000
00000000
00000100
00001000
00000100
00000000
00000000
00010000
,
00001000
00000000
01000000
00100000
01000000
00000000
00000000
00001000
00010000
00000000
00000100
00001000
00000100
00000000
00000000
00000000
,
00001001
00000000
00000001
00000100
00000000
00000010
00001000
00000000
00000100
00000000
00000010
00000001
00000000
00001000
00000100
00000000
,
00010000
00000000
00001000
01000000
00000000
00100000
10000000
00000000
20020000
00000000
00000000
00000000
30030000
00000000
10000000
00000000
,
01000000
00010000
00001000
01000000
00100000
00010000
00001000
00000010
,
00000100
00001000
00000001
00000100
MMMM0101
00000000
0101MMMM
00010000
,
10000000
00100000
00010000
00100000
01000000
00001000
00010000
00000100
,
00000010
00001000
00010000
00100000
1010MMMM
00000000
MMMM1010
00000001
,
00000010
00000100
00001000
00010000
10000000
00100000
00010000
00001000
,
00010000
01000000
10000000
00010000
01000000
00000000
0110MMMM
00000000
,
MMMM0110
00000000
00000000
MMMMMMMM
00000000
00000001
00000100
00010000
,
01000000
10000000
01000000
00001000
00000100
00000010
00010000
00100000
,
00001000
00010000
00022000
00000000
00033000
00000000
01000000
00010000
,
00100000
10000000
00100000
00001000
01000000
00001000
00010000
00000010
,
00000100
00000000
00000001
00000000
00000010
00000100
00001000
00000100
00000010
00000001
00000100
00000000
00001000
00000000
00000100
00000000
,
00000010
00010000
00001000
00100000
01000000
10000000
00100000
01000000
,
00001000
00000000
00010000
00000000
00001000
00100000
00010000
01000000
00010000
00100000
01000000
00000000
10000000
00000000
00100000
00000000
,
00010000
00001000
00100000
00001000
00000100
00000010
00001000
00000100
,
00000010
00000000
00000001
00000000
00000100
00000010
00001000
00000001
00001000
00000100
00000010
00000001
00000010
00000001
00001000
00000100
,
00010000
00000100
00010000
00001000
01000000
00001000
01000000
00100000
10000000
01000000
00100000
00010000
10000000
00010000
10000000
00100000
,
01000000
00010000
00100000
01000000
10000000
00000000
00000000
00000000
10010000
00000000
00000000
00000000
00010000
00000000
01000000
00000000
,
00001000
00010000
00000100
00000010
00000001
00000100
00000010
00001000
,
00010000
00000000
01000000
00000000
00100000
10000000
01000000
00100000
00010000
01000000
00100000
00000000
10000000
00000000
00010000
00000000
,
01000000
00001000
00010000
00000100
00010000
00001000
00100000
00001000
,
00010000
00000000
00000010
00000000
00000100
00000010
00001000
00000001
00000010
00000100
00001000
00000000
00000010
00000000
00010000
00000000
,
00001000
01000000
00100000
10000000
01000000
00100000
00010000
01000000
,
00001000
00000000
00010000
00000000
00000100
00010000
00000100
00010000
00001000
00100000
00010000
10000000
00100000
10000000
00010000
01000000
,
00010000
00100000
00001000
00100000
00001000
00010000
00000100
00010000
00000100
00001000
00000010
00000100
00000001
00000100
00000010
00001000
,
00000100
00000010
00000001
00000100
00000010
00000000
00000000
00000000
00001001
00000000
00000000
00000000
00000001
00000000
00000100
00000000
,
00000001
00000010
00001000
00010000
01000000
10000000
00100000
01000000
,
00010000
00000000
10000000
00000000
01000000
00100000
00010000
10000000
01000000
00100000
00010000
00000000
01000000
00000000
00001000
00000000
,
00010000
00000100
00001000
00000001
00000100
00000010
00001000
00000100
,
00000010
00000000
00000001
00000000
00001000
00000010
00000100
00000001
00001000
00000010
00000100
00000000
00000001
00000000
00000010
00000000
,
00001000
00010000
00100000
10000000
01000000
00010000
00001000
00000100
,
00000001
00000000
00001000
00000000
00000100
00001000
00000001
00000010
00000100
00001000
00000001
00000000
00001000
00000100
00010000
00000100
,
00010000
00001000
00100000
00001000
00100000
00010000
10000000
00010000
10000000
00100000
10000000
00000000
00010000
00100000
00001000
00100000
,
00001000
00010000
00001000
00010000
00000100
00001000
00000001
00001000
00000001
00000100
00000001
00000000
00001000
00000100
00010000
00000100
,
00010000
00001000
01000000
00001000
01000000
00010000
00100000
00010000
00100000
01000000
00100000
00000000
01000000
10000000
00010000
10000000
,
00010000
01000000
00100000
00000000
01000000
00000000
00000000
00000000
10010000
00000000
00000000
00000000
00000000
00000000
00000000
00000000
;
