#TITLE:Super Dive;
#SUBTITLE:;
#ARTIST:PSYQUI;
#TITLETRANSLIT:;
#SUBTITLETRANSLIT:;
#ARTISTTRANSLIT:;
#GENRE:;
#CREDIT:;
#MUSIC:PSYQUI - Super Dive.mp3;
#BANNER:sdbn.png;
#BACKGROUND:sdbg.png;
#CDTITLE:;
#SAMPLESTART:58.324;
#SAMPLELENGTH:11.429;
#SELECTABLE:YES;
#OFFSET:0.247;
#BPMS:0.000=168.000;
#STOPS:227.500=0.357;
#BGCHANGES:;
#FGCHANGES:;

//--------------- dance-single - ----------------
#NOTES:
     dance-single:
     :
     Beginner:
     4:
     0,0,0,0,0:
0000
0000
0000
0000
,
0000
0000
0000
0000
,
0000
0000
0000
0000
,
0000
0000
0000
0000
,
0000
0000
0000
0000
,
0001
0000
0000
0000
,
0000
0000
0000
0000
,
1000
0000
0000
0000
,
0000
0000
0000
0000
,
0001
0000
1000
0000
,
0001
0000
0000
0000
,
1000
0000
0001
0000
,
1000
0000
0000
0000
,
0010
0000
0100
0000
,
0010
0000
0000
0000
,
0100
0000
0010
0000
,
0100
0000
0000
0000
,
0001
0000
1000
0000
,
0001
0000
0000
0000
,
1000
0000
0001
0000
,
1000
0000
0000
0000
,
0100
0000
0010
0000
,
0100
0000
0000
0000
,
0010
0000
0100
0000
,
0010
0000
0000
0000
,
1000
0000
0000
0000
,
1000
0000
0000
0000
,
0010
0000
0100
0000
,
0010
0000
0100
0000
,
0001
0000
0000
0000
,
0001
0000
0000
0000
,
0100
0000
0010
0000
,
0100
0000
0010
0000
,
1000
0000
0000
0000
,
0100
0000
0000
0000
,
0001
0000
0000
0000
,
0010
0000
0000
0000
,
1000
0000
0000
0000
,
0100
0000
0000
0000
,
0001
0000
0000
0000
,
0010
0000
0000
0000
,
1000
0000
0000
0000
,
0100
0000
0010
0000
,
0001
0000
0000
0000
,
0100
0000
0010
0000
,
1000
0000
0000
0000
,
0100
0000
0010
0000
,
0001
0000
0000
0000
,
1000
0000
0001
0000
,
0100
0000
0010
0000
,
0100
0000
0000
0000
,
0001
0000
1000
0000
,
0001
0000
0000
0000
,
0010
0000
0100
0000
,
0010
0000
0000
0000
,
0001
0000
1000
0000
,
0001
0000
0000
0000
,
0000
1000
1000
0000
,
0000
1000
1000
0010
,
0000
0100
0000
0010
,
0000
0100
0000
0001
,
0000
0001
0001
0000
,
0000
0001
0001
0100
,
0000
0010
0000
0100
,
0000
0010
0000
1000
,
0000
1000
0001
1000
,
0000
0001
1000
0001
,
0000
0010
0000
0100
,
0000
1000
0000
1000
,
0000
1000
0001
1000
,
0000
0001
1000
0001
,
0000
0000
0000
1001
,
0000
0000
0000
0001
,
0000
1000
0000
0100
,
0000
0000
0000
1000
,
0000
0001
0000
0100
,
0000
0000
0000
0001
,
0000
1000
0000
0010
,
0000
0000
0000
1000
,
0000
0001
0000
0010
,
0000
0000
0000
0001
,
0000
1000
0000
0001
,
0000
0000
0000
1000
,
0000
0001
0000
1000
,
0000
0000
0000
0010
,
0000
0100
0000
0010
,
0000
0000
0000
0100
,
0000
0010
0000
0100
,
0000
0000
0000
1001
;

//--------------- dance-single - ----------------
#NOTES:
     dance-single:
     :
     Easy:
     7:
     0,0,0,0,0:
0000
0000
0000
0000
,
0000
0000
0000
0000
,
0000
0000
0000
0000
,
0000
0000
0000
0000
,
0000
0000
0000
0000
,
0001
0000
0001
0000
,
1000
0000
1000
0000
,
0010
0000
0100
0000
,
0110
0000
0000
0000
,
0001
0000
0001
0000
,
0001
0100
0010
0010
,
1000
0000
1000
0000
,
1000
0100
0010
0010
,
0001
0000
0001
0000
,
0001
0100
0010
0010
,
1000
0000
1000
0000
,
0010
0100
0010
0100
,
0000
0000
0001
0000
,
1000
0100
0010
0000
,
0100
0000
1000
0000
,
0001
0100
0010
0000
,
1000
0000
0010
0000
,
0100
0001
0010
0000
,
0001
0000
0010
0000
,
0100
1000
0001
0000
,
0010
0000
0010
0000
,
0010
0001
0100
0000
,
0001
0000
0100
0000
,
0010
1000
0100
0000
,
0010
0000
0010
0000
,
0100
1000
0010
0000
,
0100
0000
0001
0000
,
1000
0001
0100
0000
,
0010
0000
0010
0000
,
1000
0000
1000
0000
,
0100
0000
0100
0000
,
0001
0000
0001
0000
,
0010
0000
1000
0000
,
0100
0000
0010
0000
,
0001
1000
0000
0001
,
0100
0100
0010
0000
,
1000
0001
1000
0000
,
0100
0010
0100
0000
,
0010
0001
1000
0000
,
0001
0100
0001
0000
,
0010
0100
1000
0000
,
0001
1000
0100
0000
,
0010
0001
0100
0000
,
0010
0100
0010
0000
,
1000
0100
0010
0000
,
0001
1000
0001
0000
,
0100
0010
1000
0000
,
0001
1000
0001
0000
,
1000
0010
0100
0000
,
0001
0010
0001
0000
,
1000
0100
0010
0000
,
0001
1000
0001
0000
,
1000
1000
1000
0000
,
0001
0001
0001
0100
,
0010
0100
0010
1000
,
0001
1000
0000
0000
,
0010
0010
0010
0000
,
0100
0100
0100
0001
,
1000
0001
1000
0010
,
0100
0010
0000
0000
,
0100
0100
0100
0000
,
0001
0001
0001
0010
,
0100
0010
0100
1000
,
0100
1000
0000
0000
,
0001
0001
0001
0000
,
1000
1000
1000
0010
,
0100
0001
1000
0100
,
0000
0000
0000
1000
,
0010
0100
0000
1000
,
0100
0001
0000
0010
,
0001
0100
0000
0010
,
1000
0001
0000
0001
,
0010
0100
0000
0001
,
0100
1000
0000
0001
,
1000
0100
0000
0010
,
0001
1000
0000
0001
,
0100
0010
0000
0010
,
1000
0100
0000
1000
,
0100
0010
0000
0010
,
0001
0100
0000
0001
,
0010
0100
0000
0010
,
0100
1000
0000
0001
,
1000
0100
0000
0001
,
0100
0010
0001
1001
;

//--------------- dance-single - ----------------
#NOTES:
     dance-single:
     :
     Medium:
     9:
     0,0,0,0,0:
0000
0000
0000
0000
,
0000
0000
0000
0000
,
0000
0000
0000
0000
,
0000
0000
0000
0000
,
0000
0000
0000
0000
,
1000
1000
1000
1000
,
0010
0010
0010
0010
,
0100
0001
0100
0001
,
1001
0000
0000
0000
,
0001
0100
0010
0010
,
1000
0010
1000
0000
0010
0000
0100
0000
,
0001
1000
0100
0100
,
0010
0001
0010
0000
0001
0000
1000
0000
,
0001
0100
0010
0010
,
1000
0010
1000
0000
0010
0000
0100
0000
,
0001
1000
0100
0100
,
0010
0000
0001
0000
1000
0010
0100
0000
,
0001
1000
0001
0001
,
0100
0010
0100
0000
0001
0000
1000
0000
,
0001
0010
0100
1000
,
0001
1000
0001
0000
1000
0000
0100
0000
,
0010
0001
1000
0010
,
0100
0001
0100
0000
0001
0000
1000
0000
,
0100
1000
0010
0100
,
0010
0100
0010
0000
1000
0001
1000
0000
,
0001
0001
0001
0001
,
0001
0001
0001
0001
,
0100
0000
0010
0000
1000
0010
1000
0000
,
0010
0000
0100
0000
0001
0100
0001
0000
,
1000
1000
1000
1000
,
1000
1000
1000
1000
,
0100
0000
0010
0000
0001
0010
0001
0000
,
0010
0000
0100
0000
1000
0100
1000
0000
,
0010
0010
0010
0010
,
0100
0100
0100
0100
,
0001
0001
0001
0001
,
1000
1000
1000
1000
,
0001
0100
0010
1000
,
0001
0010
0100
1000
,
0001
0100
0001
0000
1000
0100
1000
0000
,
1001
0000
0000
0000
,
1000
0010
0100
0001
,
0010
0000
0100
0000
1000
0001
1000
0000
,
0001
0100
0010
1000
,
0100
0000
0010
0000
0001
1000
0001
0000
,
1000
0010
0100
0001
,
0010
0000
0100
0000
1000
0001
1000
0000
,
0010
0100
0001
1000
,
0100
0010
0100
0000
0010
0100
0010
0000
,
0001
0000
1000
0000
0010
0100
0010
0000
,
1000
0010
0100
0001
,
1000
0000
0001
0000
0010
0100
0010
0000
,
0001
1000
0010
0100
,
0001
0000
1000
0000
0100
0010
0100
0000
,
1000
0010
0100
0001
,
0010
0000
0001
0000
1000
0001
1000
0000
,
0001
0100
0001
0000
1000
0100
1000
0000
,
0010
0010
0010
0000
,
0100
0000
0100
0000
0100
0000
0001
1000
,
0001
0000
1000
0001
1000
0000
0001
1000
,
0001
0000
1000
0001
1000
0000
0000
0000
,
0100
0100
0100
0000
,
0010
0000
0010
0000
0010
0000
0001
0010
,
0001
0000
0010
0001
0010
0000
0001
0010
,
0001
0000
0010
0001
0010
0000
0000
0000
,
0100
0100
0100
0000
,
1000
0000
1000
0000
1000
0000
0010
1000
,
0010
0000
1000
0010
1000
0000
0010
1000
,
0010
0000
1000
0010
1000
0000
0000
0000
,
0010
0010
0010
0000
,
0100
0000
0100
0000
0100
0000
0001
0100
,
0001
0000
1000
0100
1000
0000
1001
0000
,
0000
0000
0000
0001
,
0100
0000
0010
1000
0010
0000
1000
0000
,
0001
0000
1000
0001
1000
0000
0001
0000
,
1000
0000
0100
1000
0100
0000
1000
0000
,
0100
0000
0010
0100
0010
0000
0001
0000
,
1000
0000
0001
1000
0001
0000
0100
0000
,
0001
0000
0100
0010
0100
0000
0001
0000
,
1000
0000
0010
0100
0010
0000
1000
0000
,
0001
1000
0000
0001
,
0010
0000
0100
0010
0100
0000
0010
0000
,
0001
1000
0000
0010
,
1000
0000
0100
0010
0100
0000
1000
0000
,
0010
0100
0000
0001
,
1000
0000
0001
0100
0001
0000
1000
0000
,
0001
0000
1000
0100
1000
0000
0001
0000
,
0100
0000
0010
0000
1000
0000
0001
1000
,
0001
0100
0010
1000
0001
0000
1001
0000
;

//--------------- dance-single - ----------------
#NOTES:
     dance-single:
     :
     Hard:
     11:
     0,0,0,0,0:
0000
0000
0000
0000
,
0000
0000
0000
0000
,
0000
0000
0000
0000
,
0000
0000
0000
0000
,
0000
0000
0000
0000
,
0001
0001
0001
0001
,
1000
1000
1000
1000
,
0010
0100
0010
0000
0100
0010
0100
0000
,
1001
0000
0000
0000
,
0001
0000
0000
0000
2000
0000
0000
0000
3010
0000
0000
0100
0000
0000
0001
0000
,
0000
0000
1000
0000
0100
0000
0000
0000
0001
0000
0000
0100
0000
0000
1000
0000
,
0010
0000
0000
0000
0200
0000
0000
0000
0301
0000
0000
1000
0000
0000
0001
0000
,
0000
0000
0010
0000
0001
0000
0000
0000
1000
0000
0000
0010
0000
0000
0100
0000
,
0001
0000
0000
0000
2000
0000
0000
0000
3100
0000
0000
0010
0000
0000
0001
0000
,
0000
0000
1000
0000
0010
0000
0000
0000
0100
0000
0000
0001
0000
0000
0100
0000
,
0010
0000
0000
0000
2000
0000
0000
0000
3100
0000
0000
0001
0000
0000
0100
0000
,
1000
0101
1100
1001
,
0001
0000
0000
0000
0020
0000
0000
0000
0130
0000
0000
1000
0000
0000
0001
0000
,
1000
0000
0100
0000
0010
0000
0000
0000
0001
0000
0000
1000
0000
0000
0001
0000
,
0100
0000
0000
0000
0020
0000
0000
0000
1030
0000
0000
0001
0000
0000
1000
0000
,
0100
0000
0010
0000
0001
0000
0000
0000
1000
0000
0000
0010
0000
0000
0100
0000
,
0001
0000
0000
0000
2000
0000
0000
0000
3001
0000
0000
0100
0000
0000
0010
0000
,
1000
0000
0100
0000
0001
0000
0000
0000
0100
0000
0000
0010
0000
0000
0001
0000
,
1000
0000
0000
0000
0002
0000
0000
0000
0013
0000
0000
0001
0000
0000
1000
0000
,
0010
0100
0010
0100
0001
1000
0001
0000
,
0100
0100
0100
0100
,
0100
0100
0100
0100
,
0001
0000
0000
0000
2000
0000
0000
0000
3010
0000
0000
0100
0000
0000
0001
0000
,
1000
0000
0100
0000
1000
0000
0000
0000
0001
0000
0000
0100
0000
0000
0010
0000
,
1000
1000
1000
1000
,
1000
1000
1000
1000
,
0001
0000
0000
0000
0020
0000
0000
0000
0130
0000
0000
1000
0000
0000
0001
0000
,
1000
0100
0010
0001
1000
0100
0010
0000
,
0001
0000
0001
0000
1000
0001
0100
0000
,
0010
0010
2000
3001
,
0100
0002
1003
0200
,
1300
0000
0010
0000
0010
0100
0001
0000
,
1000
0000
1000
0000
1000
0010
1000
0000
,
0001
0000
0001
0000
0001
0100
0001
0000
,
0100
0020
0000
1030
,
1001
0000
0000
0000
,
1000
0000
0000
0000
0002
0000
0000
0000
0103
0000
0000
0010
0000
0000
1000
0000
,
0001
0000
1000
0000
0001
0000
0000
0000
0100
0000
0000
0001
0000
0000
1000
0000
,
0001
0000
0000
0000
0020
0000
0000
0000
0031
0000
0000
0100
0000
0000
0010
0000
,
1000
0000
0010
0000
0100
0000
0000
0000
0001
0000
0000
0010
0000
0000
0100
0000
,
1000
0000
0000
0000
0002
0000
0000
0000
0103
0000
0000
0001
0000
0000
1000
0000
,
0100
0000
0010
0000
0100
0000
0000
0000
1000
0000
0000
0010
0000
0000
0100
0000
,
0001
0000
0000
0000
0020
0000
0000
0000
0031
0000
0000
1000
0000
0000
0001
0000
,
0100
0010
1000
0001
0100
0010
1000
0000
,
0001
0000
0000
0000
2000
0000
0000
0000
3010
0000
0000
1000
0000
0000
0001
0000
,
0010
0000
0001
0000
0100
0000
0000
0000
1000
0000
0000
0100
0000
0000
0001
0000
,
0010
0000
0000
0000
0200
0000
0000
0000
1300
0000
0000
0001
0000
0000
0010
0000
,
0100
0000
1000
0000
0001
0000
0000
0000
0100
0000
0000
0010
0000
0000
1000
0000
,
0001
0000
0000
0000
0200
0000
0000
0000
0301
0000
0000
0010
0000
0000
0100
0000
,
0010
0000
0001
0000
1000
0000
0000
0000
0010
0000
0000
0100
0000
0000
0001
0000
,
1000
0000
0000
0000
0002
0000
0000
0000
0103
0000
0000
0010
0000
0000
1000
0000
,
0001
0010
0100
1000
0010
0100
0001
0000
,
2000
3200
0302
0003
,
2000
3020
0032
1003
,
1000
0010
1000
0000
1000
0010
1000
0000
,
1000
0010
1000
0000
0001
0000
1000
0000
,
0002
0203
2300
3000
,
0002
0023
2030
3001
,
0001
0010
0001
0000
0001
0010
0001
0000
,
0001
0010
0001
0000
1000
0000
0001
0000
,
1000
0100
1000
0100
1000
0000
0001
0000
,
1000
0010
1000
0010
1000
0000
0010
0000
,
0010
0100
0100
0001
,
0001
0000
1000
0001
1000
0000
0001
0000
,
0100
0010
0100
0010
0100
0000
0000
0000
,
0010
0100
0010
0100
0010
0000
1000
0000
,
1000
0001
0001
1001
,
0000
0000
0000
1000
,
0100
0000
0000
0000
0001
0000
0000
0100
0000
0000
1000
0000
0010
0000
0100
0000
,
0001
0000
0000
0000
1000
0000
0000
0001
0000
0000
0100
0000
0001
0000
0000
0000
,
0010
0000
0000
0000
1000
0000
0000
0010
0000
0000
0001
0000
0100
0000
0010
0000
,
1000
0000
0000
0000
0001
0000
0000
0010
0000
0000
0100
0000
1000
0000
0000
0000
,
0100
0000
0000
0000
0001
0000
0000
0100
0000
0000
1000
0000
0010
0000
0100
0000
,
1000
0000
0000
0000
0100
0000
0000
0001
0000
0000
0010
0000
0001
0000
0000
0000
,
0100
0000
0000
0000
1000
0000
0000
0100
0000
0000
0001
0000
0010
0000
0100
0000
,
0010
0100
1000
0001
1000
0000
0001
0100
,
0001
0000
0100
0001
0100
0000
0010
1000
,
0010
0000
1000
0010
1000
0000
0010
1000
,
0010
1000
0001
0100
0001
0100
0001
1000
,
0001
1000
0100
0010
0100
0010
0001
0000
,
1000
0000
0001
0100
0001
0000
1000
0000
,
0001
0000
1000
0100
1000
0000
0010
0100
,
0010
0100
0001
1000
0001
1000
0001
0010
,
0100
1000
0010
0100
0001
0000
1001
0000
;

//--------------- dance-single - ----------------
#NOTES:
     dance-single:
     :
     Challenge:
     15:
     0,0,0,0,0:
0000
0000
0000
0000
,
0000
0000
0000
0000
,
0000
0000
0000
0000
,
0000
0000
0000
0000
,
0000
0000
0000
0000
,
0001
0000
1000
0000
0010
0100
0010
0000
1000
0000
0100
0010
0000
0000
0001
0000
,
1000
0000
0001
0000
0010
0100
0010
0000
0001
0000
0100
0010
0000
0000
1000
0000
,
0001
0100
0001
0100
0010
1000
0010
1000
0001
0010
0001
0010
0100
1000
0100
1000
,
0001
1000
0110
1001
,
0101
0000
0000
0000
2200
0000
3300
0000
0001
0000
0100
0010
0000
0100
0010
0000
,
1000
0000
0100
0000
0001
0000
0000
0000
0100
0000
0010
0001
0000
0010
0001
0000
,
0011
0000
0000
0000
2020
0000
3030
0000
1000
0000
0010
0100
0000
0010
0100
0000
,
0001
0000
0010
0000
1000
0000
0000
0000
0010
0000
0100
1000
0000
0100
1000
0000
,
1100
0000
0000
0000
0022
0000
0033
0000
0010
0000
0001
0100
0000
0001
0100
0000
,
1000
0000
0100
0000
0001
0000
0000
0000
1000
0000
0100
0010
0000
0100
0010
0000
,
0011
0000
0000
0000
2200
0000
3300
0000
0001
0000
1000
0100
0000
0010
0001
0000
,
0100
0000
0100
0000
0010
0000
1000
0100
0001
0100
1000
0000
0010
0000
0100
0000
,
1001
0000
0000
0000
0022
0000
0033
0000
0001
0000
1000
0010
0000
0100
0001
0000
,
1000
0000
0100
0000
0010
0000
0000
0000
0011
0000
0000
1100
0000
0000
0101
0000
,
1001
0000
0000
0000
2200
0000
3300
0000
1000
0000
0001
0010
0000
0100
1000
0000
,
0001
0000
0100
0000
0010
0000
0000
0000
1010
0000
0000
0101
0000
0000
1100
0000
,
1001
0000
0000
0000
2020
0000
3030
0000
1000
0000
0001
0010
0000
0100
1000
0000
,
0010
0000
0100
0000
0001
0000
0000
0000
0101
0000
0000
1100
0000
0000
0011
0000
,
1001
0000
0000
0000
0202
0000
0303
0000
0001
0000
1000
0010
0000
0100
0001
0000
,
0010
0000
0001
0000
1000
0000
0001
0100
1000
0100
0001
0000
1001
0000
0000
0000
,
2000
0000
3000
0000
1000
0000
0000
1000
0010
0100
0010
0000
0100
0001
0100
0000
,
0001
1000
0001
0000
1000
0000
0001
0100
0010
0000
1000
0000
0002
0000
0000
0000
,
1003
0000
0000
0000
1001
0000
0000
0000
0011
0000
0000
1010
0000
0000
0011
0000
,
0001
0000
1000
0000
0100
0000
0000
0000
1100
0000
0000
0101
0000
0000
1100
0000
,
0002
0000
0003
0000
0001
0000
0000
0001
0010
0100
0010
0000
0100
1000
0100
0000
,
1000
0001
1000
0000
0001
0000
1000
0010
0100
0000
0001
0000
2000
0000
0000
0000
,
3001
0000
0000
0000
1001
0000
0000
0000
0101
0000
0000
1100
0000
0000
0011
0000
,
0010
0000
0001
0000
1000
0000
0010
0100
1000
0100
0001
0000
0101
0000
0000
0000
,
0200
0000
0300
0000
0100
0000
0000
0100
0010
0100
0001
0000
1000
0001
0010
0000
,
0100
1000
0001
0000
0100
0000
0010
1000
0100
0000
0010
0000
0002
0000
0000
0000
,
0013
0000
0020
0200
0000
0330
0100
0010
,
0001
1000
0001
0000
0100
0000
0010
1000
0001
0000
0100
0000
0101
0000
0000
0000
,
0200
0000
0300
0000
0100
0000
0000
0100
0010
1000
0001
0000
1000
0100
0010
0000
,
0100
0010
0001
0000
1000
0000
0001
0100
0001
0000
1000
0000
0002
0000
0000
0000
,
0013
0100
0010
0100
1000
0001
1000
0001
0010
0100
1000
0001
0100
0010
1000
0001
,
0200
0000
0300
1001
,
0001
0000
0000
0000
2200
0000
3300
0000
1100
0000
0000
0100
0001
0000
0100
0000
,
1000
0000
0010
0000
0100
0000
0000
0000
0101
0000
0000
1100
0000
0000
0011
0000
,
0001
0000
0000
0000
2020
0000
3030
0000
1010
0000
0000
0010
0001
0000
0010
0000
,
0100
0000
0001
0000
0010
0000
0000
0000
1100
0000
0000
0011
0000
0000
1010
0000
,
1000
0000
0000
0000
0022
0000
0033
0000
0011
0000
0000
0010
1000
0000
0010
0000
,
0001
0000
0100
0010
0100
0000
0000
0000
0101
0000
0000
0011
0000
0000
1100
0000
,
1000
0000
0000
0000
0202
0000
0303
0000
0101
0000
0000
0100
1000
0000
0100
0000
,
0001
0000
1000
0000
0100
0000
0010
0001
1000
0010
0100
0000
0110
0000
0000
0000
,
2000
0000
0000
0000
3001
0000
0000
0000
0101
0000
0000
0100
1000
0000
0100
0000
,
0010
1000
0010
0100
0001
0000
0000
0000
1100
0000
0000
0100
0001
0000
0100
0000
,
0020
0000
0000
0000
0031
0000
0000
0000
0011
0000
0000
0010
1000
0000
0010
0000
,
0001
0100
0010
1000
0100
0000
0000
0000
1100
0000
0000
0100
0001
0000
0100
0000
,
2000
0000
0000
0000
3001
0000
0000
0000
0011
0000
0000
0010
0001
0000
1000
0000
,
0010
0100
0001
1000
0100
0000
0000
0000
1100
0000
0000
0100
1000
0000
0010
0000
,
0200
0000
0000
0000
0301
0000
0000
0000
0011
0000
0000
0010
1000
0000
0010
0000
,
0001
0000
0100
0000
0010
0000
1000
0100
0001
0100
1000
0000
1001
0000
0000
0000
,
1000
0100
0010
0000
1000
0010
0100
0000
1000
0010
0100
0000
1000
0000
0100
0000
,
0001
0010
0100
0000
0001
0100
0010
0000
0001
0100
0010
0000
0001
0000
0010
0000
,
1000
0000
0100
0000
0010
0001
0000
0010
0001
0000
0100
0000
0010
1000
0000
0010
,
1000
0000
0100
0000
1000
0001
0000
1000
0200
0000
0000
0000
0320
0000
0000
0000
,
0031
0100
0010
0000
0001
0010
0100
0000
0001
0010
0100
0000
0001
0000
0100
0000
,
1000
0010
0100
0000
1000
0100
0010
0000
1000
0100
0010
0000
0001
0000
1000
0000
,
0010
0000
0010
0000
1000
0100
0000
0010
0001
0000
1000
0000
0001
0100
0000
0010
,
1000
0000
0001
0000
0010
0100
0000
1000
0001
0000
0110
0000
1001
0000
0000
0000
,
1000
0100
0010
0000
1000
0010
0100
0000
0010
0001
0100
0000
0001
0000
1000
0000
,
0001
0100
0010
0000
0001
0010
0100
0000
0010
1000
0100
0000
1000
0000
0001
0000
,
0100
0000
0010
0000
1000
0100
0010
0100
1000
0000
1000
0000
0001
0100
0010
0100
,
0001
0000
0001
0000
1000
0100
0010
0001
1000
0000
0001
0000
0102
0000
0000
0000
,
1003
0010
0100
0000
1000
0100
0010
0000
0100
0001
0010
0000
0001
0000
1000
0000
,
0001
0010
0100
0000
0001
0100
0010
0000
0100
1000
0010
0000
1000
0000
0010
0000
,
0100
0000
0001
0000
1000
0100
0001
0100
1000
0000
0001
0000
1001
0000
1000
0001
,
1000
1000
0010
0100
0101
0001
0200
0000
,
0301
0000
0000
0000
0101
0000
0001
0100
0000
0010
1000
0000
0010
0100
0001
0100
,
0010
0000
0000
0000
1010
0000
0010
1000
0000
0001
1000
0000
0200
0000
0000
0000
,
0310
0000
0000
0000
0011
0000
0010
0001
0000
1000
0001
0000
0100
0001
0100
0010
,
1000
0000
0000
0000
1001
0000
0001
1000
0000
0100
0010
0000
0002
0000
0000
0000
,
1003
0000
0000
0000
0011
0000
0001
0010
0000
0100
1000
0000
0001
0010
0001
1000
,
0010
0000
0000
0000
0110
0000
0100
0001
0000
1000
0100
0000
2000
0000
0000
0000
,
3001
0000
0000
0000
1010
0000
1000
0010
0000
0100
0001
0000
0101
0000
1100
0000
,
1001
0000
0001
1000
0010
0100
0001
1000
0100
0000
1000
0000
0002
0000
0000
0000
,
0103
0000
0000
0000
0101
0000
0000
1100
0000
0000
0101
0000
0001
0000
1000
0000
,
1000
0000
0000
0000
1100
0000
0000
0110
0000
0000
1100
0000
2000
0000
0000
0000
,
3010
0000
0000
0000
1010
0000
0000
0011
0000
0000
1010
0000
1000
0000
0001
0000
,
0001
0000
0000
0000
0101
0000
0000
0110
0000
0000
0101
0000
0002
0000
0000
0000
,
0013
0000
0000
0000
0101
0000
0000
0110
0000
0000
1010
0000
1000
0000
0001
0000
,
0001
0000
0000
0000
0011
0000
0000
0110
0000
0000
1100
0000
1000
0100
1000
0100
,
0010
0001
0010
0001
1000
0010
1000
0010
0100
0001
0100
0001
1000
0000
0011
0000
,
1010
0000
0001
0100
1000
0100
0001
0100
0010
0000
0000
0000
2002
0000
0000
0000
,
0000
0000
0000
0000
,
0000
0000
0000
3003
;

//--------------- dance-double - ----------------
#NOTES:
     dance-double:
     :
     Easy:
     7:
     0,0,0,0,0:
00000000
00000000
00000000
00000000
,
00000000
00000000
00000000
00000000
,
00000000
00000000
00000000
00000000
,
00000000
00000000
00000000
00000000
,
00000000
00000000
00000000
00000000
,
10000000
00000000
01000000
00000000
,
00100000
00000000
00010000
00000000
,
10000000
00000000
00100000
00000000
,
01100000
00000000
00000000
00000000
,
10000000
01000000
00010000
00000000
,
00001000
00000000
00000100
00000000
,
00000001
00000100
00001000
00000000
,
00010000
00000000
01000000
00000000
,
10000000
01000000
00010000
00000000
,
00001000
00000000
00000100
00000000
,
00000001
00000100
00001000
00000000
,
00010000
00010000
00010000
00000000
,
10000000
00100000
00010000
00000000
,
00001000
00000000
00000010
00000000
,
00000001
00000010
00001000
00000000
,
00010000
00000000
00100000
00000000
,
10000000
00100000
00010000
00000000
,
00001000
00000000
00000010
00000000
,
00000001
00000010
00001000
00000000
,
00010000
00010000
00010000
00000000
,
00100000
00000000
00100000
00000000
,
00100000
00000000
00100000
00000000
,
10000000
01000000
00010000
00000000
,
00001000
00000000
00000100
00000000
,
00000010
00000000
00000010
00000000
,
00000010
00000000
00000010
00000000
,
00000001
00000100
00001000
00000000
,
00010000
00000000
01000000
00000000
,
10000000
00000000
10000000
00000000
,
00100000
00000000
00100000
00000000
,
01000000
00000000
01000000
00000000
,
00010000
00000000
00010000
00000000
,
00001000
00000000
00001000
00000000
,
00000010
00000000
00000010
00000000
,
00000100
00000000
00000100
00000000
,
00000001
00000000
00000000
00000000
,
00000001
00000100
00001000
00000000
,
00010000
00000000
01000000
01000000
,
10000000
01000000
00010000
00000000
,
00001000
00000000
00000100
00000100
,
00000001
00000100
00001000
00000000
,
00010000
00000000
01000000
01000000
,
10000000
01000000
00010000
00000000
,
00001000
00000100
00000001
00000000
,
00000001
00000010
00001000
00000000
,
00010000
00000000
00100000
00100000
,
10000000
00100000
00010000
00000000
,
00001000
00000000
00000010
00000010
,
00000001
00000010
00001000
00000000
,
00010000
00000000
00100000
00100000
,
10000000
00100000
00010000
00000000
,
00001000
00000010
00000001
00000000
,
00000000
00000001
00000001
00000000
,
00000000
00001000
00001000
00000100
,
00010000
00000100
00010000
00001000
,
00100000
00001000
00100000
00010000
,
00000000
10000000
10000000
00100000
,
00000000
01000000
01000000
01000000
,
00001000
01000000
00001000
00010000
,
00000010
00010000
00000010
00000100
,
00000000
00000100
00000100
00000000
,
00000010
00001000
00001000
00000100
,
00001000
00000100
00001000
00010000
,
00100000
00010000
00100000
01000000
,
00000000
10000000
10000000
00000000
,
00100000
01000000
00010000
00100000
,
00010000
00001000
00000100
00000010
,
00000000
00000000
00000000
00000001
,
00000100
00001000
00000000
00010000
,
00000000
01000000
01000000
10000000
,
00100000
00010000
00000000
00001000
,
00000000
00000010
00000010
00000001
,
00000100
00001000
00000000
00010000
,
00000000
01000000
01000000
10000000
,
00100000
00010000
00000000
00001000
,
00000010
00000001
00000000
00000001
,
00000100
00001000
00000000
00010000
,
01000000
10000000
00000000
10000000
,
00100000
00010000
00000000
00001000
,
00000010
00000001
00000000
00000001
,
00000100
00001000
00000000
00010000
,
01000000
10000000
00000000
10000000
,
00100000
00010000
00000000
00001000
,
00000010
00000001
00000000
00001001
;

//--------------- dance-double - ----------------
#NOTES:
     dance-double:
     :
     Medium:
     10:
     0,0,0,0,0:
00000000
00000000
00000000
00000000
,
00000000
00000000
00000000
00000000
,
00000000
00000000
00000000
00000000
,
00000000
00000000
00000000
00000000
,
00000000
00000000
00000000
00000000
,
10000000
00010000
10000000
00010000
,
01000000
00001000
01000000
00001000
,
00100000
00001000
00100000
00001000
,
00011000
00000000
00000000
00000000
,
00010000
01000000
10000000
00100000
,
00010000
00000000
00001000
00000000
00010000
00001000
00010000
00000000
,
00001000
00000100
00000001
00000010
,
00001000
00000000
00010000
00000000
00001000
00010000
00001000
00000000
,
00010000
01000000
10000000
00100000
,
00010000
00000000
00001000
00000000
00010000
00001000
00010000
00000000
,
00001000
00000100
00000001
00000010
,
00000001
00000100
00001000
00010000
,
00010000
00100000
10000000
01000000
,
00010000
00000000
00001000
00000000
00010000
00001000
00010000
00000000
,
00001000
00000010
00000001
00000100
,
00001000
00000000
00010000
00000000
00001000
00010000
00001000
00000000
,
00010000
00100000
10000000
01000000
,
00010000
00000000
00001000
00000000
00010000
00001000
00010000
00000000
,
00001000
00000010
00000001
00000100
,
00000010
00000000
00001000
00000000
00000001
00001000
00000001
00000000
,
00000100
00000100
00000100
00000100
,
00000100
00000100
00000100
00000100
,
00000010
00001000
00000100
00010000
,
00001000
00100000
00010000
01000000
,
00100000
00100000
00100000
00100000
,
00100000
00100000
00100000
00100000
,
01000000
00010000
00100000
00001000
,
00010000
00000100
00001000
00000010
,
00000100
00000100
00000100
00000100
,
00000010
00000010
00001000
00001000
,
00000100
00000100
00000100
00000100
,
00010000
00010000
00001000
00001000
,
00100000
00100000
00100000
00100000
,
00010000
00010000
10000000
10000000
,
00100000
01000000
00100000
01000000
,
10010000
00000000
00000000
00000000
,
10000000
01000000
00010000
00001000
,
00000100
00000000
00000001
00000000
00000010
00000001
00000010
00000000
,
00000001
00000100
00001000
00010000
,
01000000
00000000
10000000
00000000
00100000
10000000
00100000
00000000
,
10000000
01000000
00010000
00001000
,
00000100
00000000
00000001
00000000
00000010
00000001
00000010
00000000
,
00000001
00000100
00001000
00010000
,
01000000
10000000
00010000
10010000
,
10000000
00100000
00010000
00001000
,
00000010
00000000
00000001
00000000
00000100
00000001
00000100
00000000
,
00000001
00000010
00001000
00010000
,
00100000
00000000
10000000
00000000
01000000
10000000
01000000
00000000
,
10000000
00100000
00010000
00001000
,
00000010
00000000
00000001
00000000
00000100
00000001
00000100
00000000
,
00000001
00000010
00001000
00010000
,
00100000
10000000
10010000
00000000
,
00000000
10000000
10000000
00100000
,
01000000
00000000
00010000
00000000
00010000
00000000
00100000
00001000
,
00100000
00000000
00001000
00100000
00001000
00000000
00010000
00000100
,
00010000
00000000
00000100
00010000
00000100
00000000
00001000
00000000
,
00000000
00000100
00000100
00000010
,
00000001
00000000
00001000
00000000
00001000
00000000
00000100
00010000
,
00000100
00000000
00010000
00000100
00010000
00000000
00001000
00100000
,
00001000
00000000
00100000
00001000
00100000
00000000
00010000
00000000
,
00000000
00000000
10000000
00100000
10000000
00100000
10000000
00000000
,
00010000
00000000
00100000
00010000
00100000
00000000
00010000
01000000
,
00010000
00000000
00010000
01000000
00010000
00000000
00100000
00001000
,
00100000
00000000
00001000
00100000
00001000
00000000
00010000
00000000
,
00000100
00000100
00000100
00001000
,
00000010
00000000
00000100
00000000
00000100
00000000
00000001
00000010
,
00000001
00000000
00000001
00000010
00000001
00000000
00001000
00000100
,
00001000
00000100
00001000
00000000
00001001
00000000
00000001
00000000
,
00000100
00000000
00001000
00000100
00001000
00000000
00010000
00000000
,
01000000
00000000
10000000
01000000
10000000
00000000
10000000
00000000
,
00100000
00000000
00010000
00100000
00010000
00000000
00001000
00000000
,
00000010
00000000
00000001
00000010
00000001
00000000
00000001
00000000
,
00000100
00000000
00001000
00000100
00001000
00000000
00010000
00000000
,
01000000
00000000
10000000
01000000
10000000
00000000
10000000
00000000
,
00100000
00000000
00010000
00100000
00010000
00000000
00001000
00000000
,
00000010
00000000
00000001
00001000
00000001
00000000
00000001
00000000
,
00000100
00001000
00010000
01000000
,
10000000
00100000
00010000
00001000
,
00000100
00000001
00001000
00000010
,
00000001
00000010
00001000
00010000
,
00100000
10000000
01000000
00010000
,
00001000
00000000
00000010
00000000
00000001
00000000
00000100
00000010
,
00000100
00000000
00000010
00000100
00000010
00000000
00001000
00000000
,
00000010
00000000
00000100
00001000
00010000
00000000
00011000
00000000
;

//--------------- dance-double - ----------------
#NOTES:
     dance-double:
     :
     Hard:
     12:
     0,0,0,0,0:
00000000
00000000
00000000
00000000
,
00000000
00000000
00000000
00000000
,
00000000
00000000
00000000
00000000
,
00000000
00000000
00000000
00000000
,
00000000
00000000
00000000
00000000
,
10000000
10000000
10000000
10000000
,
00100000
00100000
00100000
00100000
,
01000000
00010000
01000000
00010000
10000000
01000000
10000000
01000000
,
20000000
00000000
30000000
10100000
,
00100000
00000000
00000000
00000000
20000000
00000000
00000000
00000000
31000000
00000000
00000000
00010000
00000000
00000000
00001000
00000000
,
00000000
00000000
00010000
00000000
00001000
00000000
00000000
00000000
00001000
00000000
00000000
00000100
00000000
00000000
00000001
00000000
,
00000010
00000000
00000000
00000000
00000002
00000000
00000000
00000000
00000103
00000000
00000000
00001000
00000000
00000000
00010000
00000000
,
00000000
00000000
00001000
00000000
00010000
00000000
00000000
00000000
00010000
00000000
00000000
00100000
00000000
00000000
10000000
00000000
,
02000000
00000000
00000000
00000000
13000000
00000000
00000000
00000000
00100000
00000000
00000000
00010000
00000000
00000000
00001000
00000000
,
00000000
00000000
00010000
00000000
00001000
00000000
00000000
00000000
00001000
00000000
00000000
00000010
00000000
00000000
00000001
00000000
,
00000100
00000000
00000000
00000000
00000002
00000000
00000000
00000000
00000013
00000000
00000000
00001000
00000000
00000000
00010000
00000000
,
00100000
10000000
00100000
01000000
00100000
10000000
00010000
00000000
,
10000000
00000000
00000000
00000000
00200000
00000000
00000000
00000000
10300000
00000000
00000000
01000000
00000000
00000000
00010000
00000000
,
00001000
00000000
00010000
00000000
00000010
00000000
00000000
00000000
00010000
00000000
00000000
00001000
00000000
00000000
00000100
00000000
,
00000001
00000000
00000000
00000000
00000020
00000000
00000000
00000000
00000031
00000000
00000000
00000100
00000000
00000000
00001000
00000000
,
00010000
00000000
00001000
00000000
00100000
00000000
00000000
00000000
00001000
00000000
00000000
00010000
00000000
00000000
01000000
00000000
,
10000000
00000000
00000000
00000000
02000000
00000000
00000000
00000000
13000000
00000000
00000000
00100000
00000000
00000000
00010000
00000000
,
00001000
00000000
00010000
00000000
00000100
00000000
00000000
00000000
00010000
00000000
00000000
00001000
00000000
00000000
00000010
00000000
,
00000001
00000000
00000000
00000000
00000200
00000000
00000000
00000000
00000301
00000000
00000000
00000010
00000000
00000000
00001000
00000000
,
00010000
00001000
00100000
00010000
00100000
01000000
00100000
00000000
,
00010000
00010000
00010000
00010000
,
00010000
00010000
00010000
01010000
,
10000000
00000000
00000000
00000000
00200000
00000000
00000000
00000000
00310000
00000000
00000000
00001000
00000000
00000000
00000010
00000000
,
00000000
00000000
00000001
00000000
00000100
00000000
00000000
00000000
00001000
00000000
00000000
00010000
00000000
00000000
01000000
00000000
,
00100000
00100000
00100000
00100000
,
00100000
00100000
00100000
10100000
,
00010000
00000000
00000000
00000000
00001000
00000000
00000000
00000000
00000100
00000000
00000000
00000010
00000000
00000000
00001000
00000000
,
00010000
01000000
00010000
00001000
00010000
01000000
10000000
00000000
,
10000000
10000000
10000000
10000000
,
00010000
00010000
00010000
00010000
,
00001000
00001000
00001000
00001000
,
00000001
00000001
00000001
00000001
,
00000010
00000000
00000010
00000000
00000100
00001000
00010000
00100000
,
01000000
00000000
01000000
00000000
00100000
00010000
00001000
00000100
,
00000020
00001030
00020000
01030000
,
10010000
00000000
00000000
00000000
,
02000000
00000000
03000000
00000000
10010000
00000000
00000000
00000000
10000000
00000000
00000000
01000000
00000000
00000000
00010000
00000000
,
00001000
00000000
00010000
00000000
01000000
00000000
00000000
00000000
00100000
00000000
00000000
00010000
00000000
00000000
00001000
00000000
,
00000200
00000000
00000300
00000000
00001001
00000000
00000000
00000000
00000001
00000000
00000000
00000100
00000000
00000000
00001000
00000000
,
00010000
00000000
00001000
00000000
00000100
00000000
00000000
00000000
00000010
00000000
00000000
00010000
00000000
00000000
00001000
00000000
,
00200000
00000000
00300000
00000000
10010000
00000000
00000000
00000000
10000000
00000000
00000000
00100000
00000000
00000000
00010000
00000000
,
00001000
00000000
00010000
00000000
00100000
00000000
00000000
00000000
01000000
00000000
00000000
00010000
00000000
00000000
00001000
00000000
,
00000010
00000000
00000000
00000000
00001001
00000000
00000000
00000000
00000001
00000000
00000000
00000010
00000000
00000000
00001000
00000000
,
00010000
00100000
00010000
00001000
00000100
00001000
00010000
00000000
,
00100000
00000000
00000000
00000000
10100000
00000000
00000000
00000000
00100000
00000000
00000000
10000000
00000000
00000000
01000000
00000000
,
00010000
00000000
00001000
00000000
00100000
00000000
00000000
00000000
00001000
00000000
00000000
00010000
00000000
00000000
00000100
00000000
,
00000010
00000000
00000000
00000000
00000011
00000000
00000000
00000000
00000010
00000000
00000000
00000001
00000000
00000000
00000100
00000000
,
00001000
00000000
00010000
00000000
01000000
00000000
00000000
00000000
00100000
00000000
00000000
00010000
00000000
00000000
10000000
00000000
,
00100000
00000000
00000000
00000000
10100000
00000000
00000000
00000000
00100000
00000000
00000000
10000000
00000000
00000000
00100000
00000000
,
00010000
00000000
00001000
00000000
01000000
00000000
00000000
00000000
00001000
00000000
00000000
00010000
00000000
00000000
00000010
00000000
,
00000100
00000000
00000000
00000000
00000101
00000000
00000000
00000000
00000001
00000000
00000000
00000010
00000000
00000000
00001000
00000000
,
00010000
01000000
00010000
00001000
00000010
00001000
00010000
00000000
,
00010000
01000000
10000000
01000000
00010000
00000000
00000000
00000000
,
00001000
00000100
00000001
00000100
00001000
00000000
00010000
00000000
,
00001000
00010000
00000100
00000000
00010000
00001000
00010000
00000000
,
00001000
00010000
00000010
00000000
00011000
00000000
00000000
00000000
,
00001000
00000010
00000001
00000010
00001000
00000000
00000000
00000000
,
00010000
00100000
10000000
00100000
00010000
00000000
00001000
00000000
,
00010000
00001000
01000000
00000000
00001000
00010000
00001000
00000000
,
00010000
00001000
00100000
00000000
00011000
00000000
00001000
00000000
,
00010000
01000000
10000000
00100000
00010000
00000000
00000000
00000000
,
00001000
00000100
00000001
00000010
00001000
00000000
00010000
00000000
,
00001000
00010000
01000000
00000000
00010000
00001000
00000100
00000000
,
00001000
00010000
01000000
00000000
00011000
00000000
00000000
00000000
,
00001000
00000010
00000001
00000100
00001000
00000000
00000000
00000000
,
00010000
00100000
10000000
01000000
00010000
00000000
00001000
00000000
,
00010000
00001000
00000010
00000000
00001000
00010000
00100000
00000000
,
00000000
00000000
00000000
00100000
,
10100000
00000000
00000000
00000000
10000000
00000000
00000000
01000000
00000000
00000000
00010000
00000000
01000000
00000000
00100000
00000000
,
00010000
00000000
00000000
00000000
00001000
00000000
00000000
00000100
00000000
00000000
00000001
00000000
00000010
00000000
00000000
00000000
,
00000011
00000000
00000000
00000000
00000001
00000000
00000000
00000010
00000000
00000000
00001000
00000000
00000010
00000000
00000100
00000000
,
00001000
00000000
00000000
00000000
00010000
00000000
00000000
00100000
00000000
00000000
10000000
00000000
00100000
00000000
00000000
00000000
,
11000000
00000000
00000000
00000000
10000000
00000000
00000000
01000000
00000000
00000000
00010000
00000000
01000000
00000000
00100000
00000000
,
00010000
00000000
00000000
00000000
00001000
00000000
00000000
00000100
00000000
00000000
00000001
00000000
00000010
00000000
00000000
00000000
,
00000101
00000000
00000000
00000000
00000001
00000000
00000000
00000010
00000000
00000000
00001000
00000000
00010000
00000000
01000000
00000000
,
00010000
00001000
00000010
00001000
00010000
00000000
00001000
00010000
,
00001000
00000000
00010000
01000000
00010000
00000000
01000000
10000000
,
01000000
00000000
10000000
00100000
10000000
00000000
00100000
01000000
,
00100000
01000000
00010000
01000000
00010000
01000000
00001000
00010000
,
00001000
00010000
00000100
00001000
00000100
00001000
00000010
00001000
,
00000010
00000000
00000100
00000001
00000100
00000000
00000001
00001000
,
00000001
00000000
00000100
00000001
00000100
00000000
00000010
00001000
,
00000010
00001000
00000100
00010000
00000100
00010000
00001000
00100000
,
00001000
00010000
00000100
00010000
00001000
00000000
00011000
00000000
;

//--------------- dance-double - ----------------
#NOTES:
     dance-double:
     :
     Challenge:
     16:
     0,0,0,0,0:
00000000
00000000
00000000
00000000
,
00000000
00000000
00000000
00000000
,
00000000
00000000
00000000
00000000
,
00000000
00000000
00000000
00000000
,
00000000
00000000
00000000
00000000
,
10000000
00000000
00010000
00000000
01000000
00010000
01000000
00000000
00001000
00000000
00010000
00000100
00000000
00000000
00001000
00000000
,
00000001
00000000
00001000
00000000
00000010
00001000
00000010
00000000
00010000
00000000
00001000
00100000
00000000
00000000
00010000
00000000
,
10000000
00100000
10000000
00100000
01000000
00010000
01000000
00010000
00100000
00001000
00100000
00001000
00010000
00000100
00010000
00000100
,
00001000
00000001
00000110
00001001
,
00001100
00000000
00000000
00000000
00000202
00000000
00000303
00000000
00000001
00000000
00000100
00001000
00000000
00000100
00001000
00000000
,
00010000
00000000
00100000
00000000
10000000
00000000
00000000
00000000
00010000
00000000
00100000
01000000
00000000
00100000
01000000
00000000
,
11000000
00000000
00000000
00000000
02020000
00000000
03030000
00000000
10000000
00000000
01000000
00010000
00000000
01000000
00010000
00000000
,
00001000
00000000
00000010
00000000
00000001
00000000
00000000
00000000
00001000
00000000
00000100
00000010
00000000
00000100
00000010
00000000
,
00000011
00000000
00000000
00000000
00002020
00000000
00003030
00000000
00000001
00000000
00000010
00001000
00000000
00000010
00001000
00000000
,
00010000
00000000
01000000
00000000
10000000
00000000
00000000
00000000
00100000
00000000
01000000
00010000
00000000
01000000
00010000
00000000
,
10010000
00000000
00000000
00000000
02200000
00000000
03300000
00000000
10000000
00000000
00100000
10000000
00000000
00100000
01000000
00000000
,
00010000
00000000
00010000
00000000
10000000
00000000
00100000
01000000
00010000
01000000
00100000
00000000
01010000
00000000
00000000
00000000
,
00010000
00000000
00000000
00000000
22000000
00000000
33000000
00000000
10000000
00000000
01000000
00010000
00000000
01000000
00100000
00000000
,
00010000
00000000
10000000
00000000
00010000
00000000
00000000
00000000
00110000
00000000
00000000
00011000
00000000
00000000
00001100
00000000
,
00001000
00000000
00000000
00000000
00000022
00000000
00000033
00000000
00000001
00000000
00000010
00001000
00000000
00000010
00000100
00000000
,
00000001
00000000
00000100
00000000
00001000
00000000
00000000
00000000
00001100
00000000
00000000
00011000
00000000
00000000
00110000
00000000
,
00010000
00000000
00000000
00000000
22000000
00000000
33000000
00000000
10000000
00000000
01000000
00100000
00000000
00010000
01000000
00000000
,
00100000
00000000
10000000
00000000
10000000
00000000
00000000
00000000
01010000
00000000
00000000
00011000
00000000
00000000
00001010
00000000
,
00000010
00000000
00000000
00000000
00002002
00000000
00003003
00000000
00000001
00000000
00001000
00000100
00000000
00001000
00000010
00000000
,
00000100
00000000
00000100
00000000
00000001
00000000
00001000
00000100
00000001
00000100
00001000
00000000
00001100
00000000
00000000
00000000
,
00000200
00000000
00000300
00000000
00000100
00000000
00000000
00000100
00010000
00001000
00010000
00000000
00001000
00010000
00001000
00000000
,
00100000
00001000
00010000
00000000
00001000
00000000
00010000
00000100
00001000
00000000
00000010
00000000
00000200
00000000
00000000
00000000
,
00001300
00000000
00000100
00000000
00000101
00000000
00000000
00000000
00000011
00000000
00000000
00001010
00000000
00000000
00010100
00000000
,
00000100
00000000
00010000
00000000
00001000
00000000
00000000
00000000
00101000
00000000
00000000
00110000
00000000
00000000
01010000
00000000
,
01000000
00000000
00000000
00000000
01000000
00000000
00000000
01000000
00001000
00010000
00001000
00000000
00010000
00001000
00010000
00000000
,
00000100
00010000
00001000
00000000
00010000
00000000
00000010
00001000
00000100
00000000
00000010
00000000
00000002
00000000
00000000
00000000
,
00001003
00000000
00000000
00000000
00001001
00000000
00000000
00000000
00001100
00000000
00000000
00011000
00000000
00000000
01010000
00000000
,
00010000
00000000
10000000
00000000
00010000
00000000
00100000
01000000
10000000
01000000
00010000
00000000
01100000
00000000
00000000
00000000
,
00020000
00000000
00030000
00000000
00010000
00000000
00000000
00010000
10000000
01000000
00100000
00000000
01000000
00100000
00010000
00000000
,
00100000
00001000
00010000
00000000
00001000
00000000
00010000
00001000
00100000
00000000
00001000
00010000
00001000
00000000
00000000
00000000
,
00000100
00000000
00000002
00000000
00000013
00000000
00000010
00000001
,
00001000
00000000
00000100
00001000
00000100
00000000
00010000
00001000
00010000
00000000
00001000
00000000
00011000
00000000
00000000
00000000
,
00002000
00000000
00003000
00000000
00001000
00000000
00000000
00001000
00100000
00010000
00100000
00000000
00010000
01000000
00010000
00000000
,
10000000
01000000
10000000
00000000
00100000
00000000
10000000
01000000
00100000
00000000
00010000
00000000
20000000
00000000
00000000
00000000
,
30100000
01000000
00100000
01000000
00010000
00100000
00010000
00100000
00001000
00010000
00001000
00010000
00000100
00001000
00000100
00001000
,
00000200
00000000
00000000
00001300
,
00000001
00000000
00000000
00000000
00002002
00000000
00003003
00000000
00000101
00000000
00000000
00000100
00001000
00000000
00010000
00000000
,
01000000
00100000
01000000
00000000
10000000
00000000
00000000
00000000
10100000
00000000
00000000
01100000
00000000
00000000
01010000
00000000
,
00010000
00000000
00000000
00000000
20020000
00000000
30030000
00000000
11000000
00000000
00000000
01000000
00010000
00000000
00001000
00000000
,
00000100
00000010
00000100
00000000
00000001
00000000
00000000
00000000
00000011
00000000
00000000
00000110
00000000
00000000
00001100
00000000
,
00001000
00000000
00000000
00000000
00002002
00000000
00003003
00000000
00000011
00000000
00000000
00000010
00001000
00000000
00010000
00000000
,
00100000
01000000
00100000
00000000
10000000
00000000
00000000
00000000
10100000
00000000
00000000
00110000
00000000
00000000
11000000
00000000
,
10000000
00000000
00000000
00000000
20020000
00000000
30030000
00000000
10100000
00000000
00000000
00100000
00010000
00000000
00001000
00000000
,
00000100
00000000
00000001
00000000
00001100
00000000
00000001
00001000
00000100
00001000
00000001
00000000
00001001
00000000
00000000
00000000
,
00000001
00000000
00000000
00000000
00002020
00000000
00003030
00000000
00000101
00000000
00000000
00000100
00001000
00000000
00010000
00000000
,
01000000
10000000
00010000
10000000
01000000
00000000
00000000
00000000
11000000
00000000
00000000
01010000
00000000
00000000
11000000
00000000
,
00010000
00000000
00000000
00000000
00220000
00000000
00330000
00000000
11000000
00000000
00000000
01000000
00010000
00000000
00001000
00000000
,
00000100
00000001
00001000
00000001
00000100
00000000
00000000
00000000
00000011
00000000
00000000
00001010
00000000
00000000
00000101
00000000
,
00000001
00000000
00000000
00000000
00002002
00000000
00003003
00000000
00000011
00000000
00000000
00000010
00001000
00000000
00010000
00000000
,
00100000
10000000
00100000
01000000
00010000
00000000
00000000
00000000
10100000
00000000
00000000
01010000
00000000
00000000
11000000
00000000
,
00010000
00000000
00000000
00000000
20020000
00000000
30030000
00000000
10100000
00000000
00000000
00100000
00010000
00000000
00001000
00000000
,
00000010
00000000
00000001
00000000
00001100
00000000
00000001
00000010
00001000
00000010
00000001
00000000
00001001
00000000
00000000
00000000
,
00000001
00000010
00000100
00000000
00000010
00000100
00001000
00000000
00000100
00001000
00010000
00000000
00100000
00000000
01000000
00000000
,
10000000
01000000
00100000
00000000
01000000
00100000
00010000
00000000
00100000
00010000
00001000
00000000
00000100
00000000
00000010
00000000
,
00001000
00010000
01000000
00100000
00010000
00001000
00000100
00000010
,
00001000
00010000
01000000
00100000
00010000
00000000
10010000
00000000
,
10000000
00100000
01000000
00000000
00100000
01000000
00010000
00000000
00100000
00001000
00010000
00000000
00001000
00000000
00000100
00000000
,
00000001
00000100
00000010
00000000
00000100
00000010
00001000
00000000
00000100
00010000
00001000
00000000
00010000
00000000
00100000
00000000
,
01000000
00010000
00001000
00000010
00000100
00001000
00010000
00100000
,
01000000
00000000
00010000
00000000
00001000
00000000
00000100
00000001
00001000
00000100
00001000
00000000
00001001
00000000
00000000
00000000
,
00000001
00000010
00000100
00000000
00000010
00001000
00010000
00000000
00010000
00001000
00000100
00000000
00001000
00000000
00010000
00000000
,
00001000
00010000
01000000
00000000
00100000
00001000
00010000
00000000
00100000
01000000
10000000
00000000
00100000
00000000
10000000
00000000
,
01000000
00000000
00010000
00000000
00001000
00000100
00000000
00001000
00010000
00000000
00001000
00000000
00010000
01000000
00000000
00010000
,
00001000
00000000
00010000
00000000
00001000
00000100
00000001
00000000
00001001
00000000
00000000
00000000
00000002
00000000
00000000
00000000
,
00000013
00000100
00001000
00000000
00000100
00010000
00001000
00000000
00010000
00001000
00100000
00000000
00010000
00000000
10000000
00000000
,
00100000
10000000
01000000
00000000
00100000
00010000
01000000
00000000
00010000
00100000
00001000
00000000
00010000
00000000
01000000
00000000
,
00010000
00000000
00001000
00000000
00000010
00000001
00000000
00001000
00000010
00000000
00000100
00000000
00000001
00000000
00001000
00000100
,
00000010
00000100
00001100
00000101
00001001
00001000
00000200
00000000
,
00000310
00000000
00000000
00000000
00000011
00000000
00000010
00000001
00000000
00000100
00001000
00000000
00010000
00001000
00100000
00010000
,
01000000
00000000
00000000
00000000
01010000
00000000
01000000
00010000
00000000
00100000
10000000
00000000
00200000
00000000
00000000
00000000
,
01300000
00000000
00000000
00000000
11000000
00000000
01000000
10000000
00000000
00100000
00010000
00000000
00001000
00010000
00000100
00001000
,
00000010
00000000
00000000
00000000
00001010
00000000
00000010
00001000
00000000
00000100
00000001
00000000
00000200
00000000
00000000
00000000
,
00000310
00000000
00000000
00000000
00000011
00000000
00000010
00000001
00000000
00000100
00001000
00000000
00010000
00001000
00100000
00010000
,
01000000
00000000
00000000
00000000
11000000
00000000
01000000
10000000
00000000
00100000
00010000
00000000
00200000
00000000
00000000
00000000
,
01300000
00000000
00000000
00000000
10010000
00000000
00010000
10000000
00000000
00100000
01000000
00000000
01010000
00000000
00011000
00000000
,
00110000
00000000
00100000
00001000
00010000
00000010
00001000
00000010
00000100
00000000
00000001
00000000
00000100
00000000
00000010
00000000
,
00000100
00000010
00001000
00000010
00001000
00000010
00010000
00001000
,
00010000
00001000
00100000
00010000
00100000
00010000
01000000
00100000
,
01000000
00100000
10000000
01000000
10000000
01000000
00100000
00010000
,
00100000
00010000
10000000
00010000
10000000
00010000
02000000
00000000
,
03100000
00000000
00000000
00000000
10100000
00000000
00000000
01100000
00000000
00000000
01010000
00000000
00010000
00000000
00100000
00000000
,
00001000
00000000
00000000
00000000
00011000
00000000
00000000
00001100
00000000
00000000
00011000
00000000
00010000
00000100
00010000
00000100
,
00001000
00000010
00001000
00000010
00000100
00000001
00000100
00000001
00000010
00000001
00000010
00000001
00001000
00000000
00001010
00000000
,
00000011
00000000
00000001
00000100
00001000
00000100
00000001
00000010
00000100
00000000
00000000
00000000
00000220
00000000
00000000
00000000
,
00000000
00000000
00000000
00000000
,
00000000
00000000
00000000
00000000
,
00000330
00000000
00000000
00000000
;
