#VERSION:0.83;
#TITLE:Subterranean Spiral;
#SUBTITLE:;
#ARTIST:Jerico;
#TITLETRANSLIT:;
#SUBTITLETRANSLIT:;
#ARTISTTRANSLIT:;
#GENRE:;
#ORIGIN:;
#CREDIT:;
#BANNER:Subterranean Spiral.png;
#BACKGROUND:Subterranean Spiral-bg.png;
#PREVIEWVID:;
#JACKET:Subterranean Spiral-jacket.png;
#CDIMAGE:;
#DISCIMAGE:;
#LYRICSPATH:;
#CDTITLE:cdtitle.png;
#MUSIC:Subterranean Spiral.ogg;
#OFFSET:0.000000;
#SAMPLESTART:88.636002;
#SAMPLELENGTH:10.909000;
#SELECTABLE:YES;
#BPMS:0.000=176.000;
#STOPS:;
#DELAYS:;
#WARPS:;
#TIMESIGNATURES:0.000=4=4;
#TICKCOUNTS:0.000=4;
#COMBOS:0.000=1;
#SPEEDS:0.000=1.000=0.000=0;
#SCROLLS:0.000=1.000;
#FAKES:;
#LABELS:0.000=Song Start;
#BGCHANGES:;
#KEYSOUNDS:;
#ATTACKS:
;

//---------------dance-single - MEGAtive----------------
#NOTEDATA:;
#CHARTNAME:;
#STEPSTYPE:dance-single;
#DESCRIPTION:MEGAtive;
#CHARTSTYLE:;
#DIFFICULTY:Easy;
#METER:9;
#RADARVALUES:0.510640,0.566310,0.294369,0.455571,0.010513,510.000000,468.000000,42.000000,65.000000,0.000000,0.000000,0.000000,0.000000,0.000000,0.510640,0.566310,0.294369,0.455571,0.010513,510.000000,468.000000,42.000000,65.000000,0.000000,0.000000,0.000000,0.000000,0.000000;
#CREDIT:;
#NOTES:
0000
0000
0000
0000
,
0000
0000
0000
0000
,
0000
0000
0000
0000
,
0000
0000
0000
0000
,
0000
0000
0000
0000
,
0001
0000
0100
0010
0000
0010
0100
0001
,
1000
0000
0100
0010
0000
0010
0100
1000
,
0002
0203
0320
2030
,
3002
0023
0230
0000
,
1300
0010
1000
0000
0001
0010
0001
0000
,
1000
0010
0100
0001
1000
0000
1100
0000
,
0001
0010
0001
0000
1000
0010
1000
0000
,
0001
0010
0100
1000
0001
0000
0101
0000
,
0001
0100
0001
0100
0001
0000
1001
0000
,
1000
0100
1000
0100
1000
0000
1001
0000
,
0001
0000
0000
0001
0000
0000
0002
0000
0103
0000
0010
0000
0100
0000
0000
0000
,
1001
0000
0000
0000
,
2002
0000
3003
0000
0001
0010
0001
1000
,
0010
1010
1000
1100
,
2002
0000
3003
0000
1000
0000
0010
0100
,
0001
0100
0010
0100
0001
0000
0110
0000
,
2002
3003
0001
0101
,
1000
1100
0010
0110
,
1002
1003
2100
3100
,
0102
0103
2001
3001
,
2002
0000
3003
0000
1000
0010
1000
0001
,
0010
0011
0001
0101
,
2002
0000
3003
0000
0001
0000
0010
0100
,
1000
0100
0010
0100
1000
0000
0110
0000
,
2002
3003
1000
1100
,
0001
0101
0010
0110
,
1000
0010
1000
0010
0100
0001
0100
0001
,
1000
0100
1000
0100
0020
0000
0000
0000
,
0031
0100
0010
1000
0001
0010
0100
1000
,
0001
0100
0010
1000
0001
0010
0200
0000
,
1300
0010
0100
0001
1000
0100
0010
0001
,
1000
0010
0100
0001
1000
0100
0020
0000
,
0031
0100
0010
1000
0001
0010
0100
1000
,
0001
0100
0010
1000
0001
0010
0200
0000
,
1300
0010
0100
0001
1000
0100
0010
0001
,
1000
0010
0100
0001
1000
0100
0020
0000
,
0031
0100
0010
1000
0001
0010
0001
1000
,
0010
1000
0001
0010
0100
1000
0020
0000
,
1030
0010
0100
0001
1000
0100
1000
0001
,
0100
0001
1000
0100
0010
0001
0200
0000
,
0301
0010
0100
1000
0001
0100
0001
1000
,
0100
1000
0001
0100
0010
1000
0200
0000
,
1300
0010
1000
0001
0010
0001
1000
0010
,
0200
0000
0000
0000
,
0302
0000
0000
0000
,
2003
0000
0000
0000
,
3020
0000
0000
0000
,
0230
0000
0000
0000
,
0302
0000
0000
0000
,
0023
0000
0000
0000
,
0230
0000
0000
0000
,
2300
0000
0000
0000
,
3001
0000
0100
0010
0000
0010
0100
0001
,
1000
0000
0100
0010
0000
0010
0100
1000
,
0001
0000
0100
0010
0000
0110
0000
0010
,
1000
0001
0000
1001
0000
1000
0100
0010
,
0001
0000
0010
0100
0000
0100
0010
0001
,
1000
0000
0010
0100
0000
0100
0010
1000
,
0001
0000
0010
0100
0000
0110
0000
0100
,
0000
1000
0000
0000
1000
0000
0000
0001
0000
0000
0001
0000
1000
0000
0000
0000
,
0001
0100
0010
1000
0001
0000
0011
0000
,
1000
0100
0010
0001
1000
0000
1010
0000
,
0001
0010
0100
1000
0001
0000
0101
0000
,
1000
0010
0100
0001
1000
0000
1100
0000
,
0002
0100
1000
0010
,
2003
0100
0001
0010
,
3002
0010
1000
0100
,
2003
0010
0001
0100
,
3001
0010
0100
1000
0001
0000
0101
0000
,
1000
0010
0100
0001
1000
0000
1100
0000
,
0001
0100
0010
1000
0001
0000
0011
0000
,
1000
0100
0010
0001
1000
0000
1010
0000
,
0002
0010
1000
0100
,
2003
0010
0001
0100
,
3002
0100
1000
0010
,
2003
0100
0001
0010
,
3002
0000
0000
0000
,
1003
0000
0010
0100
0000
0100
0010
1000
,
0001
0000
0010
0100
0000
0100
0010
0001
,
1000
0000
0010
0100
0000
0110
0000
0100
,
0001
1000
0000
1001
0000
0001
0010
0100
,
1000
0000
0010
0100
0000
0100
0010
1000
,
0001
0000
0010
0100
0000
0100
0010
0001
,
2000
3020
0230
0302
,
2003
3200
0320
0000
,
0031
0000
0100
0010
0000
0010
0100
0001
,
1000
0000
0100
0010
0000
0010
0100
1000
,
0001
0000
0100
0010
0000
0110
0000
0010
,
1000
0001
0000
1001
0000
1000
0100
0010
,
0001
0000
0100
0010
0000
0010
0100
0001
,
1000
0000
0100
0010
0000
0010
0100
1000
,
0002
0203
0320
2030
,
3002
0023
0230
0000
,
2300
0000
0000
0000
,
0000
0000
0000
0000
,
0000
0000
0000
0000
,
3000
0000
0000
0000
;

//---------------dance-single - MEGAtive----------------
#NOTEDATA:;
#CHARTNAME:;
#STEPSTYPE:dance-single;
#DESCRIPTION:MEGAtive;
#CHARTSTYLE:;
#DIFFICULTY:Medium;
#METER:13;
#RADARVALUES:0.660829,0.778676,0.196246,0.546686,0.220777,660.000000,632.000000,28.000000,78.000000,0.000000,0.000000,0.000000,0.000000,0.000000,0.660829,0.778676,0.196246,0.546686,0.220777,660.000000,632.000000,28.000000,78.000000,0.000000,0.000000,0.000000,0.000000,0.000000;
#CREDIT:;
#NOTES:
0000
0000
0000
0000
,
0000
0000
0000
0000
,
0000
0000
0000
0000
,
0000
0000
0000
0000
,
0000
0000
0000
0000
,
0001
0010
0100
1000
0000
1000
0100
0000
,
1000
0010
0100
0001
0000
0001
0100
0001
,
2000
3200
0320
0032
,
2003
0010
0000
0000
0010
0000
0000
0010
0000
0000
0010
0000
3000
0000
0000
0000
,
0001
0010
0001
0100
0010
0000
0110
0000
,
1000
0010
0100
0001
0010
0000
0110
0000
,
0001
0100
0010
1000
0100
0000
1100
0000
,
1000
0100
1000
0010
0100
0000
0101
0000
,
0001
0010
0100
1000
0010
0000
0110
0000
,
1000
0010
0100
0001
0010
0000
0110
0000
,
0100
1000
0000
1000
0010
0000
0100
0000
0001
0000
0010
0000
0001
0000
0100
0000
,
0220
0000
0330
0110
,
2002
0000
3003
0001
0001
0010
1000
0010
,
0001
0100
0010
1000
0100
0010
0200
0300
,
2001
0000
0000
0000
3002
0000
0203
0000
2300
0000
3002
0000
0013
0100
0010
0000
,
1000
0010
1000
0000
0001
1000
0001
0000
0010
0000
0000
0000
0110
0000
0000
0000
,
2002
0000
3003
1000
1000
0010
0100
1000
,
0100
0101
0001
1001
,
1000
0000
0000
0100
0010
0000
0000
0100
2000
0000
3002
0000
0203
0000
2300
0000
,
3002
0023
2030
3002
0013
0100
2000
3000
,
2002
0000
3003
1000
1000
0010
0001
0010
,
1000
0100
0010
0001
0100
0010
0200
0300
,
1002
0000
0000
0000
2003
0000
3200
0000
0302
0000
2003
0000
3010
0100
0010
0000
,
0001
0010
0001
0000
1000
0001
1000
0000
0010
0000
0000
0000
0110
0000
0000
0000
,
2002
0000
3003
0001
0010
0001
0100
1000
,
0100
0110
0001
1001
,
1000
0100
0010
0001
0100
0010
1000
0001
,
0010
0100
1000
0010
2000
0000
0000
0000
,
3001
0000
1000
0000
0100
0010
0100
0000
1000
0000
0001
0100
0001
0000
0010
0000
,
0100
1000
0100
0000
0010
0000
0001
0100
0001
0000
0010
0000
0100
0000
1000
0000
,
0001
0000
1000
0000
0010
0100
0010
0000
1000
0000
0001
0010
0001
0000
0100
0000
,
0010
1000
0010
0000
0100
0000
0001
0010
0001
0000
0100
0000
0010
0000
0010
0000
,
1000
0000
0001
0000
0010
0100
0010
0000
0001
0000
1000
0010
1000
0000
0100
0000
,
0010
0001
0010
0000
0100
0000
1000
0010
1000
0000
0100
0000
0010
0000
0001
0000
,
1000
0000
0001
0000
0100
0010
0100
0000
0001
0000
1000
0100
1000
0000
0010
0000
,
0100
0001
0100
0000
0010
0000
1000
0100
1000
0000
0010
0000
0100
0000
0100
0000
,
0001
0010
0100
1000
0010
0001
0010
1000
,
0100
0001
0100
1000
0010
0100
1000
0100
,
0001
0010
0100
1000
0010
0001
0010
1000
,
0100
0001
0100
1000
0010
0100
0002
0000
,
1003
0100
0010
0001
0100
1000
0100
0001
,
0010
1000
0010
0001
0100
0010
0001
0010
,
1000
0100
1000
0000
0001
0100
0001
0000
1000
0100
1000
0000
0001
0100
0001
0000
,
0202
0000
0000
0000
0000
0000
0000
0303
,
2001
0000
3200
0320
,
0032
0000
0000
0000
0000
0000
1003
0010
,
2000
0000
3001
0010
0002
0000
0203
0000
,
0320
0000
0000
0000
2000
0000
0000
3030
,
2000
0000
0010
0010
0000
0000
0001
0000
,
3200
0000
0010
0010
0000
0000
1000
0000
,
0320
0000
0001
0001
0000
0000
0100
0000
,
0032
0000
1000
0000
,
1003
0010
0100
0001
0000
0001
0100
0000
,
0001
0010
0100
1000
0000
1000
0100
1000
,
0001
0100
0010
1000
0000
1001
0000
0001
,
0010
0100
0010
0001
1000
0010
2000
0000
,
3001
0010
0100
1000
0000
1000
0100
0000
,
1000
0010
0100
0001
0000
0001
0100
0001
,
1000
0100
0010
0001
0000
1001
0000
0001
,
0000
0001
0000
0000
0110
0000
0000
1000
0000
0000
1000
0000
0001
0000
0000
0000
,
0001
0000
0010
0000
0100
0000
1000
0000
0010
0100
0010
0000
0100
0001
0100
0000
,
0001
0000
0010
0000
0100
0000
1000
0000
0010
0100
0010
0000
1000
0001
1000
0000
,
0100
0000
0010
0000
0001
1000
0001
0000
1000
0010
1000
0000
0010
0100
0010
0000
,
1000
0001
0010
0001
0100
0010
1000
0100
,
2000
0000
0010
3010
1000
0001
0010
0002
,
0000
0000
0010
0013
0001
1000
0020
0000
,
2030
0000
0000
0000
0100
0000
3100
0000
1000
0000
0010
0100
0010
0000
1000
0001
,
1000
0000
0100
0010
0100
0000
1000
0001
1000
0000
0010
0100
0020
0000
0000
0000
,
1030
0000
0010
0000
0100
0000
0001
0000
0010
0100
0010
0000
0100
1000
0100
0000
,
1000
0000
0010
0000
0100
0000
0001
0000
0010
0100
0010
0000
0001
1000
0001
0000
,
0100
0000
0010
0000
1000
0001
1000
0000
0001
0010
0001
0000
0010
0100
0010
0000
,
0001
1000
0010
1000
0100
0010
0001
0100
,
0002
0000
0010
0013
0001
1000
0010
2000
,
0000
0000
0010
3010
1000
0001
0020
0000
,
0032
0000
0000
0000
0100
0000
0103
0000
0001
0000
0010
0100
0010
0000
0001
0100
,
0001
0000
0010
0100
0010
0000
0001
0100
0001
0000
0010
0100
0010
0000
0001
1000
,
0002
0000
0000
0000
,
1003
0010
0100
0001
0000
0001
0100
0000
,
0001
0010
0100
1000
0000
1000
0100
1000
,
0001
0100
0010
1000
0000
1001
0000
0001
,
0010
0100
0010
0001
0100
0010
2000
0000
,
3001
0010
0100
1000
0000
1000
0100
0000
,
1000
0010
0100
0001
0000
0001
0100
0001
,
2000
3200
0320
0032
,
2003
0010
0000
0000
0010
0000
0000
0010
0000
0000
0010
0000
3000
0000
0000
0000
,
0001
0100
0010
1000
0000
1000
0010
0000
,
1000
0100
0010
0001
0000
0001
0010
0001
,
1000
0010
0100
0001
0000
1001
0000
1000
,
0100
0010
0100
1000
0010
0100
0002
0000
,
1003
0100
0010
0001
0000
0001
0010
0000
,
0001
0100
0010
1000
0000
1000
0010
1000
,
0002
0023
0230
2300
,
3002
0100
0000
0000
0100
0000
0000
0100
0000
0000
0100
0000
0003
0000
0000
0000
,
2002
0000
0000
0000
,
0000
0000
0000
0000
,
0000
0000
0000
0000
,
3003
0000
0000
0000
;

//---------------dance-single - MEGAtive----------------
#NOTEDATA:;
#CHARTNAME:;
#STEPSTYPE:dance-single;
#DESCRIPTION:MEGAtive;
#CHARTSTYLE:;
#DIFFICULTY:Hard;
#METER:15;
#RADARVALUES:0.875097,1.168015,0.133167,0.820028,0.676348,874.000000,855.000000,19.000000,117.000000,0.000000,0.000000,0.000000,0.000000,0.000000,0.875097,1.168015,0.133167,0.820028,0.676348,874.000000,855.000000,19.000000,117.000000,0.000000,0.000000,0.000000,0.000000,0.000000;
#CREDIT:;
#NOTES:
0000
0000
0000
0000
,
0000
0000
0000
0000
,
0000
0000
0000
0000
,
0000
0000
0000
0000
,
0000
0000
0000
0000
,
1000
0010
0100
0001
0010
0100
1000
0001
,
1000
0100
0010
0001
0100
0010
1000
0001
,
2000
3100
0020
0130
2000
3001
0200
0301
,
1000
0010
0000
0010
1000
0000
0001
0010
0000
0010
0001
0000
0200
0000
0000
0000
,
0301
0010
0001
0100
0001
0010
0001
0100
,
0010
1000
0100
1000
0010
1000
0100
0010
,
0001
0100
0001
0010
0001
0100
0001
0010
,
0100
1000
0010
1000
0100
1000
0010
0100
,
0001
0010
0001
0010
0001
1000
0001
1000
0001
0100
0001
0100
0001
1000
0001
1000
,
0100
0010
0100
0010
0100
1000
0100
1000
0100
0010
0100
0010
0100
1000
0100
1000
,
0001
0100
0000
0100
0001
1000
0001
0000
1000
0000
0010
0000
0100
0000
0001
0000
,
2000
0000
0200
3300
0000
0002
0103
0000
,
2002
0000
0000
3003
1001
0000
1000
0000
0010
0100
0010
0000
1000
0001
1000
0000
,
0100
0000
0010
0001
0010
0000
0001
0000
1000
0000
0020
0000
0130
0000
0000
0000
,
0220
0000
0000
0330
0010
0100
0001
0000
0010
0100
1000
0000
0001
0100
0001
0100
,
0001
0100
0001
0100
0001
0100
0001
0100
0001
0000
1000
0000
0100
0000
0000
0000
,
2002
0000
0000
3003
1001
0000
0001
0000
0100
0000
1000
0000
0100
0010
0100
0001
,
0010
0100
1100
0000
1000
1010
0000
0000
,
0110
0000
0010
0100
0001
0000
0001
0010
0200
0000
1300
0000
0020
0000
0031
0000
,
0020
0000
1030
0000
0200
0000
0301
0000
0100
1000
0001
0000
0200
0000
0300
0000
,
2002
0000
0000
3003
1001
0000
0001
0000
0100
0010
0100
0000
0001
1000
0001
0000
,
0010
0000
0100
1000
0100
0000
1000
0000
0001
0000
0200
0000
0310
0000
0000
0000
,
0220
0000
0000
0330
0100
0010
1000
0000
0100
0010
0001
0000
1000
0010
1000
0010
,
1000
0010
1000
0010
1000
0010
1000
0010
1000
0000
0001
0000
0010
0000
0000
0000
,
2002
0000
0000
3003
1001
0000
1000
0000
0010
0000
0001
0000
0010
0100
0010
1000
,
0100
0010
0001
0100
2000
0100
3100
0000
,
0001
0010
0001
0000
1000
0010
1000
0000
0001
0100
0001
0000
1000
0100
1000
0000
,
0001
0010
0100
0000
1000
0010
0100
0000
1002
0000
0000
0000
0000
0000
0000
0000
,
1003
0100
1000
0000
0001
0100
0001
0000
0010
0100
0010
0100
0010
0000
0001
0100
,
0001
0100
0001
0000
1000
0100
1000
0100
1000
0000
0010
0000
0010
0000
0100
0000
,
0001
0010
0001
0000
1000
0010
1000
0000
0100
0010
0100
0010
0100
0000
1000
0010
,
1000
0010
1000
0000
0001
0010
0001
0010
0001
0000
0100
0000
0100
0000
0010
0000
,
1000
0010
1000
0000
0001
0010
0001
0000
0100
0010
0100
0010
0100
0000
0001
0010
,
0001
0010
0001
0000
1000
0010
1000
0010
1000
0000
0100
0000
0100
0000
0010
0000
,
0001
0100
0001
0000
1000
0100
1000
0000
0010
0100
0010
0100
0010
0000
1000
0100
,
1000
0100
1000
0000
0001
0100
0001
0100
0001
0000
0010
0000
0010
0000
0100
0000
,
2000
3200
0320
0032
0203
2300
3200
0302
,
0023
2030
3020
0032
0203
0320
0230
2300
,
3200
0302
0023
2030
3020
0032
0203
2300
,
3200
0320
2030
3200
0302
0203
2300
3020
,
2030
3200
0320
0032
0203
2300
3200
0302
,
0023
2030
3020
0032
0203
0320
0230
2300
,
3100
0010
0100
0010
1000
0001
1000
0001
0010
0100
0010
0100
1000
0001
1000
0001
,
0200
0010
0010
0010
0010
0010
0010
0010
,
0302
0000
2003
3200
,
0320
0000
0000
0000
0000
0000
0031
0100
,
0002
0000
1003
0100
2000
0000
3020
0000
,
0230
0000
0000
0000
0302
0000
0000
1000
,
2003
0000
3100
0200
0000
0000
0320
0000
,
0032
0000
0103
0200
0000
0000
0320
0000
,
2030
0000
3100
0200
0000
0000
0320
0000
,
0032
0000
0000
0000
0000
0000
0000
0000
2000
0000
0000
0000
0000
0000
0000
3003
,
0001
0010
0100
1000
0010
0100
1000
0100
,
0001
0010
0100
1000
0010
0100
0001
0100
,
0001
0010
0100
1000
0010
0001
0010
1000
,
1000
0000
0001
0010
0001
0010
0001
0000
1000
0010
1000
0010
1000
0000
0001
0000
,
1000
0100
0010
0001
0100
0010
0001
0010
,
1000
0100
0010
0001
0100
0010
1000
0010
,
1000
0100
0010
0001
0100
1000
0100
0001
,
1000
0100
0000
0100
1000
0000
0001
0100
0000
0100
0001
1000
0200
0000
0300
0000
,
1000
0001
0100
0000
0010
1000
0001
0000
0010
0100
0010
0000
0001
1000
0010
1000
,
0001
0000
1000
0100
1000
0000
0001
0100
0001
0010
0100
0000
1000
0100
0010
0100
,
1000
0000
0001
0000
0100
0001
1000
0000
0100
1000
0001
0000
0010
0100
2000
0000
,
0001
0000
0010
0000
0001
0000
0100
0000
3002
0000
0100
0000
1000
0000
0103
0010
,
1000
0010
0100
0000
1000
0100
0010
0100
1000
0000
0001
0100
0010
1000
0100
0010
,
0001
0000
1000
0000
0001
0100
0010
0100
0001
0000
0010
0100
1000
0000
0001
0000
,
0100
0010
0100
0000
0001
0010
0100
0010
0001
0000
0100
0010
1000
0000
0010
0100
,
0001
0000
0010
0100
1000
0000
0010
0100
0001
0010
0100
0010
0002
0000
0000
0000
,
1003
0010
0100
0000
0010
0100
0001
0000
1000
0100
0010
0100
0010
0001
1000
0001
,
1000
0000
0010
0100
0001
0000
0010
0100
1000
0010
0100
0010
0100
0001
1000
0000
,
0001
0010
0100
0000
1000
0010
0100
0000
0100
0001
0010
0000
0010
0100
1000
0001
,
0100
0010
0100
0000
0001
1000
0100
0000
0010
0001
1000
0000
0010
0000
0100
0001
,
0010
0000
0100
0000
1000
0010
0100
0010
1000
0000
0001
0010
0100
0010
0001
1000
,
0001
0000
0100
0000
0010
0100
0001
0100
0010
0000
1000
0100
0010
0100
1000
0001
,
0100
0010
0100
0000
0001
0010
0100
0010
0001
0000
1000
0010
0100
0010
1000
0010
,
0100
0000
0001
0010
0100
0000
1000
0010
0100
0000
0001
0010
0100
0000
1000
0010
,
0200
0000
0000
0000
,
0301
0010
0100
1000
0010
0100
0001
1000
,
0001
0100
0010
1000
0100
0010
0001
1000
,
0001
0100
0010
1000
0001
1000
0100
0010
,
0001
0000
0000
0001
0100
0000
0110
0000
0000
1000
0100
0000
0220
0000
0330
0000
,
0001
0100
0010
1000
0100
0010
0001
1000
,
0001
0010
0100
1000
0010
0100
0001
1000
,
0002
0013
0200
0310
0002
1003
0020
1030
,
0001
0010
0000
0001
0010
0000
0001
0100
0000
0001
0100
0000
0001
1000
0100
0000
,
1000
0010
0100
0001
0010
0100
1000
0001
,
1000
0100
0010
0001
0100
0010
1000
0001
,
1000
0100
0010
0001
1000
0001
0100
0010
,
1000
0000
0000
1000
0100
0000
0110
0000
0000
0001
0100
0000
0220
0000
0330
0000
,
1000
0100
0010
0001
0100
0010
1000
0001
,
1000
0010
0100
0001
0010
0100
1000
0001
,
2000
3010
0200
0310
2000
3001
0020
0031
,
1000
0010
0000
1000
0010
0000
1000
0100
0000
1000
0100
0000
1000
0010
0100
0000
,
0220
0000
0000
0000
,
0000
0000
0000
0000
,
0000
0000
0000
0000
,
0330
0000
0000
0000
;

//---------------dance-single - MEGAtive----------------
#NOTEDATA:;
#CHARTNAME:;
#STEPSTYPE:dance-single;
#DESCRIPTION:MEGAtive;
#CHARTSTYLE:;
#DIFFICULTY:Challenge;
#METER:18;
#RADARVALUES:1.038302,1.168015,0.105132,0.420527,1.198503,1037.000000,1022.000000,15.000000,60.000000,20.000000,0.000000,1.000000,0.000000,0.000000,1.038302,1.168015,0.105132,0.420527,1.198503,1037.000000,1022.000000,15.000000,60.000000,20.000000,0.000000,1.000000,0.000000,0.000000;
#CREDIT:;
#NOTES:
// measure 0
0000
0000
0000
0000
,  // measure 1
0000
0000
0000
0000
,  // measure 2
0000
0000
0000
0000
,  // measure 3
0000
0000
0000
0000
,  // measure 4
0000
0000
0000
0000
,  // measure 5
1000
0100
0010
0001
0100
0010
1000
0100
,  // measure 6
1000
0000
0010
0000
0100
0000
0001
0000
0010
0000
0100
0000
1000
0001
1000
0000
,  // measure 7
0002
0103
2000
3100
0002
0013
2000
3010
,  // measure 8
0001
1000
0000
0001
1000
0000
0010
0100
0000
0010
0100
0000
0001
1000
0001
1000
,  // measure 9
0001
0010
0001
0100
0010
0001
0010
0100
,  // measure 10
0001
1000
0100
1000
0010
0001
0020
0000
,  // measure 11
1030
0100
1000
0010
0100
1000
0100
0010
,  // measure 12
1000
0001
0010
0001
0100
1000
0200
0000
,  // measure 13
0301
0010
0001
0010
0100
0010
0100
0010
0001
0100
0001
0100
0010
0100
0010
0100
,  // measure 14
0001
0010
0001
0010
1000
0010
1000
0010
0001
0100
0001
0100
1000
0100
1000
0100
,  // measure 15
0010
0100
0001
0010
0100
1000
0010
0100
0001
0000
1000
0000
0100
0000
0010
0001
,  // measure 16
0200
0000
0020
0000
0330
2002
3003
0000
,  // measure 17
2001
0000
0010
0000
3001
0000
1000
0000
1100
0000
1000
0010
0100
0001
0010
0100
,  // measure 18
1000
0000
0001
0100
0001
0000
1000
0100
1000
0000
0010
0000
0120
0000
0030
0000
,  // measure 19
1002
0000
0000
0000
1003
0100
0010
0001
1000
0100
0010
0001
0100
0010
0100
0001
,  // measure 20
0100
0010
0100
0001
0100
0010
1000
0000
1000
0000
0001
0000
0010
0000
0000
0000
,  // measure 21
1002
0000
0010
0000
1003
0000
0001
0000
0101
0000
0100
0000
0001
0010
0100
1000
,  // measure 22
0001
0200
1300
0100
0002
0013
0100
1000
,  // measure 23
0001
0100
0010
0000
1000
0100
0010
0000
0001
0100
0001
0100
0010
1000
0010
1000
,  // measure 24
0001
0010
0001
0010
0100
1000
0100
1000
0001
0100
0010
0000
0220
0000
0330
0000
,  // measure 25
1002
0000
0100
0000
1003
0000
0001
0000
0011
0000
0001
0100
0010
1000
0100
0010
,  // measure 26
0001
0000
1000
0010
1000
0000
0001
0010
0001
0000
0100
0000
0210
0000
0300
0000
,  // measure 27
2001
0000
0000
0000
3001
0010
0100
1000
0001
0010
0100
1000
0010
0100
0010
1000
,  // measure 28
0010
0100
0010
1000
0010
0100
0001
0000
0001
0000
1000
0000
0100
0000
0000
0000
,  // measure 29
2001
0000
0100
0000
3001
0000
0011
0000
1000
0000
1010
0000
1000
0100
0010
0001
,  // measure 30
2000
3020
0032
0023
2030
3100
0020
0031
,  // measure 31
1000
0100
0010
0100
1000
0100
0010
0100
1000
0010
0100
0010
1000
0010
0100
0010
,  // measure 32
1000
0001
0010
0001
1000
0001
0100
0001
2000
0000
0000
0000
0000
0000
0000
0000
,  // measure 33
3001
0010
0001
0010
0100
1000
0010
0000
0100
0001
0100
0001
0010
0000
0100
1000
,  // measure 34
0100
1000
0010
0000
1000
0010
0100
0010
1000
0000
0100
0010
0001
0010
0100
1000
,  // measure 35
0001
0100
0001
0100
0010
1000
0100
0000
0010
0001
0010
0001
0100
0000
0010
1000
,  // measure 36
0010
1000
0100
0000
1000
0100
0010
0100
1000
0000
0010
0100
0001
0010
0100
0000
,  // measure 37
1000
0010
1000
0010
0100
0001
0010
0000
0100
1000
0100
1000
0010
0000
0100
0001
,  // measure 38
0100
0001
0010
0000
0001
0010
0100
0010
0001
0000
0100
0010
1000
0010
0100
0001
,  // measure 39
1000
0100
1000
0100
0010
0001
0100
0000
0010
1000
0010
1000
0100
0000
0010
0001
,  // measure 40
0010
0001
0100
0000
0001
0100
0010
0100
0001
0000
0010
0100
1000
0010
0100
0000
,  // measure 41
0001
0010
0001
0010
0001
0100
0010
0000
1000
0010
0100
0001
1000
0000
0100
0010
,  // measure 42
0001
1000
0010
0000
0100
0001
0010
0100
1000
0000
0100
0010
0001
0100
0010
0000
,  // measure 43
1000
0100
1000
0100
1000
0010
0100
0000
0001
0100
0010
1000
0001
0000
0010
0100
,  // measure 44
1000
0001
0100
0000
0010
1000
0100
0010
0001
0000
0010
0100
1000
0010
0100
0000
,  // measure 45
0001
0100
0001
0100
0001
0010
0100
0000
1000
0100
0010
0001
1000
0000
0010
0100
,  // measure 46
0001
1000
0100
0000
0010
0001
0100
0010
1000
0000
0010
0100
0001
0010
0100
0000
,  // measure 47
1000
0100
0010
0100
1000
0100
0010
0100
1000
0010
0100
0010
1000
0010
0100
0010
,  // measure 48
1000
0001
1000
0001
1000
0001
1000
0001
1000
0001
1000
0001
1000
0001
1000
0001
,  // measure 49
2000
0000
3002
0203
,  // measure 50
0320
0000
0000
0000
0000
0000
1030
0100
,  // measure 51
0020
0000
0031
0010
0200
0000
2300
0000
,  // measure 52
3020
0000
0000
0000
0230
0000
0000
0001
,  // measure 53
0302
0000
0010
0023
0000
0000
0230
0000
,  // measure 54
2300
0000
0010
3020
0000
0000
0230
0000
,  // measure 55
0302
0000
0010
0023
0000
0000
0230
0000
,  // measure 56
2300
0000
0000
0000
0002
0000
0000
3003
,  // measure 57
0001
0010
M01M
1000
0010
M01M
0100
1000
,  // measure 58
0001
0000
0100
0000
M10M
0000
1000
0000
0100
0000
M10M
0000
0010
0100
0001
0000
,  // measure 59
1000
0100
M10M
0001
0100
1000
0100
0001
,  // measure 60
1000
0000
0100
0010
0100
0010
0100
0000
1000
0001
1000
0001
1000
0000
1000
0000
,  // measure 61
0001
0100
M10M
1000
0010
M01M
0100
1000
,  // measure 62
0001
0000
0100
0000
M10M
0000
0010
0000
0100
0000
M10M
0000
0001
1000
0100
0000
,  // measure 63
1000
0010
M01M
0001
0100
0001
0010
0001
,  // measure 64
0100
1000
0000
0100
0001
0000
0010
1000
0000
0010
0001
1000
0001
0100
0001
0100
,  // measure 65
0001
0010
0100
1000
0010
0100
0010
1000
0001
0010
0001
0010
0100
0010
0100
0010
,  // measure 66
0001
1000
0001
1000
0010
0100
0001
0100
0001
0010
0100
1000
0010
0100
0010
1000
,  // measure 67
0010
0100
0010
0100
0001
0010
0100
0010
0001
0010
0100
0010
0001
0100
0010
1000
,  // measure 68
0100
0010
0100
0010
0001
1000
0001
1000
0010
0100
0010
0100
0001
0010
0001
1000
,  // measure 69
0010
0100
0010
0100
0001
0010
0100
0010
0001
1000
0010
0100
0010
1000
0010
0100
,  // measure 70
0001
0010
0001
0010
0100
1000
0010
0100
0001
0010
0001
0100
0010
1000
0010
0100
,  // measure 71
0001
1000
0100
0010
0001
0100
0010
0100
0001
1000
0100
0010
0100
1000
0010
0100
,  // measure 72
0010
1000
0010
1000
0001
0010
0001
0010
0100
1000
0100
1000
0004
0000
0000
0000
,  // measure 73
1003
0010
0100
0001
0010
0100
0010
0001
1000
0010
1000
0010
0100
0010
0100
0010
,  // measure 74
1000
0001
1000
0001
0010
0100
1000
0100
1000
0010
0100
0001
0010
0100
0010
0001
,  // measure 75
0010
0100
0010
0100
1000
0010
0100
0010
1000
0010
0100
0010
1000
0100
0010
0001
,  // measure 76
0100
0010
0100
0010
1000
0001
1000
0001
0010
0100
0010
0100
1000
0010
1000
0001
,  // measure 77
0010
0100
0010
0100
1000
0010
0100
0010
1000
0001
0010
0100
0010
0001
0010
0100
,  // measure 78
1000
0010
1000
0010
0100
0001
0010
0100
1000
0010
1000
0100
0010
0001
0010
0100
,  // measure 79
1000
0001
0100
0010
1000
0100
0010
0100
1000
0001
0100
0010
0100
0001
0010
0100
,  // measure 80
0010
0001
0010
0001
1000
0010
1000
0010
0100
0001
0100
0001
1000
0100
0010
0100
,  // measure 81
2000
0000
0000
0000
,  // measure 82
3001
0010
0100
1000
0010
0100
0001
1000
,  // measure 83
0001
0000
0010
0000
0100
0000
1000
0000
0010
0000
0100
0000
0001
0010
0100
0000
,  // measure 84
1000
0010
0100
0001
0010
0001
0100
0010
,  // measure 85
1000
0000
0100
0010
0100
0010
0001
0000
0100
0010
0100
0010
1000
0000
1000
0000
,  // measure 86
0001
0010
0100
1000
0010
0100
0001
1000
,  // measure 87
0001
0000
0010
0000
0100
0000
1000
0000
0010
0000
0100
0000
0001
0010
0100
0000
,  // measure 88
2000
0010
3002
0010
2003
0100
3002
0100
,  // measure 89
1003
0010
0100
0010
0100
0000
0001
0010
0100
0010
0100
1000
0001
1000
0002
0000
,  // measure 90
1003
0100
0010
0001
0100
0010
1000
0001
,  // measure 91
1000
0000
0100
0000
0010
0000
0001
0000
0100
0000
0010
0000
1000
0100
0010
0000
,  // measure 92
0001
0100
0010
1000
0100
1000
0010
0100
,  // measure 93
0001
0000
0010
0100
0010
0100
1000
0000
0010
0100
0010
0100
0001
0000
0001
0000
,  // measure 94
1000
0100
0010
0001
0100
0010
1000
0001
,  // measure 95
1000
0000
0100
0000
0010
0000
0001
0000
0100
0000
0010
0000
1000
0100
0010
0000
,  // measure 96
0002
0100
2003
0100
3002
0010
2003
0010
,  // measure 97
3001
0100
0010
0100
0010
0000
1000
0100
0010
0100
0010
0001
1000
0001
1000
0001
,  // measure 98
2000
0000
0000
0000
,  // measure 99
0000
0000
0000
0000
,  // measure 100
0000
0000
0000
0000
,  // measure 101
3000
0000
0000
0000
;
