#TITLE:Street;
#SUBTITLE:;
#ARTIST:Jamie Woon;
#TITLETRANSLIT:;
#SUBTITLETRANSLIT:;
#ARTISTTRANSLIT:;
#GENRE:R&B;
#CREDIT:;
#BANNER:Street.png;
#BACKGROUND:Street-bg.png;
#LYRICSPATH:;
#CDTITLE:CDTitle.png;
#MUSIC:Street.ogg;
#OFFSET:-0.000000;
#SAMPLESTART:58.380650;
#SAMPLELENGTH:21.272144;
#LASTBEATHINT:168.000000;
#SELECTABLE:YES;
#BPMS:0.000000=110.002998
;
#STOPS:
;
#BGCHANGES:;
#KEYSOUNDS:;
#ATTACKS:;

//---------------dance-single - Classic 7 | Modern 9----------------
#NOTES:
     dance-single:
     :
     Hard:
     9:
     0.437383,0.438876,0.219438,0.532921,0.010449,293.000000,272.000000,21.000000,51.000000,0.000000,0.000000,0.437383,0.438876,0.219438,0.532921,0.010449,293.000000,272.000000,21.000000,51.000000,0.000000,0.000000:
0000
0000
0000
0000
,
0000
0000
0000
0000
,
0100
0010
0100
0001
1000
0100
0010
0100
,
1000
0010
1000
0001
1000
0010
0100
0001
,
0020
0001
0001
0031
0200
0010
0320
1000
,
2030
0100
3100
1000
0001
0010
0001
1000
,
0002
0010
0010
1000
1000
0100
0203
2300
,
3200
0001
0302
0010
0013
0100
2000
0010
,
3010
0100
1000
0100
0001
0010
0100
0010
,
0001
0010
1000
0010
0001
0100
0220
0330
,
2010
0000
0001
0000
3100
1000
0001
0000
,
0012
0000
1000
0000
0103
0001
1000
0000
,
0002
0010
0023
0000
2030
0010
3020
0000
,
0032
0000
0000
0000
2003
0000
0000
3001
0100
0000
0010
0000
1010
0000
0000
0000
,
1000
0100
1000
0010
1000
0100
0010
0001
,
0100
0001
0010
0001
2000
0001
3002
0000
,
0203
0301
1000
0100
0010
1000
0001
0100
,
1000
0001
0100
0010
1000
0001
2002
3003
,
0102
0000
1000
0000
0013
0001
1000
0000
,
2100
0000
0001
0000
3010
1000
0001
0000
,
2000
0100
3200
0000
0302
0100
0203
0000
,
2300
0000
0000
0000
3020
0000
0000
0130
0001
0000
0010
0000
0011
0000
0000
0000
,
0100
1000
0001
1000
0010
0100
0001
0100
,
0010
1000
0001
1000
0200
0010
0320
0000
,
0031
0010
1000
0010
0001
0010
0100
0010
,
0002
1000
1003
0010
1000
0001
0100
0000
,
0220
0000
0330
0000
1100
0000
0101
0010
,
2001
3100
0010
0001
0012
0000
1003
0000
,
2002
3003
1100
0000
0001
1000
0100
0000
,
0010
1000
0010
0001
0010
0100
0010
0001
,
1000
0010
0100
0010
0001
0010
0100
0010
,
1000
0100
0010
0001
0202
0303
1002
0013
,
2100
3001
0100
0010
0120
0000
1030
0000
,
2002
3003
0101
0000
0010
1000
0100
0000
,
0010
0001
0100
1000
0100
0001
0100
0010
,
1000
0100
1000
0100
1000
0100
0001
0100
,
0001
0010
0001
0010
0001
0010
1000
0010
,
0100
0010
0100
0001
0010
0100
0010
1000
,
0001
0100
1000
0001
0100
0010
0001
1000
,
0100
0010
1000
0001
0010
0100
0001
1000
,
0010
0001
0100
0020
0100
0100
1000
2000
,
0000
0000
0000
0000
,
3030
0000
0000
0000
;

//---------------dance-single - Classic 5 | Modern 7----------------
#NOTES:
     dance-single:
     :
     Medium:
     7:
     0.313483,0.329157,0.114944,0.417977,0.000000,210.000000,199.000000,11.000000,40.000000,0.000000,0.000000,0.313483,0.329157,0.114944,0.417977,0.000000,210.000000,199.000000,11.000000,40.000000,0.000000,0.000000:
0000
0000
0000
0000
,
0000
0000
0000
0000
,
1000
0000
0001
1000
0100
0000
0010
0000
,
0100
0000
1000
0000
0001
0000
0100
0010
,
0200
0000
0301
1000
0200
0000
0320
0000
,
0032
0000
1003
0001
0100
0010
1000
0000
,
0002
0000
0100
0000
0100
0000
0103
0001
,
2000
0000
0100
0000
3100
0010
0002
0000
,
1003
0100
1000
0000
0001
0100
0001
0000
,
1000
0010
1000
0001
0010
0000
0110
0000
,
2000
0010
3001
0201
,
0302
0010
1003
1100
,
1000
0000
0010
0000
0001
0100
1000
0000
,
0002
0000
2003
0000
3010
1000
0100
0000
,
1000
0010
0100
0000
0001
0100
0010
0000
,
0100
0001
0100
0001
2000
0000
3001
0000
,
0200
0301
0002
1003
,
2000
0000
3100
0010
0100
0000
0120
0000
,
0032
0010
1003
1010
,
2000
0010
3001
0011
,
0001
0000
0010
0000
1000
0100
0001
0000
,
2000
0000
3002
0000
0013
0001
0100
0000
,
0001
0010
0001
0000
1000
0010
1000
0010
,
0200
0000
0301
0010
0002
0000
2003
0000
,
3020
0000
0130
0000
0001
1000
0100
0000
,
0020
0000
0100
0100
,
0200
0000
0330
0000
0110
0000
0001
1000
,
0200
0000
1300
0001
0200
0000
0310
0000
,
0110
0000
1001
0000
0001
1000
0001
0000
,
0010
0001
0010
0001
2000
0000
3010
0000
,
0020
1000
0100
1000
,
0230
0000
0301
0000
2000
0000
3100
0010
,
0002
1003
0010
0000
2000
3001
0010
0000
,
0110
0000
1001
0000
0010
1000
0100
0000
,
0010
0001
0100
0001
0200
0000
0310
0000
,
2000
0001
0100
0001
,
3002
0000
1000
0000
0100
0000
1003
0001
,
1000
0010
1000
0000
0001
1000
0100
0000
,
0010
0001
0010
0000
0001
1000
0010
0000
,
1000
0010
1000
0000
0010
0001
0010
0000
,
1000
0100
1000
0002
0100
0000
0200
0000
,
0000
0000
0000
0000
,
0303
0000
0000
0000
;

//---------------dance-single - Classic 3 | Modern 5----------------
#NOTES:
     dance-single:
     :
     Easy:
     5:
     0.208989,0.255489,0.083595,0.459775,0.000000,140.000000,132.000000,8.000000,44.000000,0.000000,0.000000,0.208989,0.255489,0.083595,0.459775,0.000000,140.000000,132.000000,8.000000,44.000000,0.000000,0.000000:
// measure 0
0000
0000
0000
0000
,  // measure 1
0000
0000
0000
0000
,  // measure 2
1000
0001
1000
1000
,  // measure 3
0001
1000
0001
0001
,  // measure 4
0020
0000
0032
2003
,  // measure 5
0002
0000
3003
0000
,  // measure 6
2000
0000
0010
3020
,  // measure 7
0230
0000
0010
0320
,  // measure 8
1030
1000
0100
0100
,  // measure 9
0020
0032
1003
1002
,  // measure 10
2003
0000
3001
0100
,  // measure 11
0020
0000
0200
0330
,  // measure 12
0001
0010
0100
1000
,  // measure 13
0020
2030
0200
3300
,  // measure 14
0010
0001
1000
0100
,  // measure 15
0010
0001
1000
1000
,  // measure 16
0200
0300
2000
3000
,  // measure 17
0002
0003
0000
1002
,  // measure 18
2003
0000
3010
0100
,  // measure 19
0002
0000
2000
3003
,  // measure 20
0200
2300
3002
0013
,  // measure 21
0200
0320
0200
0330
,  // measure 22
0010
0001
0010
0100
,  // measure 23
1000
0010
1000
1000
,  // measure 24
0002
0103
0100
0001
,  // measure 25
0020
0000
0000
0000
,  // measure 26
0200
0330
0110
1000
,  // measure 27
1001
0001
1000
0100
,  // measure 28
0220
0330
0001
0001
,  // measure 29
0100
0010
0100
0001
,  // measure 30
2000
0010
0010
0010
,  // measure 31
3020
0130
0210
0301
,  // measure 32
1002
1003
0002
0103
,  // measure 33
0210
0010
0020
0330
,  // measure 34
0001
0100
1000
0100
,  // measure 35
0002
1000
1000
1000
,  // measure 36
2003
0001
0001
0001
,  // measure 37
3001
1000
0100
1000
,  // measure 38
0001
0100
0010
0100
,  // measure 39
0001
0010
1000
0010
,  // measure 40
0001
0001
1000
1000
;
