#TITLE:Strangers;
#SUBTITLE:(Oliverse Remix);
#ARTIST:Emily Vaughn;
#TITLETRANSLIT:;
#SUBTITLETRANSLIT:;
#ARTISTTRANSLIT:;
#GENRE:;
#CREDIT:;
#BANNER:Strangers (Oliverse Remix).png;
#BACKGROUND:Strangers (Oliverse Remix)-bg.png;
#LYRICSPATH:;
#CDTITLE:;
#MUSIC:Strangers (Oliverse Remix).ogg;
#OFFSET:1.715565;
#SAMPLESTART:54.847160;
#SAMPLELENGTH:13.714279;
#LASTBEATHINT:1.596625;
#SELECTABLE:YES;
#BPMS:0.000000=140.000000
;
#STOPS:
;
#BGCHANGES:;
#KEYSOUNDS:;
#ATTACKS:;

//---------------dance-single - ----------------
#NOTES:
     dance-single:
     :
     Hard:
     14:
     0.678661,0.702521,0.192802,0.007712,0.489716,616.000000,591.000000,25.000000,1.000000,0.000000,0.000000,0.678661,0.702521,0.192802,0.007712,0.489716,616.000000,591.000000,25.000000,1.000000,0.000000,0.000000:
0000
0000
0000
0000
,
0000
0000
0000
0000
,
0000
0000
0000
0000
,
0000
0000
0000
0000
,
0000
0000
0000
0000
,
0000
0000
0000
0000
,
0000
0000
0000
0000
,
0001
0100
1000
0010
,
0001
0000
0000
0010
0000
0000
1000
0000
0000
0100
0000
0000
0001
0000
0000
1000
0000
0000
1000
0000
0100
0000
0010
0000
,
0001
0000
0000
1000
0000
0000
0010
0000
0000
1000
0000
0001
0000
0000
0001
0010
0000
0000
0100
0000
0000
0000
0000
0000
,
1000
0000
0000
0001
0000
0000
0010
0000
0000
0001
0000
1000
0000
0000
1000
0100
0000
0000
0010
0000
0000
0001
0000
0000
,
1000
0000
0000
0001
0000
0000
0100
0000
0000
0001
0000
0010
0000
0000
0010
0100
0000
0000
1000
0000
0000
0001
0000
0000
,
2000
0000
0000
0000
0000
3010
0000
0000
0000
0100
0000
0001
1000
0000
0100
0010
0000
0000
0010
0000
0000
0100
0000
0000
,
0010
0000
0000
0001
0000
0000
1000
0000
0000
0100
0000
0010
0000
0000
0010
0100
0000
0000
1000
0000
0000
0000
0000
0000
,
0010
0000
0000
1000
0000
0000
0001
0000
0000
0100
0000
0010
0000
0000
0010
0100
0000
0000
0001
0000
0000
1000
0000
0000
,
0100
0000
0000
0010
0000
0000
0001
0000
0000
1000
0000
0100
0000
0000
0100
1000
0000
0000
0001
0000
0000
0000
0000
0000
,
1000
0000
0000
0100
0000
0000
0010
0000
0000
0100
0000
0010
0000
0000
0010
0001
0000
0100
0010
0000
0000
1000
0000
0000
,
1001
0000
0000
0000
0000
0000
0001
0000
0000
0000
1000
0000
0100
0000
0000
0000
0000
0000
1000
0000
0000
0000
0000
0000
0010
0000
0000
0000
0100
0000
0010
0000
0000
1000
0000
0000
0010
0000
0000
0000
0000
0000
0100
0000
0000
0000
0000
0000
,
0001
0000
0000
1000
0000
0001
0100
0000
0000
0010
0000
1000
0000
0000
1000
0100
0000
0010
0001
0000
0000
1000
0000
0000
,
0100
0000
0000
1000
0000
0001
0010
0000
0000
0001
0000
1000
0000
0000
1000
0010
0000
0000
0001
0000
0000
0010
0000
0000
,
1000
0000
0000
0001
0000
0000
0100
0000
0000
0001
0000
0000
0010
0000
0100
0010
0000
0000
0001
0000
0000
1000
0000
0000
,
0001
0000
0000
0000
0000
0000
1000
0000
0000
0000
0001
0000
0010
0000
0000
0000
0000
0000
0001
0000
0000
0000
0000
0000
0100
0000
0000
0000
0010
0000
0100
0000
0000
0001
0000
0000
0100
0000
0000
0000
0000
0000
0010
0000
0000
0000
0000
0000
,
1000
0000
0000
0001
0000
1000
0010
0000
0000
1000
0000
0001
0000
0000
0001
0010
0000
0100
1000
0000
0000
0001
0000
0000
,
0010
0000
0000
0001
0000
1000
0100
0000
0000
1000
0000
0000
0001
0000
0100
0010
0000
0000
1000
0000
0000
0001
0000
0000
,
0100
0000
0000
0000
0000
0000
0010
0000
0000
0000
0000
0000
1000
0000
0000
0001
0000
0000
1000
0000
0000
0001
0000
0000
0100
0000
0000
0000
0001
0000
0010
0000
0000
0000
0100
0000
1000
0000
0000
0000
0000
0000
0010
0000
0000
0000
0000
0000
,
1000
0000
0010
0000
1000
0001
0000
0000
0001
0000
0010
0001
0000
1000
0100
0000
,
0010
0000
0100
0000
1000
0100
0010
0000
0001
0000
1000
0010
0000
1000
0001
0000
,
0100
0000
0010
0000
1000
0010
0000
0000
0010
0000
1000
0001
1000
0000
0100
0000
,
0010
0000
0100
0000
1000
0001
1000
0000
0010
0000
0100
0001
0000
0100
0010
0000
,
1000
0000
0001
0000
0100
0001
0000
0000
1000
0000
0010
1000
0000
0001
0100
0000
,
0010
0000
1000
0000
0100
0010
0100
0000
0010
0000
0001
0010
0100
1000
0001
0000
,
1000
0100
0010
0001
0100
0001
1000
0010
,
1000
0100
0010
0001
0010
0001
0100
0010
1000
0000
0000
0000
0000
0000
0000
0000
,
0001
0100
1000
0010
1000
0100
0001
1000
,
0100
0000
0001
0000
0100
0000
1000
0010
0100
0000
0001
0000
0010
0001
1000
0000
,
0001
0010
1000
0100
1000
0010
0001
0100
,
0010
0001
0010
1000
1001
0100
0010
0001
,
1000
0100
0001
0010
0001
0100
1000
0001
,
0100
0000
1000
0000
0100
0000
0001
1000
0010
0000
0100
0000
0001
0010
0100
0000
,
1000
0010
0001
0100
0001
0010
1000
0001
,
0010
0000
0100
0000
1000
0000
0100
0000
0011
0000
0001
0010
0000
0100
0000
0100
,
0001
0010
0001
0100
1000
0010
0100
0001
,
1000
0000
0001
0000
0100
0000
0010
1000
0001
0000
0010
0000
0001
0010
0100
0000
,
0010
1000
0010
0001
1000
0010
0100
0001
,
0100
0010
1000
0001
1001
1000
0100
0010
,
1000
0100
1000
0010
0001
1000
0010
0100
,
0001
0000
1000
0000
0100
0000
0010
0001
1000
0000
0001
0000
0100
0010
1000
0000
,
0010
0001
0010
1000
0001
0010
0100
1000
,
0100
0000
0010
0000
0100
0000
1000
0000
1100
0000
0100
0010
0001
1000
0001
1000
,
0010
0000
1000
0000
0010
0000
1000
0000
0001
0000
1000
0000
0100
0010
0100
0010
,
0001
0000
1000
0001
0100
0000
0001
1000
0100
0000
0010
0000
0100
0010
0100
0010
,
0001
0000
0010
0000
0001
0000
0010
0000
1000
0000
0010
0000
0001
1000
0001
1000
,
0001
0000
1000
0001
0010
0000
0001
1000
0100
0000
1000
0000
0010
1000
0010
1000
,
0001
0000
0100
0000
0001
0010
0001
0010
0100
0000
1000
0000
0001
0100
0001
0100
,
0010
0000
1000
0000
0010
0000
0100
0010
0100
0000
0001
0000
1000
0001
1000
0001
,
1000
0000
0100
0010
0001
0000
1000
0000
0001
0000
0100
0000
0001
0000
1000
0010
,
0100
0000
0001
0000
0100
0000
1000
0000
0100
0001
0000
1000
0000
0100
0010
0000
,
0011
0000
0000
0001
1000
0000
0100
0000
1100
0000
0000
1000
0010
0000
0100
0000
,
0001
0000
0100
0000
1000
0000
0100
0001
1000
0000
0100
0000
0010
0001
1000
0000
,
1010
0000
0000
0010
1000
0000
0001
0000
0101
0000
0000
0100
0001
0000
0010
0000
,
0100
0000
0000
0010
0100
0000
1000
0000
0001
0000
1000
0000
0001
0000
1000
0000
,
1010
0000
0000
1000
0010
0000
0100
0000
0101
0000
0000
0001
0010
0000
0100
0000
,
1000
0000
0010
0000
0001
0000
0010
1000
0001
0000
0010
0000
0100
1000
0001
0000
,
0011
0000
0000
0010
0001
0000
1000
0000
1100
0000
0000
0100
0010
0000
0001
0000
,
1000
0000
0010
1000
0001
0000
0100
0000
0001
0000
0010
0100
1000
0000
0001
0000
,
1001
1000
0011
1001
,
0001
0000
0000
0000
1000
0000
0010
0100
0001
0000
0100
0000
0010
1000
0001
0000
,
0011
0001
1100
1001
,
1000
0000
1000
0000
0001
0000
0010
0000
0100
0000
0010
0001
0000
0001
1000
0000
,
1001
0010
0101
1100
,
1000
0000
0000
0000
0001
0000
0010
0100
1000
0000
0100
0000
0010
0001
1000
0000
,
1010
0010
1001
0011
,
0001
0000
0001
0000
1000
0000
0010
0000
0100
0010
0000
1000
0000
1000
0001
0000
;

//---------------dance-single - ----------------
#NOTES:
     dance-single:
     :
     Medium:
     11:
     0.437384,0.449613,0.161953,0.030848,0.061696,397.000000,376.000000,21.000000,4.000000,0.000000,0.000000,0.437384,0.449613,0.161953,0.030848,0.061696,397.000000,376.000000,21.000000,4.000000,0.000000,0.000000:
0000
0000
0000
0000
,
0000
0000
0000
0000
,
0000
0000
0000
0000
,
0000
0000
0000
0000
,
0000
0000
0000
0000
,
0000
0000
0000
0000
,
0000
0000
0000
0000
,
0000
0000
0000
0000
,
0000
0000
0000
0000
,
1000
0000
0000
0000
0000
0000
0001
0000
0000
0000
0000
0100
0000
0000
0000
0100
0000
0000
0001
0000
0000
0000
0000
0000
,
1000
0000
0000
0100
0000
0000
0010
0000
0000
0000
0000
0001
0000
0000
0000
0001
0000
0000
0010
0000
0000
0000
0000
0000
,
0001
0000
0000
0000
0000
0000
1000
0000
0000
0000
0000
0100
0000
0000
0000
0100
0000
0000
1000
0000
0000
0000
0000
0000
,
0001
0000
0000
0000
0000
0010
0000
0000
0000
0000
0000
0000
0010
0000
0000
0100
0000
0000
0010
0000
0000
0100
0000
0000
,
1000
0000
0000
0000
0000
0000
0010
0000
0000
0000
0000
0100
0000
0000
0000
0100
0000
0000
0010
0000
0000
0000
0000
0000
,
1000
0000
0000
0001
0000
0000
0010
0000
0000
0000
0000
0100
0000
0000
0000
0100
0000
0000
0010
0000
0000
0000
0000
0000
,
0001
0000
0000
0000
0000
0000
0100
0000
0000
0000
0000
0010
0000
0000
0000
0010
0000
0000
0100
0000
0000
0000
0000
0000
,
0001
1000
0100
0000
0010
0100
0010
0001
,
1000
0000
0010
0000
0000
0100
0010
1000
,
1000
0000
0001
0000
1000
0100
0010
0001
,
1000
0000
0001
0100
0000
0010
0100
0010
,
1000
0000
1001
0000
0001
0100
0010
1000
,
0001
0000
0010
0000
0000
0100
0010
0001
,
0001
0000
1000
0000
0001
0010
0100
1000
,
0001
0000
1000
0000
0000
0010
1000
0001
,
0100
0000
0001
0000
1000
0001
1000
0000
,
1010
0000
0010
0000
1000
0100
1000
0000
,
0001
0000
0010
0000
0001
0100
0001
0000
,
1000
0000
0010
0000
0100
0010
1000
0001
,
0010
0000
0100
0000
0010
0001
0010
0000
,
0110
0000
1000
0000
0001
1000
0001
0000
,
0100
0000
0010
0000
1000
0010
1000
0000
,
0011
1000
1100
0001
,
0010
0001
0010
0100
1000
0000
0000
0000
,
0010
1000
0000
1000
0001
0000
0001
0010
,
0000
1000
0010
0001
1000
0001
0100
0010
,
0100
0001
0000
0001
1000
0000
1000
0010
,
0000
1000
0010
1000
0000
0001
0010
0100
,
1000
0001
0000
0001
0010
0000
0010
0100
,
0000
1000
0100
0010
0001
0010
0100
1000
,
0001
0100
0000
0100
0010
0000
0010
1000
,
0000
0001
1000
0001
0100
0010
1000
0001
,
0010
0001
1010
0110
,
1001
0000
0100
0010
1000
0010
0100
0001
,
1000
0100
0011
0110
,
1001
0000
1000
0010
0001
0010
1000
0001
,
0010
0100
1010
0011
,
1100
0000
1000
0001
0010
0001
0100
0010
,
1000
0001
0101
0110
,
1010
0000
1000
0000
1001
0000
0001
1000
,
0001
0010
0001
0010
0100
0000
1000
0010
,
1000
0001
1000
0001
0100
0000
0001
1000
,
0010
1000
0010
1000
0001
0000
1000
0100
,
0010
0100
0010
0001
1000
0000
0001
1000
,
0001
0000
1000
0010
1000
0000
0010
0100
,
0010
0000
1000
0010
0100
0001
1000
0100
,
0010
0100
0010
0100
1000
0000
0001
0100
,
0001
1000
0001
1000
0010
0000
1010
0000
,
1001
0000
0000
0002
0000
0000
0003
0000
0010
0000
0000
0020
0000
0000
0030
0000
,
0000
0100
1000
0001
0010
0001
1000
0100
,
1000
0000
0000
2000
0000
0000
3000
0000
0010
0000
0000
0020
0000
0000
0030
0000
,
0100
0000
0000
0001
0000
0000
0000
0000
1000
0000
0001
0000
1000
0000
0001
0000
,
0010
0000
0000
0100
0000
0000
0010
0000
0001
0000
0000
1000
0000
0000
0001
0000
,
1000
0010
0100
0001
1000
0001
0010
0100
,
1000
0000
0000
0100
0000
0000
1000
0000
0001
0000
0000
0010
0000
0000
0001
0000
,
1000
0010
0100
0001
1000
0001
0010
0100
,
0110
0000
0010
0100
0000
0010
0100
1000
,
0000
0001
1000
0001
0100
0001
0100
0000
,
0010
0000
0100
0010
0000
0100
0010
1000
,
0000
0001
1000
0100
0010
0001
1000
0001
,
1000
0000
0010
1000
0000
0001
0010
0100
,
0000
0010
0100
0010
0001
1000
0100
0010
,
0001
0000
0100
0001
0000
1000
0001
0010
,
0000
0100
0010
0001
1000
0010
0100
0001
;

//---------------dance-single - ----------------
#NOTES:
     dance-single:
     :
     Beginner:
     2:
     0.164157,0.195694,0.030848,0.000000,0.000000,149.000000,145.000000,4.000000,0.000000,0.000000,0.000000,0.164157,0.195694,0.030848,0.000000,0.000000,149.000000,145.000000,4.000000,0.000000,0.000000,0.000000:
0000
0000
0000
0000
,
0000
0000
0000
0000
,
0000
0000
0000
0000
,
0000
0000
0000
0000
,
0000
0000
0000
0000
,
0000
0000
0000
0000
,
0000
0000
0000
0000
,
0000
0000
0000
0000
,
0000
0000
0000
0000
,
1000
0000
0001
0000
,
0000
0010
0010
0000
,
0001
0000
1000
0000
,
0100
0000
0100
0100
,
0100
0000
0010
0000
,
0000
0001
0001
0000
,
0100
0000
0010
0000
,
0000
0000
1000
1000
,
1000
0000
0001
0000
,
0010
0000
0100
0000
,
1000
0000
0010
0000
,
0001
0000
0010
0000
,
1000
0000
0100
0000
,
0010
0000
0010
0000
,
0001
0000
0100
0000
,
0010
0000
0100
0100
,
0100
0000
0010
0010
,
0010
0000
0100
0100
,
0100
0000
0010
0000
,
1000
0000
0001
0001
,
0001
0000
1000
1000
,
1000
0000
0001
0001
,
0001
0000
1000
0000
,
0001
0000
1001
0000
,
0001
0000
0010
0000
,
0100
0100
0100
0000
,
1000
0000
0010
0000
,
1000
0000
0001
0000
,
1000
0000
0010
0000
,
0100
0100
0100
0000
,
0001
0000
0010
0000
,
0100
0000
0010
0010
,
0010
0000
0100
0000
,
1000
0000
0001
0000
,
1000
0000
0100
0000
,
0010
0000
0001
0000
,
1000
0000
0001
0000
,
0100
0000
0010
0000
,
1000
0000
0001
0000
,
1000
0000
0010
0000
,
0110
0000
0100
0000
,
0001
0001
0001
0000
,
1000
0000
0001
0000
,
0010
0010
0010
0000
,
0100
0000
1000
0000
,
0010
0010
0010
0000
,
1000
0000
0001
0000
,
0100
0100
0100
0000
,
0001
0000
1000
0000
,
0000
0100
0100
0000
,
0010
0000
0001
0000
,
1000
0000
0001
0001
,
0001
0000
0100
0000
,
0000
0010
0010
0000
,
1000
0000
0001
0000
,
0010
0000
0100
0000
,
1001
0000
1000
0000
,
0001
0000
0010
0000
,
0001
0000
1000
0000
,
0010
0010
0010
0000
,
0110
0000
0100
0000
,
0001
0000
1000
0000
,
0100
0000
0010
0000
,
0001
0001
0001
0000
;

//---------------dance-single - ----------------
#NOTES:
     dance-single:
     :
     Easy:
     7:
     0.282041,0.309109,0.069409,0.007712,0.000000,256.000000,247.000000,9.000000,1.000000,0.000000,0.000000,0.282041,0.309109,0.069409,0.007712,0.000000,256.000000,247.000000,9.000000,1.000000,0.000000,0.000000:
// measure 0
0000
0000
0000
0000
,  // measure 1
0000
0000
0000
0000
,  // measure 2
0000
0000
0000
0000
,  // measure 3
0000
0000
0000
0000
,  // measure 4
0000
0000
0000
0000
,  // measure 5
0000
0000
0000
0000
,  // measure 6
0000
0000
0000
0000
,  // measure 7
0000
0000
0000
0000
,  // measure 8
0000
0000
0000
0000
,  // measure 9
1000
0010
0010
0100
,  // measure 10
0000
0001
0100
0000
,  // measure 11
0001
0010
0010
0100
,  // measure 12
2000
0000
3000
0000
0001
1000
0001
0000
,  // measure 13
1000
0100
0100
0010
,  // measure 14
0000
0001
0010
0000
,  // measure 15
0001
0100
0100
0010
,  // measure 16
0000
0000
1000
0010
,  // measure 17
0100
0001
0000
0001
,  // measure 18
1000
0001
0010
0100
,  // measure 19
1000
0001
0000
0001
,  // measure 20
1000
0000
0010
1000
,  // measure 21
0001
0100
0000
0010
,  // measure 22
0010
0100
0001
0100
,  // measure 23
0010
1000
0000
0001
,  // measure 24
0010
0000
0100
0000
0010
0100
0010
0000
,  // measure 25
0010
0000
0000
0000
0001
0010
0001
0000
,  // measure 26
0001
0000
0001
0000
1000
0010
1000
0000
,  // measure 27
1000
0000
0100
0000
0000
0010
0100
0000
,  // measure 28
0010
0000
0100
0000
0100
0010
0100
0000
,  // measure 29
0100
0000
0000
0000
0010
0100
0010
0000
,  // measure 30
0010
0000
0001
0000
0001
1000
0001
0000
,  // measure 31
1000
0001
0100
0010
,  // measure 32
1000
0100
1001
0000
,  // measure 33
1000
0010
1010
1000
,  // measure 34
0001
0010
0100
1000
,  // measure 35
0001
0100
0101
0001
,  // measure 36
0010
0001
1000
0100
,  // measure 37
0010
0001
0011
0010
,  // measure 38
0100
1000
0010
0100
,  // measure 39
0001
1000
1001
0001
,  // measure 40
0100
0000
0010
0000
1000
0001
1000
0000
,  // measure 41
0100
0100
0010
0100
,  // measure 42
1000
0000
0001
0000
0010
0001
0010
0000
,  // measure 43
0001
0001
1000
0010
,  // measure 44
0100
0010
1000
0001
,  // measure 45
0010
0010
0100
1000
,  // measure 46
0001
0000
0100
0000
0010
1000
0010
0000
,  // measure 47
0100
0100
0001
1000
,  // measure 48
0100
0000
0010
0000
0001
1000
0001
0000
,  // measure 49
1000
0010
0000
1000
,  // measure 50
0100
0010
0010
0100
,  // measure 51
0010
0001
0000
0001
,  // measure 52
1000
0010
0100
0001
,  // measure 53
0001
0000
0000
0001
1000
0000
0000
1000
,  // measure 54
0001
0000
0010
0100
,  // measure 55
0100
0010
0000
0100
,  // measure 56
1000
0000
0000
0000
0001
1000
0001
0000
,  // measure 57
0010
0100
0100
1000
,  // measure 58
0010
0000
1000
0000
0001
1000
0001
0000
,  // measure 59
0100
0010
0010
1000
,  // measure 60
0001
0000
0010
0000
0001
1000
0001
0000
,  // measure 61
1000
0010
0010
0100
,  // measure 62
0001
0000
0010
0000
0100
0010
0100
0000
,  // measure 63
1000
0100
0100
0010
,  // measure 64
0001
1000
0010
0100
,  // measure 65
1001
0000
0001
1000
,  // measure 66
1000
0000
0101
0000
,  // measure 67
0010
0010
1000
0100
,  // measure 68
0100
0100
0011
0001
,  // measure 69
0010
0000
0110
0100
,  // measure 70
0100
0000
1000
0010
,  // measure 71
0100
0100
0001
0100
,  // measure 72
0100
0000
0010
0000
0010
0000
1000
0001
;
