#VERSION:0.83;
#TITLE:Stigma;
#SUBTITLE:;
#ARTIST:Noisia;
#TITLETRANSLIT:;
#SUBTITLETRANSLIT:;
#ARTISTTRANSLIT:;
#GENRE:;
#ORIGIN:;
#CREDIT:;
#BANNER:;
#BACKGROUND:;
#PREVIEWVID:;
#JACKET:;
#CDIMAGE:;
#DISCIMAGE:;
#LYRICSPATH:;
#CDTITLE:;
#MUSIC:Stigma.ogg;
#OFFSET:-0.040000;
#SAMPLESTART:55.807137;
#SAMPLELENGTH:11.162788;
#SELECTABLE:YES;
#BPMS:0.000=172.000;
#STOPS:;
#DELAYS:;
#WARPS:;
#TIMESIGNATURES:0.000=4=4;
#TICKCOUNTS:0.000=4;
#COMBOS:0.000=1;
#SPEEDS:0.000=1.000=0.000=0,
306.000=0.250=13.000=0,
320.000=1.000=14.500=0;
#SCROLLS:0.000=1.000,
255.000=0.000,
255.500=1.000,
288.000=0.000,
288.500=1.000;
#FAKES:;
#LABELS:0.000=Song Start;
#BGCHANGES:;
#KEYSOUNDS:;
#ATTACKS:
;

//---------------dance-single - ----------------
#NOTEDATA:;
#CHARTNAME:;
#STEPSTYPE:dance-single;
#DESCRIPTION:;
#CHARTSTYLE:;
#DIFFICULTY:Hard;
#METER:16;
#RADARVALUES:0.702406,1.123232,0.219793,0.105826,1.070472,604.000000,577.000000,27.000000,13.000000,0.000000,0.000000,0.000000,0.000000,0.000000,0.702406,1.123232,0.219793,0.105826,1.070472,604.000000,577.000000,27.000000,13.000000,0.000000,0.000000,0.000000,0.000000,0.000000;
#CREDIT:;
#NOTES:
// measure 0
0000
0000
0000
0000
,  // measure 1
0000
0000
0000
0000
,  // measure 2
0000
0000
0000
0000
,  // measure 3
0000
0000
0000
0000
,  // measure 4
1010
1000
0100
0010
,  // measure 5
0001
0000
0100
0001
0010
0000
0100
0000
,  // measure 6
1100
1000
0010
0100
,  // measure 7
0001
0000
0010
0001
0100
0000
0000
0000
,  // measure 8
0022
0000
0000
0000
,  // measure 9
0000
0000
0000
0033
,  // measure 10
0220
0000
0000
0000
,  // measure 11
0000
0000
0000
0330
,  // measure 12
2200
0000
0000
0000
,  // measure 13
0000
0000
0000
3300
,  // measure 14
1001
0000
0000
0000
,  // measure 15
0002
0000
0000
0000
,  // measure 16
1003
0001
1000
0001
1010
0001
1000
0011
,  // measure 17
1000
0001
1000
0001
1100
0001
1000
0101
,  // measure 18
0000
1000
0001
1000
0011
1000
0001
1010
,  // measure 19
0001
1000
0001
1000
0101
1000
0001
1100
,  // measure 20
0000
0000
0001
1000
0010
0100
0001
0010
0100
0000
0010
0001
0010
0001
0100
0000
,  // measure 21
0010
0000
1000
0001
0100
0010
1000
0100
0010
0000
0100
1000
0100
1000
0010
0000
,  // measure 22
1000
0000
0001
0010
0100
1000
0000
0010
0100
0000
0001
0010
0100
1000
0000
0010
,  // measure 23
0100
0000
0010
1000
0100
0010
0000
0001
1000
0000
0010
1000
0100
0010
0000
0001
,  // measure 24
1000
0000
0000
0000
,  // measure 25
0000
0000
0000
0000
,  // measure 26
0000
0000
0000
0000
,  // measure 27
0000
0000
0000
0000
,  // measure 28
0000
0001
0000
0010
0001
0000
0001
0100
0000
0001
0010
0000
0010
0100
0000
0100
,  // measure 29
0000
1000
0000
0010
1000
0000
1000
0100
0000
1000
0010
0000
0010
0100
0000
0100
,  // measure 30
0000
0001
0000
1000
0010
0000
0010
0100
0000
0001
1000
0000
1000
0100
0000
0100
,  // measure 31
0000
1000
0000
0001
0100
0000
0100
0010
0000
1000
0001
0000
0001
0010
0000
0010
,  // measure 32
0100
0010
0000
0010
0001
0000
0001
1000
0000
1000
0010
0000
0010
0100
0000
0100
,  // measure 33
1000
0100
0000
0100
0010
0000
0010
1000
0000
1000
0001
0000
0001
0010
0100
0000
,  // measure 34
0010
0100
0000
0100
1000
0000
1000
0001
0000
0001
0100
0000
0100
0010
0000
0010
,  // measure 35
0001
0010
0000
0010
0100
0000
0100
0001
0000
0001
1000
0000
1000
0100
0010
0000
,  // measure 36
0001
0010
0000
0100
0010
0000
0100
0001
0000
0100
0010
0000
0001
0100
0000
0010
,  // measure 37
0001
0010
0000
0100
0010
0000
0100
0001
0000
0010
0100
0000
0010
0100
0000
0100
,  // measure 38
1000
0010
0000
0100
0010
0000
0100
1000
0000
0100
0010
0000
1000
0100
0000
0010
,  // measure 39
0001
0010
0100
1000
0100
0010
0001
0100
0010
0100
0001
1000
0010
0100
0010
1000
,  // measure 40
0001
0000
0000
0001
1000
0000
0000
0001
1000
0100
1000
0100
0010
0001
0010
0001
,  // measure 41
1000
0010
1000
0010
0100
0001
0100
0001
0010
0100
1000
0001
0010
0100
1000
0001
,  // measure 42
0100
0010
1000
0001
0100
0010
1000
0001
0010
0100
1000
0001
0100
0010
1000
0001
,  // measure 43
0010
0100
1000
0010
0100
0001
0010
0100
1000
0100
0010
0001
0100
0000
0000
0000
,  // measure 44
0010
1000
0001
1000
0010
0000
0100
0001
0010
0100
1000
0000
0001
0000
0000
0000
,  // measure 45
1000
0100
0010
0000
1000
0000
0010
0100
0010
0000
0100
0000
0100
0000
0000
0000
,  // measure 46
0110
0000
0000
0000
0011
0000
0010
0001
0100
0010
1000
0000
0001
0000
0000
0000
,  // measure 47
1000
0100
0010
0000
1000
0000
0010
0100
0020
0000
0000
0000
0032
0000
0000
0000
,  // measure 48
1003
0000
0000
1000
0001
0000
0000
1000
0001
0100
0010
1000
0001
0100
0010
1000
,  // measure 49
0100
0010
0001
0100
0001
0010
0100
1000
0010
0100
0001
0100
0001
0010
0001
0010
,  // measure 50
0100
1000
0010
1000
0100
0010
0001
0100
0010
1000
0001
0010
0100
1000
0010
0100
,  // measure 51
0001
0010
0100
0010
0001
0100
0010
1000
0100
0010
0001
1000
0001
0000
0000
0000
,  // measure 52
0101
0000
0000
0100
0010
0000
1000
0010
0100
0000
0010
1000
0000
0100
0010
0000
,  // measure 53
0000
0001
0000
0010
0100
0000
1000
0100
0010
0000
0100
1000
0000
0010
0100
0000
,  // measure 54
0010
1000
0000
0100
0010
0000
0001
0100
0010
0000
0100
0001
0000
0010
0100
0000
,  // measure 55
1000
0100
0010
0001
0010
0100
1000
0010
0100
0010
1000
0001
0100
0010
0100
0001
,  // measure 56
1000
0100
0000
0100
0010
0001
1000
0001
0000
0010
0000
0100
0000
0100
1000
0000
,  // measure 57
0000
0010
0000
0010
1000
0000
1000
0100
0000
0010
0000
0001
0000
0001
1000
0000
,  // measure 58
0001
0100
0000
0100
0010
1000
0001
1000
0000
0010
0000
0100
0000
0100
0001
0000
,  // measure 59
0000
0010
0000
0010
0001
0000
0001
0100
0000
0010
0000
1000
0000
1000
0001
0000
,  // measure 60
0010
0100
0000
0100
1000
0010
0100
0010
0000
1000
0000
0001
0000
0001
0010
0000
,  // measure 61
0000
0100
0000
0100
0010
0000
0010
0001
0000
1000
0000
0010
0000
0010
0100
0000
,  // measure 62
0110
0000
0000
0000
0101
0000
0000
0001
0000
0001
0010
0000
0110
0000
0000
1000
,  // measure 63
0000
0110
0000
1000
0001
0000
0000
1000
0000
0110
0000
1000
0001
0000
0000
0000
,  // measure 64
0110
0000
0000
0100
0001
0000
0000
0001
0020
0000
0000
0000
0100
0000
0000
0000
,  // measure 65
0000
0000
0000
0000
0100
0000
0000
0001
0000
0001
0000
0000
0100
0000
0000
0000
,  // measure 66
0100
0000
0000
0000
1000
0000
0000
0100
0000
0100
0000
0000
0001
0000
0000
0000
,  // measure 67
0000
0000
0000
0000
0001
0000
0000
0100
0000
0100
0000
0000
1030
0000
0000
0000
,  // measure 68
0110
0000
0000
0100
1000
0000
0000
1000
0020
0000
0000
0000
0100
0000
0000
0000
,  // measure 69
0000
0000
0000
0000
0100
0000
0000
1000
0000
1000
0000
0000
0100
0000
0000
0000
,  // measure 70
0100
0000
0000
0000
0001
0000
0000
0100
0000
0100
0000
0000
1000
0000
0000
0000
,  // measure 71
0000
0000
0000
0000
1000
0000
0000
0100
0000
0100
0000
0000
0031
0000
0000
0000
,  // measure 72
0110
0000
0000
0100
0001
0000
0000
0010
0000
0100
0000
1000
0001
0000
0000
0000
,  // measure 73
0000
0000
0000
0100
0001
0000
0000
0010
0000
0100
0000
1000
0001
0000
0000
0000
,  // measure 74
0110
0000
0000
0010
1000
0000
0000
0100
0000
0010
0000
0001
1000
0000
0000
0000
,  // measure 75
0000
0000
0000
0010
1000
0000
0000
0100
0000
0010
0000
0001
1000
0000
0000
0000
,  // measure 76
0110
0000
0000
0100
0001
0000
0000
0001
0020
0000
0000
0000
0000
0000
0000
0000
,  // measure 77
0000
0000
0000
0000
,  // measure 78
0000
0000
0000
0000
,  // measure 79
0000
0000
0000
0030
,  // measure 80
0200
0000
0000
0000
,  // measure 81
0000
0000
0000
0000
,  // measure 82
0000
0000
0000
0000
,  // measure 83
0000
0000
0000
0000
0000
0300
0000
0000
;

//---------------dance-single - ----------------
#NOTEDATA:;
#CHARTNAME:;
#STEPSTYPE:dance-single;
#DESCRIPTION:;
#CHARTSTYLE:;
#DIFFICULTY:Medium;
#METER:13;
#RADARVALUES:0.446563,0.714784,0.162809,0.113967,0.488428,384.000000,364.000000,20.000000,14.000000,0.000000,0.000000,0.000000,0.000000,0.000000,0.446563,0.714784,0.162809,0.113967,0.488428,384.000000,364.000000,20.000000,14.000000,0.000000,0.000000,0.000000,0.000000,0.000000;
#CREDIT:;
#NOTES:
0000
0000
0000
0000
,
0000
0000
0000
0000
,
0000
0000
0000
0000
,
0000
0000
0000
0000
,
1100
0000
0000
0000
,
0000
0000
0000
0000
,
0202
0000
0000
0000
,
0000
0000
0000
0303
,
2002
0000
0000
0000
,
0000
0000
0000
3003
,
2020
0000
0000
0000
,
0000
0000
0000
3030
,
0220
0000
0000
0000
,
0000
0000
0000
0330
,
1001
0000
0000
0000
,
0002
0000
0000
0000
,
1003
0000
1000
0000
1010
0100
0000
0110
,
1000
0000
0001
0000
1000
1000
0001
1000
,
0001
0000
0001
0000
0011
0100
0000
0110
,
0001
0000
1000
0000
0001
0001
1000
0001
,
1000
0010
0100
0100
0001
0010
0100
0100
,
1000
0010
0100
0100
0001
0010
0100
0100
,
1000
0000
0010
0000
0100
0000
0000
0100
0000
0000
0001
0000
1000
0000
0000
1000
,
0000
0000
0100
0000
0010
0000
0000
0010
0000
0000
0001
0000
1000
0000
0000
1000
,
0000
0000
0000
0000
,
0000
0000
0000
0000
,
0000
0000
0000
0000
,
0000
0000
0000
0000
,
0000
0001
0000
0000
0001
0000
0000
0100
0000
0000
0100
0000
0000
1000
0000
0000
,
0000
1000
0000
0000
1000
0000
0000
0100
0000
0000
0100
0000
0000
0001
0000
0000
,
0000
1000
0000
0000
1000
0000
0000
0100
0000
0000
0100
0000
0000
0001
0000
0000
,
0000
0001
0000
0000
0001
0000
0000
0100
0000
0000
0100
0000
0000
1000
0000
0000
,
0001
0000
0010
0000
0110
0000
0000
0100
0000
0000
1000
0000
1100
0000
0000
0000
,
0100
0000
0010
0000
0011
0000
0000
0001
0000
0000
1000
0000
1001
0000
0000
0000
,
1000
0000
0010
0000
0110
0000
0000
0100
0000
0000
0001
0000
0101
0000
0000
0000
,
0100
0000
0010
0000
1010
0000
0000
1000
0000
0000
0001
0000
1001
0000
0000
0000
,
0001
0010
0000
0001
0010
0000
0001
0010
0000
0001
0010
0000
0001
0010
0000
0000
,
0001
1000
0000
0001
1000
0000
0001
1000
0000
0001
1000
0000
0001
1000
0000
0000
,
0010
1000
0000
0010
1000
0000
0010
1000
0000
0010
1000
0000
0010
1000
0000
0000
,
0001
0000
0000
0010
0000
0000
1000
0000
0000
0100
0000
0000
0001
0000
1000
0000
,
0001
0000
0000
0001
0010
0000
0000
0001
0010
0000
0000
0010
0100
0000
0000
0100
,
1000
0000
0000
1000
0010
0000
0000
0010
0001
0000
0000
0001
0010
0000
0000
0010
,
1000
0000
0000
1000
0100
0000
0000
0100
0001
0000
0000
0001
0100
0000
0000
0100
,
1000
0000
0000
1000
0010
0000
0000
0010
0100
0000
0000
0100
0001
0000
0000
0000
,
1000
0100
0010
0000
0100
1000
0010
0000
,
0100
0001
0010
0000
0100
0010
0001
0000
,
1010
0000
0110
0000
0010
1000
0001
0000
,
1000
0100
0010
0001
2000
0000
0000
0000
,
3010
0000
0000
1000
0010
0000
0000
1000
0010
0000
0000
0010
0100
0000
0000
0100
,
0001
0000
0000
0001
0010
0000
0000
0010
1000
0000
0000
1000
0010
0000
0000
0010
,
0001
0000
0000
0001
0100
0000
0000
0100
1000
0000
0000
1000
0100
0000
0000
0100
,
0001
0000
0000
0001
0010
0000
0000
0010
0100
0000
0000
0100
1000
0000
0000
0000
,
0001
0000
0000
0001
0000
0000
0100
0000
0010
0000
0000
1000
0000
0000
0001
0000
,
0000
1000
0000
0000
0010
0000
0100
0000
0001
0000
0000
0010
0000
0000
0100
0000
,
1000
0000
0000
1000
0000
0000
0010
0000
0100
0000
0000
0001
0000
0000
1000
0000
,
0001
0000
0000
0010
0000
0000
1000
0000
0000
0100
0000
0000
0001
0000
1000
0000
,
0001
0000
0010
0000
0100
0000
0000
1000
0000
0000
0010
0000
0001
0000
0000
1000
,
0000
0000
0100
0000
0001
0000
0000
0010
0000
0000
0100
0000
1000
0000
0000
1000
,
0001
0000
0000
1000
0000
0010
0100
0010
0000
0100
0000
0010
0000
0010
1000
0000
,
0000
0001
0000
1000
0010
0000
0010
0100
0000
0100
0000
0001
0000
0001
1000
0000
,
1000
0000
0010
0000
0100
0000
0000
0001
0000
0000
0010
0000
1000
0000
0000
0001
,
0000
0000
0100
0000
1000
0000
0000
0010
0000
0000
0100
0000
0001
0000
0000
0000
,
1000
0000
0000
0000
0100
0000
0000
0010
0000
0010
0100
0000
0010
0000
0000
0010
,
0000
0001
0000
0010
0001
0000
0000
0001
0000
1000
0000
0001
1000
0000
0000
0000
,
1000
0000
0000
0001
0010
0000
0000
0001
0020
0000
0000
0000
1000
0000
0000
0000
,
0000
1000
0100
0001
,
0100
0001
0100
1000
,
0000
1000
0100
0031
,
0001
0000
0000
1000
0010
0000
0000
1000
0020
0000
0000
0000
0001
0000
0000
0000
,
0000
0001
0100
1000
,
0100
1000
0100
0001
,
0000
0001
0100
1030
,
1000
0000
0000
0001
0100
0000
0000
0001
0100
0000
0000
0100
0010
0000
0000
0000
,
0000
0000
0000
0100
0010
0000
0000
0100
0000
0000
0000
0100
0001
0000
0000
0000
,
0010
0000
0000
0010
0100
0000
0000
0010
0000
0000
0000
0100
1000
0000
0000
0000
,
0000
0000
0000
0100
1000
0000
0000
0100
0000
0000
0000
1000
0001
0000
0000
0000
,
1000
0000
0000
0001
0100
0000
0000
0001
0200
0000
0000
0000
0000
0000
0000
0000
,
0000
0000
0000
0000
,
0000
0000
0000
0000
,
0000
0000
0000
0300
,
0020
0000
0000
0000
,
0000
0000
0000
0000
,
0000
0000
0000
0000
,
0000
0000
0000
0000
0000
0030
0000
0000
;

//---------------dance-single - ----------------
#NOTEDATA:;
#CHARTNAME:;
#STEPSTYPE:dance-single;
#DESCRIPTION:;
#CHARTSTYLE:;
#DIFFICULTY:Easy;
#METER:10;
#RADARVALUES:0.312827,0.544598,0.325619,0.138388,0.215723,269.000000,229.000000,40.000000,17.000000,0.000000,0.000000,0.000000,0.000000,0.000000,0.312827,0.544598,0.325619,0.138388,0.215723,269.000000,229.000000,40.000000,17.000000,0.000000,0.000000,0.000000,0.000000,0.000000;
#CREDIT:;
#NOTES:
0000
0000
0000
0000
,
0000
0000
0000
0000
,
0000
0000
0000
0000
,
0000
0000
0000
0000
,
1001
0000
0000
0000
,
0000
0000
0000
0000
,
0120
0000
0000
0000
,
0000
0000
0000
0000
,
0230
0000
0000
0000
,
0000
0000
0000
0000
,
0302
0000
0000
0000
,
0000
0000
0000
0000
,
2003
0000
0000
0000
,
0000
0000
0000
0000
,
3001
0000
0000
0000
,
2000
0000
0000
0000
,
3001
0000
0001
0000
1001
0000
0000
0110
,
0000
0000
0010
0000
0110
0000
0000
1001
,
0000
0000
1000
0000
1001
0000
0000
0110
,
0000
0000
0100
0000
0110
0000
0000
1001
,
0000
0000
0001
0000
0100
0010
0000
0100
,
0010
0000
0010
0000
1000
0001
0000
1000
,
0001
0010
0010
0100
,
0100
1000
1000
0001
,
0001
0000
0000
0000
,
0000
0000
0000
0000
,
0000
0000
0000
0000
,
0000
0000
0000
0000
,
0000
1000
0000
0000
0000
0000
0000
1000
0000
0000
0000
0000
0000
1000
0000
0000
,
0000
0001
0000
0000
0000
0000
0000
0001
0000
0000
0000
0000
0000
0001
0000
0000
,
0000
0100
0000
0000
0000
0000
0000
0100
0000
0000
0000
0000
0000
0100
0000
0000
,
0000
0010
0000
0000
0000
0000
0000
0010
0000
0000
0000
0000
0000
0010
0000
0000
,
0010
0000
0110
0000
0000
0010
1000
0000
,
0000
1000
0001
0000
0000
0001
0010
0000
,
0100
0000
0110
0000
0000
0100
1000
0000
,
0000
1000
0001
0000
0000
0001
0100
0000
,
0000
0010
0000
0000
0100
0000
0000
0010
0000
0000
0100
0000
0000
0010
0000
0000
,
0000
0100
0000
0000
0001
0000
0000
0100
0000
0000
0001
0000
0000
0100
0000
0000
,
0000
0001
0000
0000
0010
0000
0000
0001
0000
0000
0010
0000
0000
0001
0000
0000
,
0000
0010
0000
0000
0100
0000
0000
1000
0000
0000
0001
0000
0000
1000
0000
0000
,
1001
1010
0200
0010
,
0000
0010
0001
0010
,
0010
0001
0010
0001
,
0000
0001
0010
0301
,
2000
3010
2000
3100
,
1000
0010
0100
0001
,
1000
0001
0020
0130
,
0020
0031
1000
0001
,
1001
0101
0020
0100
,
0000
0100
1000
0100
,
0100
1000
0100
1000
,
0000
1000
0100
1030
,
0010
0000
0000
0100
0000
0000
0000
0010
0000
0100
0000
0010
0000
0000
0010
0000
,
0000
0100
0000
0000
0010
0000
0000
1000
0000
0001
0000
1000
0000
0000
1000
0000
,
0100
0000
0000
0010
0000
0000
0000
0100
0000
0010
0000
0100
0000
0000
0100
0000
,
2000
0000
0000
0000
0000
0000
0000
0002
0000
0000
0000
0000
3003
0000
0000
0000
,
0001
0000
0000
0000
1000
0000
0000
0001
0000
0000
0100
0000
0010
0000
0000
0000
,
0100
0110
1000
1001
,
1000
0000
0000
0000
0001
0000
0000
1000
0000
0000
0100
0000
0010
0000
0000
0000
,
0100
0110
0001
1001
,
1000
1010
0001
0011
,
1000
1100
0001
0101
,
1000
0000
0000
0000
0010
0000
0000
0100
0000
0010
0000
0000
0100
0000
0000
0010
,
0000
0100
0000
0000
0010
0000
0000
0100
0000
0010
0000
0000
0100
0000
0000
0000
,
0110
1010
2000
0100
,
0000
0100
0000
0100
,
0000
0100
0000
0100
,
0000
0100
0000
3100
,
0110
0011
0002
0100
,
0000
0100
0000
0100
,
0000
0100
0000
0100
,
0000
0100
0000
0103
,
0110
0000
0000
0000
0101
0000
0000
0001
0000
1000
0000
0000
1001
0000
0000
0000
,
0000
0000
0000
0000
1001
0000
0000
1000
0000
0100
0000
0000
1100
0000
0000
0000
,
0110
0000
0000
0000
1100
0000
0000
1000
0000
0001
0000
0000
1001
0000
0000
0000
,
0000
0000
0000
0000
1001
0000
0000
0001
0000
0100
0000
0000
0101
0000
0000
0000
,
0110
0101
2000
0000
,
0000
0000
0000
0000
,
0000
0000
0000
0000
,
0000
0000
0000
3000
,
0002
0000
0000
0000
,
0000
0000
0000
0000
,
0000
0000
0000
0000
,
0000
0000
0000
0000
0000
0003
0000
0000
;

//---------------dance-single - ----------------
#NOTEDATA:;
#CHARTNAME:;
#STEPSTYPE:dance-single;
#DESCRIPTION:;
#CHARTSTYLE:;
#DIFFICULTY:Beginner;
#METER:5;
#RADARVALUES:0.145366,0.340373,0.113967,0.170950,0.016281,125.000000,111.000000,14.000000,21.000000,0.000000,0.000000,0.000000,0.000000,0.000000,0.145366,0.340373,0.113967,0.170950,0.016281,125.000000,111.000000,14.000000,21.000000,0.000000,0.000000,0.000000,0.000000,0.000000;
#CREDIT:;
#NOTES:
0000
0000
0000
0000
,
0000
0000
0000
0000
,
0000
0000
0000
0000
,
0000
0000
0000
0000
,
1000
0000
0000
0000
,
0000
0000
0000
0000
,
0002
0000
0000
0000
,
0000
0000
0000
0003
,
2000
0000
0000
0000
,
0000
0000
0000
3000
,
0020
0000
0000
0000
,
0000
0000
0000
0030
,
0200
0000
0000
0000
,
0000
0000
0000
0300
,
0100
0000
0000
0000
,
0002
0000
0000
0003
,
0001
0001
0001
0000
,
1000
1000
1000
0000
,
0100
0100
0100
0000
,
0010
0010
0010
0000
,
0100
0000
0110
0000
,
1000
0000
1001
0000
,
0001
1000
1000
0001
,
0001
1000
1000
0001
,
0001
0000
0000
0000
,
0000
0000
0000
0000
,
0000
0000
0000
0000
,
0000
0000
0000
0000
,
0000
1000
0000
0000
0000
0000
0000
0000
0000
0000
0000
0000
0000
0000
0000
0000
,
0000
1000
0000
0000
0000
0000
0000
0000
0000
0000
0000
0000
0000
0000
0000
0000
,
0000
0001
0000
0000
0000
0000
0000
0000
0000
0000
0000
0000
0000
0000
0000
0000
,
0000
0001
0000
0000
0000
0000
0000
0000
0000
0000
0000
0000
0000
0000
0000
0000
,
1000
1000
0000
0010
,
0000
0010
0000
0010
,
0010
0010
0000
0100
,
0000
0100
0000
0100
,
0100
0100
0100
0100
,
0100
0000
0001
0000
,
1000
1000
1000
1000
,
0001
1000
0001
1000
,
0001
0001
0002
0000
,
0000
0000
0000
0000
,
0000
0000
0000
0000
,
0000
0000
0000
0003
,
2000
3000
0200
0300
,
0020
0030
0002
0003
,
1000
0000
0002
0003
,
0020
0030
0200
0000
,
0300
0010
0020
0000
,
0000
0000
0000
0000
,
0000
0000
0000
0000
,
0000
0000
0000
0030
,
0100
0100
0100
0000
,
1000
1000
1000
0000
,
0001
0001
0001
0000
,
2000
3000
0002
0003
,
0000
1001
0000
1001
,
0000
0110
0000
0110
,
0000
1001
0000
1001
,
0000
0110
0000
0110
,
0000
0101
0000
0101
,
0000
1100
0000
1100
,
0000
1000
1000
1000
,
0000
0001
0001
0001
,
0000
1000
2000
0000
,
0000
0000
0000
0000
,
0000
0000
0000
0000
,
0000
0000
0000
3000
,
0000
0010
0020
0000
,
0000
0000
0000
0000
,
0000
0000
0000
0000
,
0000
0000
0000
0030
,
0000
0000
0200
0000
,
0000
0000
0000
0000
,
0000
0000
0000
0000
,
0000
0000
0000
0300
,
0001
0001
0002
0000
,
0000
0000
0000
0000
,
0000
0000
0000
0000
,
0000
0000
0000
0003
,
2000
0000
0000
0000
,
0000
0000
0000
0000
,
0000
0000
0000
0000
,
0000
0000
0000
0000
0000
3000
0000
0000
;
