#TITLE:Starlight (Could You Be Mine);
#SUBTITLE:;
#ARTIST:Don Diablo & Matt Nash;
#TITLETRANSLIT:;
#SUBTITLETRANSLIT:;
#ARTISTTRANSLIT:;
#GENRE:;
#CREDIT:Pilgrimsito;
#BANNER:Starlight (Could You Be Mine).png;
#BACKGROUND:Starlight (Could You Be Mine) - bg.png;
#LYRICSPATH:;
#CDTITLE:cdtitle.png;
#MUSIC:Starlight (Could You Be Mine).ogg;
#OFFSET:-0.042000;
#SAMPLESTART:3.612000;
#SAMPLELENGTH:14.531250;
#SELECTABLE:YES;
#DISPLAYBPM:64.000000:128.000000;
#BPMS:0.000000=64.000000
,36.000000=128.000000
,128.000000=192.000000
,132.000000=128.000000
,160.000000=64.000000
,162.000000=128.000000
,190.000000=256.000000
,190.500000=64.000000
,190.750000=256.000000
,191.250000=64.000000
,191.500000=256.000000
,192.000000=64.000000
,192.250000=256.000000
,192.750000=64.000000
,193.000000=128.000000
,194.000000=64.000000
;
#STOPS:128.000000=0.080000,
128.500000=0.040000,
128.750000=0.040000,
129.000000=0.080000,
129.500000=0.040000,
129.750000=0.040000,
130.000000=0.080000,
130.500000=0.040000,
130.750000=0.080000,
131.250000=0.100000
;
#BGCHANGES:;
#KEYSOUNDS:;
#ATTACKS:;

//---------------dance-single - ----------------
#NOTES:
     dance-single:
     :
     Hard:
     14:
     0.521312,0.578524,0.512476,1.157489,0.415282,413.000000,355.000000,58.000000,131.000000,4.000000,0.000000,0.521312,0.578524,0.512476,1.157489,0.415282,413.000000,355.000000,58.000000,131.000000,4.000000,0.000000:
0000
0000
0000
0000
,
2000
0000
0000
0000
3020
0000
0000
0000
1030
0100
0010
0000
0002
0000
0003
0000
,
1000
1000
0020
0000
0200
0000
0330
0000
0001
0001
0020
0000
0200
0000
0330
0000
,
2000
0000
0000
0000
3002
0000
0000
0000
0103
0010
1000
0000
0200
0000
0300
0000
,
1000
1000
0002
0000
0200
0000
0303
0000
0001
0001
2000
0000
0200
0000
3300
0000
,
0022
0000
0033
0000
2002
0000
3003
0000
0001
0100
2000
0000
3200
0000
0300
0000
,
2020
0000
3030
0000
2002
0000
3003
0000
1000
0010
0002
0000
0023
0000
0030
0000
,
2000
0000
0000
0000
3200
0000
0000
0000
1300
0010
0100
0000
0002
0000
0003
0000
,
1000
1000
0200
0000
0020
0000
0330
0000
0001
0001
0200
0000
0320
0000
0130
0001
,
2002
3003
2002
3003
2002
3003
2002
3003
,
2002
0000
3003
0000
2002
0000
3003
0000
1000
0000
0100
0000
0010
0001
0010
0000
,
0220
0330
0220
0330
0220
0330
0220
0330
,
0220
0000
0330
0000
0220
0000
0330
0000
0010
0000
0001
0000
0100
0010
0100
0000
,
0202
0303
0202
0303
0202
0303
0202
0303
,
0202
0000
0303
0000
0202
0000
0303
0000
0100
0000
0010
0000
1000
0001
1000
0000
,
2020
3030
2020
3030
2020
3030
2020
3030
,
2020
0000
3030
0000
2020
0000
3030
0000
0010
0000
0010
0000
1000
0001
1000
0000
,
1100
0100
1000
1000
0010
0010
0100
0100
,
0001
0001
1000
1000
0002
0203
0320
2030
,
3001
0001
0100
0100
1000
1000
0100
0100
,
0001
0001
1000
1000
0002
0023
0230
0320
,
0031
1000
0010
0100
0001
0010
0100
0010
,
0001
0100
0010
1000
0200
2300
3020
0230
,
0301
0100
1000
0100
0001
0010
0100
1000
,
0010
0000
1000
0000
0100
0000
0010
0000
0110
0000
0110
0000
0100
1000
0001
0000
,
2001
0000
0000
0000
3010
0000
0100
0000
0001
1000
0000
0001
0000
1000
0001
0000
,
0201
0000
0000
0000
0310
0000
1000
0000
0100
0010
0000
0100
0000
0010
0100
0000
,
2100
0000
0000
0000
3001
0000
0100
0000
0010
1000
0000
0010
0000
1000
0010
0000
,
0120
0000
0000
0000
1030
0000
0100
0000
0010
0001
0000
0100
0000
0001
0010
0000
,
0120
0000
0000
0000
0031
0000
1000
0000
0001
0100
0000
0001
0000
0100
0001
0000
,
2001
0000
0000
0000
3010
0000
0100
0000
0001
1000
0000
0001
0000
1000
0001
0000
,
0021
0000
0000
0000
0130
0000
1000
0000
0010
0100
0000
0010
0000
0100
0010
0000
,
1010
0000
1000
0100
1000
0000
0010
0100
0010
0000
1000
0001
0000
0001
0000
0000
,
1002
0000
0000
0000
0103
0000
0010
0000
1000
0001
0000
0100
0000
0001
1000
0000
,
1020
0000
0000
0000
0130
0000
0001
0000
0010
0100
0000
1000
0000
0100
0010
0000
,
0012
0000
0000
0000
1003
0000
0010
0000
0100
0001
0000
0010
0000
0001
0100
0000
,
0210
0000
0000
0000
0301
0000
1000
0000
0100
0001
0000
0100
0000
1000
0100
0000
,
0210
0000
0000
0000
1300
0000
0001
0000
1000
0010
0000
0100
0000
0010
1000
0000
,
1002
0000
0000
0000
0103
0000
0010
0000
1000
0001
0000
0100
0000
0001
1000
0000
,
1200
0000
0000
0000
0310
0000
0001
0000
0100
0010
0000
1000
0000
0010
0100
0000
,
0001
1000
0000
0000
1000
0100
0000
0000
0010
0001
0010
0001
0010
0001
0010
0000
2002
0000
0000
0000
0000
0000
0000
0000
3003
0000
0000
0000
1000
0000
0000
0000
,
0010
0100
0000
0001
0000
1000
0100
0000
0220
0000
0000
0000
0330
0000
0010
0000
,
0001
0100
0000
0010
0000
1000
0001
0000
0022
0000
0000
0000
0033
0000
0010
0000
,
0100
1000
0000
0010
0000
0001
0010
0000
2020
0000
0000
0000
3030
0000
1000
0000
,
0100
0010
0001
0010
0100
0010
0001
0010
0220
0000
0000
0000
0330
0000
0010
0000
,
0001
0100
0000
0001
0000
0010
0100
0000
2200
0000
0000
0000
3300
0000
1000
0000
,
0100
1000
0000
0010
0000
0100
0001
0000
0022
0000
0000
0000
0033
0000
0010
0000
,
0100
1000
0000
0001
0000
0100
0010
0000
2020
3030
0000
2200
3300
0000
0202
0303
,
0000
0022
0033
0000
0220
0000
0330
0000
MMMM
0000
0000
0000
0000
0000
0000
0000
;

//---------------dance-single - ----------------
#NOTES:
     dance-single:
     :
     Medium:
     10:
     0.350907,0.407109,0.247402,0.636177,0.026507,278.000000,250.000000,28.000000,72.000000,25.000000,0.000000,0.350907,0.407109,0.247402,0.636177,0.026507,278.000000,250.000000,28.000000,72.000000,25.000000,0.000000:
0000
0000
0000
0000
,
0002
0000
0023
0000
0130
1000
0020
0030
,
1000
0001
0200
0300
0001
1000
0200
0300
,
2000
0000
3020
0000
1030
0100
0020
0030
,
0001
0010
0200
0300
1000
0010
0200
0300
,
0002
0003
0002
0000
0013
0001
0200
0300
,
0002
0003
0002
0000
0013
0001
2000
3000
,
0200
0000
0320
0000
0031
0100
0020
0030
,
1000
0100
0020
0030
0001
0100
0020
0000
,
M230
0001
0010
0001
,
0010
0000
0001
0000
0310
1000
0010
1000
,
0200
0010
1000
0010
,
1000
0000
0010
0000
1300
0001
1000
0001
,
2000
0100
0001
0100
,
0001
0000
0100
0000
3001
0010
0001
0010
,
0002
1000
0100
1000
,
0100
0000
1000
0000
0103
0001
1000
0001
,
1001
1000
0010
0100
,
0001
0000
1000
0000
0100
0010
0001
0010
,
0100
1000
0100
0001
,
0100
0000
1000
0000
0001
0010
0100
0010
,
0001
0100
0010
1000
,
0100
0000
0010
0000
0001
0100
0010
1000
,
0001
0010
0001
0010
0100
1000
0100
1000
,
0010
0100
0010
0100
0001
0001
0001
0001
,
0022
0000
0033
0000
0001
0010
0100
0010
,
0022
0000
0033
0000
0001
0100
0010
0100
,
0202
0000
0303
0000
0001
0010
0100
0010
,
0022
0000
0033
0000
0001
0100
1000
0100
,
0202
0000
0303
0000
1000
0100
0010
0100
,
2200
0000
3300
0000
1000
0010
0100
0010
,
2020
0000
3030
0000
1000
0100
0010
0100
,
1100
0000
000M
00M0
000M
0000
00M0
0M00
00M0
0000
00M0
M000
0000
M000
0000
0000
,
02M2
0000
0303
0000
0001
0100
0010
0100
,
0202
0000
0303
0000
0001
0010
0100
0010
,
0022
0000
0033
0000
0001
0100
0010
0100
,
0202
0000
0303
0000
0001
0010
1000
0010
,
0022
0000
0033
0000
1000
0010
0100
0010
,
2020
0000
3030
0000
1000
0100
0010
0100
,
2200
0000
3300
0000
1000
0010
0100
0010
,
200M
3200
0320
0030
2M02
0000
3003
0001
,
0100
0001
0010
0100
2200
0000
3300
1000
,
0010
0100
0001
0010
0220
0000
0330
0100
,
1000
0010
1000
0100
0220
0000
0330
0010
,
0001
0001
1000
1000
2002
0000
3003
1000
,
0010
1000
0100
0010
0022
0000
0033
0001
,
0100
0010
1000
0100
0220
0000
0330
0010
,
0001
0000
0100
0000
0001
0000
0010
0000
M11M
0000
0000
M11M
0000
0000
M11M
0000
,
0000
M11M
0000
0000
M22M
0000
0000
0000
M33M
0000
0000
0000
0000
0000
0000
0000
;

//---------------dance-single - ----------------
#NOTES:
     dance-single:
     :
     Easy:
     7:
     0.000000,0.000000,0.000000,0.000000,0.000000,0.000000,0.000000,0.000000,0.000000,0.000000,0.000000,0.000000,0.000000,0.000000,0.000000,0.000000,0.000000,0.000000,0.000000,0.000000,0.000000,0.000000:
// measure 0
0000
0000
0000
0000
;
