#TITLE:Star Command;
#SUBTITLE:;
#ARTIST:zircon;
#TITLETRANSLIT:;
#SUBTITLETRANSLIT:;
#ARTISTTRANSLIT:;
#GENRE:;
#CREDIT:;
#MUSIC:Star Command.mp3;
#BANNER:Star Command-bn.png;
#BACKGROUND:Star Command-bg.png;
#CDTITLE:;
#SAMPLESTART:12.444;
#SAMPLELENGTH:12.387;
#SELECTABLE:YES;
#OFFSET:-0.057;
#BPMS:0.000=155.000;
#STOPS:;
#BGCHANGES:;
#FGCHANGES:;

//--------------- dance-single - ----------------
#NOTES:
     dance-single:
     :
     Beginner:
     6:
     0,0,0,0,0:
0000
0000
0000
0000
,
0000
0000
0000
0000
,
0000
0000
0000
0000
,
0000
0000
0000
0000
,
1000
0000
0100
0000
,
1000
0000
0001
0000
,
1000
0000
0010
0000
,
1000
0000
0001
0000
,
1000
0000
0200
0000
0000
0000
0000
0000
0000
1300
0000
0000
,
0020
0000
0230
0000
,
0301
0000
0020
0000
0000
0000
0031
0000
0000
0100
0000
0000
,
0010
0000
1000
0000
0100
0000
1000
0000
0010
0000
0100
0000
,
0001
0000
0020
0000
0000
0000
0000
0000
0000
0031
0000
0000
,
0100
0000
0010
0000
1000
0000
0100
0000
1000
0000
0010
0000
,
0100
0001
0010
0001
,
1000
0010
0100
0001
,
1000
0000
0100
0000
,
0001
0000
0100
0000
,
1000
0000
0010
0000
,
0001
0000
0010
0000
,
2000
0000
0000
3010
,
1000
0100
0010
0001
,
0100
0000
0010
0000
0100
0000
0001
0000
0010
0000
0100
0000
,
1000
0000
0010
0000
1000
0000
0100
0000
0010
0000
0001
0000
,
2000
0000
0000
0000
,
3010
0100
1000
0100
,
0001
0000
0020
0000
0000
0000
0000
0000
0000
0000
0000
0000
,
0130
0000
2000
0000
0000
0000
0000
0000
0000
0000
0000
0000
,
3001
0000
0010
0000
,
1000
0000
0010
0000
,
0001
0000
0100
0000
,
1000
0000
0100
0000
,
0001
0010
0001
0010
,
0100
1000
0100
1000
,
0010
0000
0100
0000
,
0010
0000
0100
0000
,
0001
0100
0001
0100
,
0010
1000
0010
1000
,
0001
1000
0001
1000
,
0010
0100
0010
0000
,
0000
0000
0000
0000
,
0000
0000
0000
0000
,
0000
0000
0000
0000
,
0000
0000
0000
0000
,
1000
0000
0100
0000
,
0010
0000
1000
0000
,
0010
0000
0001
0000
,
0100
0000
0010
0000
,
1000
0000
0010
0000
,
0100
0000
1000
0000
,
0100
0000
0001
0000
,
0010
0000
0100
0000
,
1000
0000
0000
0000
0200
0000
1300
0000
0000
0000
0200
0000
,
1300
0000
0000
0000
0200
0000
1300
0000
0000
0000
0200
0000
,
0310
0000
0000
0000
0002
0000
0013
0000
0000
0000
0002
0000
,
0013
0000
0000
0000
0002
0000
0013
0000
0000
0000
0002
0000
,
1003
0000
0000
0000
0020
0000
1030
0000
0000
0000
0020
0000
,
1030
0000
0000
0000
0020
0000
1030
0000
0000
0000
0020
0000
,
0130
0000
0000
0000
0002
0000
0103
0000
0000
0000
0002
0000
,
0103
0000
0000
0000
0002
0000
0103
0000
0000
0000
0002
0000
,
1003
0000
0000
0000
0200
0000
1300
0000
0000
0000
0200
0000
,
1300
0000
0000
0000
0200
0000
1300
0000
0000
0000
0200
0000
,
0310
0000
0000
0000
0002
0000
0013
0000
0000
0000
0002
0000
,
0013
0000
0000
0000
0002
0000
0013
0000
0000
0000
0002
0000
,
1003
0000
0000
0000
0020
0000
1030
0000
0000
0000
0020
0000
,
1030
0000
0000
0000
0020
0000
1030
0000
0000
0000
0020
0000
,
0130
0000
0000
0000
0002
0000
0103
0000
0000
0000
0002
0000
,
0103
0000
0000
0000
0002
0000
0103
0000
0000
0000
0002
0000
,
1003
0100
1000
0010
,
0100
0001
0010
0100
,
1000
0100
0010
0001
,
0100
0010
1000
0100
,
1000
0010
1000
0100
,
0010
0001
0100
0001
,
0010
0100
1000
0010
,
1000
0000
0100
0000
0010
0000
0001
0000
0100
0000
0010
0000
,
2002
0000
0000
0000
,
3003
0000
0000
0000
;

//--------------- dance-single - ----------------
#NOTES:
     dance-single:
     :
     Easy:
     12:
     0,0,0,0,0:
0000
0000
0000
0000
,
0000
0000
0000
0000
,
0000
0000
0000
0000
,
0000
0000
0000
0000
,
1000
0100
1000
0100
,
0010
0001
0010
0001
,
1000
0010
1000
0010
,
0100
0001
0100
0001
,
1000
0000
0000
0100
0000
0000
0010
0000
0000
1000
0000
0010
,
0001
0000
0000
0100
0000
0000
0010
0000
0000
0001
0000
0010
,
1000
0000
0000
0100
0000
0000
1000
0000
0000
0010
0000
0100
,
0001
0000
0010
0000
0001
0000
0100
0000
0010
0000
1000
0000
,
0001
0000
0000
0010
0000
0000
0100
0000
0000
0001
0000
0100
,
1000
0000
0000
0010
0000
0000
0100
0000
0000
1000
0100
0000
,
0001
0010
0001
0100
,
0010
1000
0100
0010
0100
0000
1000
0010
0100
0001
0010
0001
,
1000
0000
0010
0000
0100
0000
1000
0000
0100
0000
0001
0000
,
1000
0000
0100
0000
0001
0000
0100
0000
0010
0000
0001
0000
,
1000
0000
0100
0000
0010
0000
1000
0000
0010
0000
0001
0000
,
1000
0000
0010
0000
0001
0000
0010
0000
0100
0000
0001
0000
,
1000
0000
0000
0100
0000
0000
1000
0000
0000
0010
0000
0100
,
0001
0000
0000
0010
0000
0000
0001
0000
0000
0100
0000
0010
,
1000
0000
0000
0100
0000
0000
0010
0000
0000
1000
0000
0010
,
0001
0000
0100
0000
0010
0000
0001
0000
0010
0000
1000
0000
,
0001
0000
0000
0010
0000
0000
0001
0000
0000
0100
0000
0010
,
1000
0000
0000
0100
0000
0000
1000
0000
0000
0010
0100
0000
,
0001
0000
0000
0010
0000
0000
0100
0000
0000
0001
0000
0100
,
1000
0010
0100
1000
0100
0000
0001
0010
1000
0010
0001
1000
,
0001
0000
0010
0000
0100
0000
0001
0000
0100
0000
1000
0000
,
0001
0000
0100
0000
1000
0000
0100
0000
0010
0000
1000
0000
,
0001
0000
0100
0000
0010
0000
0001
0000
0010
0000
1000
0000
,
0001
0000
0010
0000
1000
0000
0010
0000
0100
0000
1000
0000
,
0001
0011
0010
0110
,
0100
1100
1000
1001
,
0001
0101
0100
0110
,
0010
1010
1000
1001
,
1000
1100
0100
0110
,
0010
0011
0001
1001
,
1000
1010
0010
0110
,
0100
0000
0000
0101
0000
0000
0001
0000
1001
0000
0000
0000
,
0000
0000
0000
0000
,
0000
0000
0000
0000
,
0000
0000
0000
0000
,
0000
0000
0000
0000
,
1000
0000
0100
0000
1000
0000
0010
0000
0100
0000
0001
0000
,
1000
0000
0010
0000
0001
0000
0010
0000
1000
0000
0001
0000
,
0010
0000
0001
0000
0100
0000
0010
0000
1000
0000
0100
0000
,
1000
0000
0010
0000
0100
0000
1000
0000
0100
0000
0001
0000
,
1000
0000
0010
0000
1000
0000
0100
0000
0010
0000
0001
0000
,
1000
0000
0100
0000
0001
0000
0100
0000
1000
0000
0001
0000
,
0100
0000
0001
0000
0010
0000
0100
0000
1000
0000
0010
0000
,
1000
0000
0100
0000
0010
0000
1000
0000
0010
0000
0001
0000
,
1000
0100
1000
0100
,
1000
0000
0000
0100
0000
0000
1000
0000
0000
0100
1000
0000
,
0001
0100
0001
0100
,
0001
0000
0000
0100
0000
0000
0001
0000
0100
0000
0001
0000
,
1000
0010
1000
0010
,
1000
0000
0000
0010
0000
0000
1000
0000
0000
0010
1000
0000
,
0001
0010
0001
0010
,
0001
0000
0000
0010
0000
0000
0001
0000
0010
0000
0001
0000
,
0100
0010
0100
0010
,
0100
0000
0000
0010
0000
0000
0100
0000
0000
0010
0100
0000
,
0001
1000
0001
1000
,
0001
0000
0000
1000
0000
0000
0001
0000
1000
0000
0001
0000
,
1000
0000
0100
0000
0010
0000
1000
0000
0010
0000
0001
0000
,
0100
0000
1000
0000
0100
0000
0001
0010
0100
1000
0010
0100
,
0001
0010
0001
0100
0010
1000
0100
1000
0010
0100
0001
0010
,
0001
0100
0001
0010
0100
1000
0010
1000
0100
0010
0001
0100
,
0001
0000
0000
0000
0000
0001
0010
0000
0000
0000
0000
0010
,
0100
0000
0000
0000
0000
0100
1000
0000
0000
0001
0000
0000
,
1000
0000
0000
0000
0000
1000
0100
0000
0000
0000
0000
0100
,
0010
0000
0000
0000
0000
0010
0001
0000
0000
0001
0000
0000
,
1000
0000
0000
0000
0000
1000
0010
0000
0000
0000
0000
0010
,
0100
0000
0000
0000
0000
0100
0001
0000
0000
1000
0000
0000
,
0001
0000
0000
0000
0000
0001
0100
0000
0000
0000
0000
0100
,
0010
0000
1000
0000
0100
0000
0010
0000
0001
0000
1000
0000
,
2002
0000
0000
0000
,
3003
0000
0000
0000
;

//--------------- dance-single - ----------------
#NOTES:
     dance-single:
     :
     Medium:
     14:
     0,0,0,0,0:
0000
0000
0000
0000
,
0000
0000
0000
0000
,
0000
0000
0000
0000
,
0000
0000
0000
0000
,
1000
0100
1000
0010
,
0100
0000
0000
0001
0000
0000
0010
0000
0001
0000
1000
0000
,
0001
0010
0001
0100
,
0010
0000
0000
0000
0000
0000
1000
0000
0000
0000
0000
0000
0100
1000
0010
0000
0100
0000
0001
0000
0010
0000
0001
0000
,
1000
0000
1000
0100
0000
0100
0001
0000
0010
0100
1000
0000
,
0001
0000
0001
0010
0000
0010
1000
0000
0100
0010
0001
1000
,
0001
0000
0001
0100
0000
0100
1000
0000
0010
0100
0001
0000
,
1000
0100
1000
0100
1000
0100
0010
0001
0010
0001
0010
0001
,
1000
0000
1000
0010
0000
0010
0001
0000
0000
0100
0010
1000
,
0001
0000
0001
0100
0000
0100
1000
0000
0010
0100
0001
1000
,
0001
0000
0001
0010
0000
0010
1000
0000
0100
0010
0000
0001
,
1000
0010
1000
0010
1000
0010
0100
0001
0100
0001
0100
0001
,
1000
0000
0100
1000
0001
0100
0010
0000
0001
0010
1000
0001
,
1000
0000
0100
0000
0010
0000
1000
0010
0001
1000
0010
1000
,
0001
0000
0010
0000
0100
0000
0001
0000
0100
1000
0010
1000
,
0001
0000
0000
0000
0010
0000
0001
0000
0100
0000
0010
0000
0001
0000
0010
0000
1000
0000
0100
0010
0001
0000
1000
0000
,
0001
0000
0001
0010
0000
0010
0100
0000
0100
1000
0010
0100
,
0001
0000
0001
0010
0000
0010
1000
0000
0100
0010
0001
0000
,
1000
0000
1000
0010
0000
0010
0100
0000
0100
0001
0000
0001
,
1000
0100
1000
0000
0010
0000
0100
0000
0001
0000
0000
0000
0010
0000
0001
0000
0100
0000
0010
0000
1000
0000
0100
0000
,
1000
0000
1000
0010
0000
0010
0100
0000
0100
0001
0010
0100
,
1000
0000
1000
0010
0000
0010
0001
0000
0100
0010
1000
0000
,
0001
0000
0001
0100
0000
0100
0010
0000
0010
1000
0000
1000
,
0001
0010
0001
1000
0010
0000
1000
0100
1000
0001
0100
0001
,
1000
0000
0010
1000
0001
0010
0100
0000
0001
0100
1000
0001
,
1000
0000
0010
0000
0100
0000
1000
0100
0001
1000
0100
1000
,
0001
0000
0100
0000
0010
0000
0001
0000
0010
1000
0100
1000
,
0001
0000
0100
0001
0010
0100
0001
0100
1000
0010
0100
0001
,
1000
0000
1000
0100
0000
0100
0010
0000
0010
1000
0000
0010
,
0001
0000
0001
0100
0000
0100
0010
0000
0010
0001
0000
0010
,
1000
0000
1000
0010
0000
0010
0100
0000
0100
1000
0000
0100
,
0001
0000
0001
0010
0000
0010
0100
0000
0100
0001
0000
0100
,
1000
0000
1000
0010
0000
0010
0001
0000
0100
1000
0000
0100
,
0001
0000
0001
0010
0000
0010
1000
0000
1000
0010
0000
0010
,
0001
0000
0001
0100
0000
0100
1000
0000
0010
0001
0000
0010
,
1000
0000
1000
0100
0000
0100
0001
0000
1001
0000
0000
0000
,
0000
0000
0000
0000
,
0000
0000
0000
0000
,
0000
0000
0000
0000
,
0000
0000
0000
0000
,
1000
0000
0100
1000
0010
0010
0001
0000
0100
0001
0010
0010
,
1000
0000
0010
1000
0100
0100
0001
0000
0010
0001
0100
0100
,
1000
0000
0010
1000
0010
0010
0001
0000
0100
0001
0010
0010
,
1000
0000
0100
1000
0100
0100
0001
0000
0010
0000
0100
0100
,
1000
0000
0010
1000
0100
0010
0001
0000
0100
0001
0010
0100
,
1000
0000
0100
1000
0010
0100
0001
0000
0010
0001
0100
0010
,
1000
0000
1000
0100
0100
0010
0001
0000
0001
0100
0010
1000
,
0001
0000
0001
0010
0010
0100
1000
0000
0010
0000
0100
0000
,
0002
0003
0002
0003
2000
0000
3002
0003
0002
0003
2000
0000
,
3002
0003
0002
0003
2000
0000
3002
0003
0002
0003
2000
0000
,
3020
0030
0020
0030
2000
0000
3020
0030
0020
0030
2000
0000
,
3200
0300
0200
0300
2000
0000
3200
0300
0200
0300
0020
0000
,
0032
0003
0002
0003
2000
0000
3002
0003
0002
0003
2000
0000
,
3002
0003
0002
0003
2000
0000
3002
0003
0002
0003
2000
0000
,
3200
0300
0200
0300
2000
0000
3200
0300
0200
0300
2000
0000
,
3020
0030
0020
0030
2000
0000
3020
0030
0020
0030
0200
0000
,
0302
0003
0002
0003
2000
0000
3002
0003
0002
0003
2000
0000
,
3002
0003
0002
0003
2000
0000
3002
0003
0002
0003
2000
0000
,
3020
0030
0020
0030
2000
0000
3020
0030
0020
0030
2000
0000
,
3200
0300
0200
0300
2000
0000
3200
0300
0200
0300
0020
0000
,
0032
0003
0002
0003
2000
0000
3002
0003
0002
0003
2000
0000
,
3002
0003
0002
0003
2000
0000
3002
0003
0002
0003
2000
0000
,
3200
0300
0200
0300
2000
0000
3200
0300
0200
0300
2000
0000
,
3020
0030
0020
0030
2000
0000
3020
0030
0020
0030
0200
0000
,
0301
0000
0000
0010
0000
0010
1000
0000
0000
0100
0000
0010
,
0100
0000
0000
1000
0000
0010
0100
0000
0000
0001
0000
0000
,
1000
0000
0100
0000
1000
0000
0010
0000
0000
0000
0100
0000
,
0000
0001
0000
0010
0000
0000
0000
0001
0000
1000
0001
0000
,
1000
0000
0000
0100
0000
0100
0001
0000
0000
0010
0000
0100
,
0010
0000
0001
0000
0100
0000
0010
0000
0000
1000
0000
0100
,
1000
0000
0010
0000
0100
0000
1000
0000
0100
0000
0001
0000
,
1000
0000
0100
0000
0010
0010
0001
0000
0100
0000
0010
0010
,
2002
0000
0000
0000
,
3003
0000
0000
0000
;

//--------------- dance-single - ----------------
#NOTES:
     dance-single:
     :
     Hard:
     17:
     0,0,0,0,0:
0000
0000
0000
0000
,
0000
0000
0000
0000
,
0000
0000
0000
0000
,
0000
0000
0000
0000
,
0001
0100
0001
0010
0100
1000
0010
1000
0100
0010
0001
0100
,
0001
0010
0100
0010
0001
0100
0010
1000
0100
0010
0100
1000
,
0001
0010
0001
0100
0010
1000
0100
1000
0010
0100
0001
0010
,
0001
0100
0010
0100
0001
0010
0100
1000
0010
0100
0010
1000
,
0001
0000
0010
1100
0000
0010
0001
0000
1000
0010
0100
0010
,
1000
0000
0100
0011
0000
0100
1000
0000
0001
0100
0010
0100
,
0001
0000
0100
1010
0000
0100
0001
0000
1000
0100
0010
0100
,
1000
0010
0100
0001
1001
0000
0001
0010
0100
1000
0010
0100
,
0001
0010
0000
0011
0000
0000
0100
0000
0000
1000
0010
0100
,
0001
0010
0100
0010
0000
0001
0100
0000
0010
1000
0100
0010
,
0001
0000
0000
0101
0000
0010
1000
0000
0001
0010
0100
1000
,
0001
0100
0001
0100
0001
0100
0001
0000
0010
0000
0100
0000
1000
0010
1000
0010
1000
0010
1000
0000
0100
0000
0010
0000
,
0001
0100
0001
0010
0100
1000
0010
1000
0001
0010
0100
0010
,
0001
0100
0010
0100
0001
1000
0100
0010
0100
1000
0010
0100
,
0001
0010
0001
0100
0010
1000
0100
1000
0001
0100
0010
0100
,
0001
0010
0100
0010
0001
1000
0010
0100
0010
1000
0100
0010
,
0001
0000
0010
1010
0000
0100
0001
0000
0010
0100
1000
0001
,
0100
0010
0001
0010
0000
1000
0100
0000
0010
0001
0001
0001
,
1000
0000
0010
0110
0000
0100
0001
0000
0010
0110
0000
0100
,
1000
0010
1000
0000
0100
0000
0010
0000
0001
0000
0100
0000
0001
0000
0010
0000
0100
0000
1000
0000
0010
0000
1000
0000
,
0001
0010
0000
1100
0000
0010
0001
0000
0000
0110
0000
1000
,
0000
0000
0000
1010
0000
0100
0010
0000
0100
0001
0000
0010
,
0001
0000
0000
0110
0000
1000
0100
0000
0010
1000
0010
0001
,
1000
0100
1000
0010
0100
0000
0001
0000
0010
0000
0001
0000
0100
0000
0010
0000
0100
0000
0001
0000
0010
0000
0001
0000
,
1000
0100
1000
0010
0100
0001
0010
0001
1000
0010
0100
0010
,
1000
0100
0010
0100
1000
0001
0100
0010
0100
0001
0010
0100
,
1000
0010
1000
0100
0010
0001
0100
0001
1000
0100
0010
0100
,
1000
0010
0100
0010
1000
0001
0010
0100
0010
0001
0100
0010
,
1000
0101
0010
1100
,
0001
1010
0100
0011
,
2000
0000
3200
0000
,
0302
0000
0203
0000
,
1300
0011
0100
1010
,
0001
1100
0010
0101
,
1000
0101
0010
1100
,
0001
0000
0000
0110
0000
0000
1001
0000
1001
0000
0000
0000
,
2000
0000
3000
0000
,
0200
0000
0300
0000
,
0020
0000
0030
0000
,
0002
0000
0003
0000
,
1000
0000
0100
0110
0000
0010
0001
0000
0010
0110
0000
0100
,
1000
0000
0010
0110
0000
0100
0001
0000
0100
0110
1000
0000
,
0001
0000
0010
0110
0000
0100
1000
0000
0100
0110
0000
0010
,
0001
0000
0100
0110
0000
0010
1000
0000
0100
0000
0011
0001
,
1000
0000
0100
0010
0000
1000
0010
0000
0001
0100
0000
0010
,
1000
0000
0010
0100
0000
1000
0100
0000
0001
0010
0010
0000
,
1000
0000
1000
0100
0000
0100
0010
0000
0010
0001
0000
0001
,
1000
0000
1000
0010
0000
0010
0100
0000
0001
0000
1000
0000
,
0001
0010
0001
0010
0001
0010
0100
1000
0100
1000
0100
1000
,
0001
0100
0001
0100
0001
0100
0010
1000
0010
1000
0010
1000
,
0001
0010
0001
0100
0010
1000
0100
1000
0010
0100
0001
0010
,
0001
0100
0001
0010
0100
1000
0010
1000
0100
0010
0001
0100
,
0001
0010
0001
0010
0001
0010
0001
0100
0001
0100
0001
0100
,
0010
1000
0010
1000
0010
1000
0100
1000
0100
1000
0100
1000
,
0001
0100
0001
0010
0100
1000
0010
1000
0100
0010
0001
0100
,
0001
0010
0001
0100
0010
1000
0100
0000
1000
0010
0100
0001
,
1000
0100
1000
0100
1000
0100
0010
0001
0010
0001
0010
0001
,
1000
0010
1000
0010
1000
0010
0100
0001
0100
0001
0100
0001
,
1000
0100
1000
0010
0100
0001
0010
0001
0100
0010
1000
0100
,
1000
0010
1000
0100
0010
0001
0100
0001
0010
0100
1000
0010
,
1000
0100
1000
0100
1000
0100
1000
0010
1000
0010
1000
0010
,
0100
0001
0100
0001
0100
0001
0010
0001
0010
0001
0010
0001
,
1000
0100
1000
0100
1000
0100
1000
0000
0010
0000
0100
0000
0001
0010
0001
0010
0001
0010
0001
0000
0100
0000
0010
0000
,
1000
0000
0100
0000
0010
0000
0001
0100
0001
0100
0001
0100
0001
0000
0010
0000
0100
0000
1000
0010
1000
0010
1000
0010
,
1000
0000
0000
0000
0000
1000
0100
0000
0000
0000
0000
0100
,
0010
0000
0000
0000
0000
0010
0001
0000
0000
1000
0000
0000
,
0001
0000
0001
0000
0001
0000
0100
0000
0100
0000
0100
0000
,
0010
0000
0010
0000
0010
0000
1000
0000
1000
0000
1000
0000
,
0001
0000
0000
0000
0000
0001
0010
0000
0000
0000
0000
0010
,
0100
0000
0000
0000
0000
0100
1000
0000
0000
0001
0000
0000
,
1000
0000
1000
0000
1000
0000
0010
0000
0010
0000
0010
0000
,
0100
0000
0100
0000
0100
0000
0001
0000
0001
0000
0001
0000
,
2002
0000
0000
0000
,
3003
0000
0000
0000
;

//--------------- dance-single - ----------------
#NOTES:
     dance-single:
     :
     Challenge:
     19:
     0,0,0,0,0:
0000
0000
0000
0000
,
0000
0000
0000
0000
,
0000
0000
0000
0000
,
0000
0000
0000
0000
,
1000
0100
1000
0010
0100
0001
0010
0001
0100
0010
1000
0100
,
1000
0010
0100
0010
1000
0100
0010
0001
0100
0010
0100
0001
,
1000
0010
1000
0100
0010
0001
0100
0001
0010
0100
1000
0010
,
1000
0000
0100
0000
0010
0000
0100
1000
0010
0000
0100
0000
0001
0010
0100
0000
0010
0000
0001
0000
0100
0000
0010
0000
,
2000
0000
3200
0000
0000
0000
0000
0000
0000
0310
1000
0010
,
0002
0000
0000
0000
0000
0000
0203
0000
0000
0000
1300
0100
,
0002
0000
0023
0000
0000
0000
0230
0000
0301
0100
1000
0010
,
2000
0000
3200
0000
0302
0000
0023
0000
2030
0000
3002
0000
,
2003
0000
3020
0000
0000
0000
0000
0000
0000
0230
0000
1300
,
0200
0000
0302
0000
0023
0000
2030
0000
3020
0000
0032
0000
,
0203
0000
0000
0310
0001
0010
2000
0000
0000
3100
0001
0100
,
1000
0010
1000
0010
1000
0010
1000
0100
1000
0100
1000
0100
0010
0001
0010
0001
0010
0001
0100
0001
0100
0001
0100
0001
,
1000
0100
1000
0010
0100
0001
0010
0001
1000
0010
0100
0010
,
1000
0100
0010
0100
1000
0001
0100
0010
0100
0001
0010
0100
,
1000
0010
1000
0100
0010
0001
0100
0001
1000
0100
0010
0100
,
1000
0010
0100
0010
1000
0001
0010
0100
0010
0001
0100
0010
,
2000
0000
0000
0000
0000
0000
0000
0000
0000
3100
0001
0100
,
1000
0010
0100
0010
1000
0000
0100
0000
0010
0000
1000
0000
0010
0000
0001
0000
0100
0000
0010
0000
0001
0000
0010
0000
,
2000
0000
3200
0000
0301
0100
2000
0000
3200
0000
0301
0100
,
2000
0000
3020
0000
0031
0010
2000
0000
3020
0000
0031
0010
,
2000
0000
0000
0000
0000
0000
0000
0000
0000
0000
3100
0010
,
2000
3002
0203
2300
,
3020
0000
0032
0000
0000
0000
0000
0000
0000
0000
0000
0000
,
0203
0000
2300
0000
0000
0000
0000
0000
0000
0000
0000
0000
,
3001
0100
0001
0010
0100
1000
0010
1000
0001
0010
0100
0010
,
0001
0100
0010
0100
0001
1000
0100
0010
0100
1000
0010
0100
,
0001
0010
0001
0100
0010
1000
0100
1000
0001
0100
0010
0100
,
0001
0010
0100
0010
0001
1000
0010
0100
0010
1000
0100
0010
,
0001
0100
0001
1100
0001
0100
0001
0010
0001
1010
0001
0010
,
0001
0100
0001
1010
0001
0100
0001
0010
0001
1100
0001
0010
,
0001
0100
0001
1100
0001
0010
0001
0010
0001
1010
0001
0100
,
0001
0010
0001
1100
0001
0100
0001
0100
0001
1010
0001
0000
,
1000
0100
0010
0100
1000
0100
0010
0001
0010
0100
0010
0001
,
1000
0010
0100
0010
1000
0010
0100
0001
0100
0010
0100
0001
,
1000
0100
0010
0100
1000
0100
0010
0001
0100
0010
0100
0001
,
1000
0010
0100
0010
1000
0100
0022
0033
2002
0000
0000
3003
,
1000
0000
0000
0000
0100
0000
1000
0000
0100
0000
1000
0000
0100
0000
0000
0000
0000
1000
0000
0000
0000
0100
0000
0000
,
0000
0010
0000
0000
0000
0001
0000
0010
0000
0001
0000
0010
0001
0000
0000
0000
0010
0000
0000
0000
0001
0000
0000
0000
,
1000
0000
0010
1000
0010
1000
0010
0000
1000
0000
0010
0000
,
0100
0000
0001
0100
0001
0100
0001
0000
0100
0000
0001
0000
,
2200
3300
0220
0330
0011
0011
2200
3300
0220
0330
0011
0011
,
2020
3030
2002
3003
0011
0011
2020
3030
2002
3003
0011
0011
,
2200
3300
0220
0330
0011
0011
2200
3300
0220
0330
0011
0011
,
2020
3030
2002
3003
0011
0011
2002
3003
0220
0330
2002
3003
,
2020
3030
0220
0330
0101
0101
2020
3030
0220
0330
0101
0101
,
2200
3300
2002
3003
0101
0101
2200
3300
2002
3003
0101
0101
,
1000
0100
0010
0100
0010
0001
1000
0010
0100
0010
0100
0001
,
1000
0100
0010
0100
1000
0001
0100
0010
0100
0001
0010
0001
1000
0010
0100
0001
0010
0100
0010
0001
1000
0010
0100
0001
,
2000
0000
0000
3000
2000
0000
0000
0000
3100
0000
0010
0000
2000
0000
0000
3000
2000
0000
0000
0000
3100
0000
0010
0000
,
2000
0000
0000
3000
2000
0000
0000
0000
3100
0000
0010
0000
2000
0000
0000
3000
2000
0000
0000
0000
3100
0000
0010
0000
,
0002
0000
0000
0003
0002
0000
0000
0000
0013
0000
0100
0000
0002
0000
0000
0003
0002
0000
0000
0000
0013
0000
0100
0000
,
0002
0000
0000
0003
0002
0000
0000
0000
0013
0000
0100
0000
0002
0000
0000
0003
0002
0000
0000
0000
2003
0000
0000
0000
,
3002
0000
0000
0003
0002
0000
0000
0000
0103
0000
0010
0000
0002
0000
0000
0003
0002
0000
0000
0000
0103
0000
0010
0000
,
0002
0000
0000
0003
0002
0000
0000
0000
0103
0000
0010
0000
0002
0000
0000
0003
0002
0000
0000
0000
0103
0000
0010
0000
,
2000
0000
0000
3000
2000
0000
0000
0000
3010
0000
0100
0000
2000
0000
0000
3000
2000
0000
0000
0000
3010
0000
0100
0000
,
2000
0000
0000
3000
2000
0000
0000
0000
3010
0000
0100
0000
2000
0000
0000
3000
2000
0000
0000
0000
3002
0000
0000
0000
,
2003
0000
0000
3000
2000
0000
0000
0000
3100
0000
0010
0000
2000
0000
0000
3000
2000
0000
0000
0000
3010
0000
0100
0000
,
2000
0000
0000
3000
2000
0000
0000
0000
3100
0000
0010
0000
2000
0000
0000
3000
2000
0000
0000
0000
3010
0000
0100
0000
,
0002
0000
0000
0003
0002
0000
0000
0000
0013
0000
0100
0000
0002
0000
0000
0003
0002
0000
0000
0000
0103
0000
0010
0000
,
0002
0000
0000
0003
0002
0000
0000
0000
0013
0000
0100
0000
0002
0000
0000
0003
0002
0000
0000
0000
2003
0000
0000
0000
,
3001
0010
0001
0100
0010
1000
0100
0010
0001
1000
0001
0010
,
0100
0000
1000
0000
0010
0000
0100
0000
0001
0000
0010
0000
0001
0100
0010
0100
0001
1000
0100
0010
0001
0010
0100
1000
,
0001
0100
0001
0010
0100
1000
0010
1000
0100
0010
0001
0100
0001
0010
0100
0010
0001
1000
0010
0100
0001
0100
0010
1000
,
0001
0010
0001
0100
0010
1000
0100
1000
0010
0100
0001
0010
0001
0100
0010
0100
0001
1000
0100
0010
0100
1000
0010
0100
,
0001
0010
0100
0010
0001
1000
0001
0010
0100
0010
0001
1000
,
0001
0010
0100
0010
0001
1000
0001
0010
0100
1000
0100
0010
,
0001
0100
0010
0100
0001
1000
0001
0100
0010
0100
0001
1000
,
0001
0000
0100
0000
0010
0000
0100
0001
1000
0000
0100
0000
1000
0000
0010
0000
0100
0000
0010
0000
1000
0000
0001
0000
,
1000
0100
0010
0100
1000
0001
0100
0010
0001
0010
0100
0001
,
1000
0100
0010
0100
1000
0001
1000
0100
0010
0001
0010
0100
,
1000
0010
0100
0010
1000
0001
1000
0010
0100
0010
1000
0001
,
2200
3300
0220
0330
0011
0011
2020
3030
0220
0330
0101
0101
,
2002
0000
0000
0000
,
3003
0000
0000
0000
;
