#TITLE:Space Monster;
#SUBTITLE:;
#ARTIST:Blue Monster;
#TITLETRANSLIT:;
#SUBTITLETRANSLIT:;
#ARTISTTRANSLIT:;
#CREDIT:;
#BANNER:space-bn.png;
#BACKGROUND:space-bg.png;
#LYRICSPATH:space.lrc;
#CDTITLE:cdtitle.PNG;
#MUSIC:space.ogg;
#OFFSET:-1.493;
#SAMPLESTART:74.740;
#SAMPLELENGTH:12.000;
#SELECTABLE:YES;
#BPMS:0.000=140.000;
#STOPS:40.000=0.857
;
#BGCHANGES:;

//---------------dance-single - ----------------
#NOTES:
     dance-single:
     :
     Hard:
     13:
     0.557,0.615,0.339,0.021,0.238: // measure 1
0000
0000
0000
0000
,  // measure 2
0000
0000
0000
0000
,  // measure 3
1000
0001
1000
0001
0100
0001
0010
0100
,  // measure 4
MMMM
0100
0010
0100
0010
0001
0100
0010
,  // measure 5
MMMM
0010
1000
0010
1000
0100
0010
0001
,  // measure 6
MMMM
0001
0100
0010
1000
0100
0010
0001
,  // measure 7
MMMM
0001
0010
1000
0010
0001
0010
0100
,  // measure 8
MMMM
1000
0100
0001
0100
1000
0010
0100
,  // measure 9
MMMM
0100
0001
0100
0010
0100
0001
0100
,  // measure 10
MMMM
1000
0100
0010
0001
0100
0010
1000
,  // measure 11
2002
0000
3003
0000
MMMM
0000
0000
0000
1001
0000
0001
0000
0001
1000
0000
1000
,  // measure 12
0100
0000
0100
0010
0000
0010
0001
1000
0001
0000
1000
0000
1000
0001
0000
0001
,  // measure 13
0010
0000
0010
0100
0000
0100
0010
0100
0010
0000
0100
0000
0100
1000
0000
1000
,  // measure 14
0010
0000
0010
0100
0000
0100
0010
0100
0010
0000
0100
0000
0100
0001
0000
0001
,  // measure 15
1000
0000
1000
0100
0000
0100
1000
0100
1000
0000
0100
0000
0100
0010
0000
0010
,  // measure 16
0100
0000
0100
1000
0000
1000
0001
1000
0001
0000
1000
0000
1000
0010
0000
0010
,  // measure 17
0100
0000
0100
0001
0000
0001
0010
0001
0010
0000
0001
0000
0001
1000
0000
1000
,  // measure 18
0001
0000
0001
0010
0000
0010
0100
0010
0100
0000
0010
0000
0010
0001
0000
0001
,  // measure 19
1000
0000
1000
0001
0000
0001
1000
0001
1000
0000
0000
0000
1000
0000
0100
0000
,  // measure 20
0001
0000
0000
0000
0100
0000
0000
0000
1000
0000
0000
0010
0001
0000
0010
0000
,  // measure 21
0100
0000
0000
0000
MMMM
0000
0000
0000
0001
0000
0000
0010
1000
0000
0010
0000
,  // measure 22
0001
0000
0000
0000
1000
0000
0000
0000
0001
0000
0000
0100
0010
0000
1000
0000
,  // measure 23
0001
0000
MMMM
0000
1000
0000
0001
1000
,  // measure 24
0010
0000
0000
0000
0100
0000
0000
0000
0001
0000
0000
0010
0100
0000
1000
0000
,  // measure 25
0001
0000
MMMM
0000
0011
0000
0100
1000
,  // measure 26
0010
0000
0000
0000
0100
0000
0000
0000
0001
0000
0000
0010
0100
0000
1000
0000
,  // measure 27
0100
0000
0110
0000
0001
1000
0010
0100
,  // measure 28
0001
0100
0010
1000
MMMM
1000
0010
0100
,  // measure 29
0001
0010
0001
0100
MMMM
0001
0100
0010
,  // measure 30
1000
0100
0010
0001
MMMM
0001
1000
0010
,  // measure 31
0100
0001
0100
0010
MMMM
0001
1000
0100
,  // measure 32
0010
0100
1000
0010
MMMM
0010
1000
0001
,  // measure 33
0100
0010
0100
0001
MMMM
0001
1000
0010
,  // measure 34
1000
0100
0010
0001
MMMM
0001
1000
0010
,  // measure 35
0100
0001
1000
0001
1001
0000
1010
0000
,  // measure 36
1001
0000
0101
0000
0001
0100
0010
1000
,  // measure 37
0001
0000
0001
1000
0110
0000
1000
0001
,  // measure 38
0010
0100
0010
0000
0001
1000
0010
0100
,  // measure 39
0001
0000
1000
0001
1010
0000
1001
0000
,  // measure 40
0101
0000
0011
0000
0001
1000
0010
0100
,  // measure 41
0001
0000
0000
0001
0010
0100
1000
0100
,  // measure 42
0110
0011
0101
1001
,  // measure 43
1010
0000
1001
1000
1010
0000
0110
0000
,  // measure 44
1001
0000
0011
0000
0100
1000
0010
0100
,  // measure 45
0001
0000
0001
1000
1100
0000
1000
0001
,  // measure 46
0100
0010
0100
0000
0001
1000
0100
0010
,  // measure 47
0100
0000
0001
1000
1010
0000
1001
0000
,  // measure 48
0101
0000
0011
0000
0001
1000
0010
0100
,  // measure 49
0001
0000
0000
0001
1000
0010
0100
0001
,  // measure 50
0010
0100
1001
1100
,  // measure 51
0011
MMMM
1001
0000
;

//---------------dance-single - ----------------
#NOTES:
     dance-single:
     :
     Medium:
     9:
     0.409,0.455,0.350,0.000,0.000:
0000
0000
0000
0000
,
0000
0000
0000
0000
,
1000
0001
0100
0001
,
0010
0010
0001
0100
,
0010
0010
0100
0001
,
0001
0100
1000
0010
,
0100
0100
0001
0010
,
0100
0100
1000
0001
,
1000
1000
0001
0010
,
0100
0100
1000
0010
,
0110
0000
0MM0
0000
0001
1000
0001
0000
,
1000
0100
1000
0000
0010
1000
0010
0000
,
0100
0001
0100
0000
0001
0010
0001
0000
,
1000
0010
1000
0000
0100
1000
0100
0000
,
0100
0010
0100
0000
0001
0010
0001
0000
,
0001
1000
0001
0000
0010
0100
0010
0000
,
0100
0001
0100
0000
1000
0010
1000
0000
,
0100
0010
0100
0000
0001
0010
0001
0000
,
0010
0100
0010
0000
1001
0000
1000
0000
,
0010
0000
0100
0000
0001
0100
0001
0000
,
1000
0010
1000
0000
0001
0000
1000
0000
,
0100
0000
0010
0000
0100
0010
0100
0000
,
0010
0100
0010
0000
0001
0000
0100
0000
,
0010
0000
1000
0000
0001
1000
0001
0000
,
1000
0010
1000
0000
0010
0000
0100
0000
,
0001
0000
0010
0000
0100
0010
0100
0000
,
0010
0001
0010
0000
0001
0100
0010
0000
,
1000
0000
0100
0000
0010
0001
0100
0000
,
0010
0000
1000
0000
0100
0010
0001
0000
,
0010
0000
0100
0000
1000
0010
0100
0000
,
0001
0100
0010
0000
1000
0100
0010
0000
,
0001
0000
0100
0000
0010
1000
0100
0000
,
1000
0000
0010
0000
0100
0001
0100
0000
,
0010
0000
1000
0000
0100
0010
0100
0000
,
1000
0100
1000
0000
1010
0000
0110
0000
,
1001
0000
0110
0000
0010
0100
0010
0000
,
1000
0100
0110
0010
,
0001
0000
0100
0000
0001
0100
0001
0000
,
1000
0010
1000
0000
1100
0000
1010
0000
,
0110
0000
0101
0000
0001
0100
0001
0000
,
0100
0010
0100
0000
1010
0000
1001
0000
,
1100
0110
1001
0110
,
1001
0000
0010
0100
0110
0000
1010
0000
,
0101
0000
0011
0000
0001
0010
0001
0000
,
0100
0001
0100
0000
0101
0000
0001
0000
,
0100
0000
0010
0000
0100
0010
0100
0000
,
0010
1000
0010
0000
1001
0000
1010
0000
,
0110
0000
0101
0000
0100
0001
0100
0000
,
0001
0010
0001
0000
0101
0000
0110
0000
,
1010
1100
0110
0000
,
0000
0000
1001
0000
;

//---------------dance-single - ----------------
#NOTES:
     dance-single:
     :
     Easy:
     6:
     0.319,0.428,0.233,0.000,0.000:
0000
0000
0000
0000
,
0000
0000
0000
0000
,
0001
1000
0010
1000
,
0100
0100
1000
0010
,
0100
0100
0010
1000
,
0100
0010
0001
0100
,
0010
0010
1000
0100
,
0010
0010
0001
1000
,
1000
1000
0001
0100
,
0010
0010
1000
0100
,
0110
0000
0001
1000
,
0010
1000
0100
0010
,
0001
1000
0010
1000
,
0001
0100
0010
1000
,
0001
1000
1001
1000
,
0010
0100
0001
0010
,
0100
0110
0100
1000
,
0010
0100
0001
0100
,
0010
1000
1001
1000
,
0001
0010
0100
0010
,
0001
1000
0001
1000
,
0010
0100
0001
0010
,
0100
0100
0010
0001
,
0100
0010
1000
0100
,
0010
0100
1000
0001
,
0100
0010
1000
0001
,
1000
0001
0001
0100
,
0010
1000
0100
0100
,
1000
0010
0100
0100
,
0001
0010
0100
0010
,
0001
0100
0010
1000
,
0001
1000
1000
0010
,
0100
0001
0010
0010
,
0001
0100
0010
1000
,
0100
0010
1001
1000
,
0001
0100
0010
1000
,
0100
0010
0110
0010
,
0001
0100
0010
1000
,
0100
0010
0110
0010
,
0001
0100
0010
1000
,
0100
0010
1001
1001
,
1001
1001
0110
1001
,
0110
1001
0110
0100
,
0001
0010
0100
1000
,
0010
0000
1000
0010
,
1000
0001
0100
0010
,
1000
1000
0100
0010
,
0001
0100
0010
1000
,
0100
0000
1001
1001
,
1001
1001
0110
0000
,
0000
0000
1001
0000
;

//---------------dance-single - ----------------
#NOTES:
     dance-single:
     :
     Beginner:
     3:
     0.129,0.367,0.201,0.000,0.000:
0000
0000
0000
0000
,
0000
0000
0000
0000
,
0000
0000
0000
0000
,
0000
0000
0000
0000
,
0000
0000
0000
0000
,
0000
0000
0000
0000
,
0000
0000
0000
0000
,
0000
0000
0000
0000
,
0000
0000
0000
0000
,
0000
0000
0000
0000
,
1001
0000
0000
0000
,
0010
0000
1000
0000
,
0001
0000
1000
0000
,
0010
0000
0100
0000
,
0001
0000
1000
0000
,
0001
0000
0100
0000
,
0010
0000
1000
0000
,
0001
0000
1000
0000
,
0001
0000
1000
0000
,
0001
0000
1000
0000
,
0001
0000
0100
0000
,
0010
0000
0100
0000
,
0010
0000
1000
0000
,
0100
0000
0010
0000
,
0001
0000
0001
0000
,
0100
0000
0010
0000
,
1000
0000
1000
0000
,
0001
0000
1000
0000
,
0001
0000
1000
0000
,
0001
0000
1000
0000
,
0100
0000
0010
0000
,
0100
0000
0010
0000
,
0100
0000
0010
0000
,
0100
0000
0010
0000
,
0100
0000
1001
0000
,
0000
0000
0000
0000
,
0000
0000
1001
0000
,
0000
0000
0000
0000
,
0000
0000
1001
0000
,
0000
0000
0000
0000
,
0000
0000
1001
1001
,
1001
1001
1001
1001
,
1001
0000
1001
0000
,
0000
0000
0000
0000
,
0000
0000
1001
0000
,
0000
0000
0000
0000
,
0000
0000
1001
0000
,
0000
0000
0000
0000
,
0000
0000
1001
1001
,
1001
1001
1001
0000
;
