#TITLE:Solar Storm;
#SUBTITLE:;
#ARTIST:xi;
#TITLETRANSLIT:;
#SUBTITLETRANSLIT:;
#ARTISTTRANSLIT:;
#GENRE:;
#CREDIT:;
#MUSIC:Solar Storm.ogg;
#BANNER:Solar Storm.png;
#BACKGROUND:;
#CDTITLE:;
#SAMPLESTART:75.694;
#SAMPLELENGTH:15.000;
#SELECTABLE:YES;
#OFFSET:1.106;
#BPMS:0.000=200.000;
#STOPS:;
#LASTBEATHINT:0.389926;
#BGCHANGES:;
#FGCHANGES:;

//--------------- dance-single - PenTA_ ----------------
#NOTES:
     dance-single:
     PenTA_:
     Hard:
     17:
     1.036036,1.311712,0.801802,0.234234,1.04955,805,716,89,26,0,0,1.036036,1.311712,0.801802,0.234234,1.04955,805,716,89,26,0,0:
0000
0000
0000
0000
,
0000
0000
0000
0000
,
1100
1100
0000
0000
0110
0110
0000
0000
,
0011
0011
0000
0000
1001
1001
0000
0000
,
0101
0101
0000
0000
0110
0110
0000
0000
,
1010
0000
1010
0000
0000
0000
0000
0000
1000
0010
0100
0001
1000
0010
0100
0001
,
0020
0000
0000
0000
,
0031
1000
0001
1000
0010
0100
0010
0100
0001
0010
0100
1000
0010
0100
0001
1000
,
0010
0000
0000
0000
1000
0100
1000
0000
0100
0010
0100
0000
0010
0001
0010
0000
,
0001
0100
0001
0000
0100
0010
0100
0000
0010
1000
0001
1000
0001
0100
0010
1000
,
0001
0000
1001
0000
1000
0100
0000
0011
,
0000
0110
0000
1100
0000
1000
0001
0100
,
0010
0000
1001
0000
1000
0010
0000
0101
,
0000
0000
0110
0000
0000
0000
1010
0000
0000
0000
1000
0001
1000
0001
1000
0100
,
0010
0000
1001
0000
1000
0010
0000
0101
,
0000
0011
0000
0101
0000
0010
1000
0001
,
0100
0000
1001
0000
0001
0010
0000
1100
,
0000
0000
0110
0000
0000
0000
0011
0000
0000
0000
0001
0010
0001
0010
0100
1000
,
0001
0000
0001
1000
0010
0000
0000
0000
0100
0000
0001
0000
0010
0000
0011
0000
,
0000
0000
0101
0000
0000
0000
1010
0000
0000
0000
1000
0000
0100
1000
0001
1000
,
0100
0000
0010
0001
1000
0000
0000
0000
0010
0000
1000
0000
0100
0000
1100
0000
,
0000
0000
1010
0000
0000
0000
0101
0000
0000
0000
0001
0000
0100
0010
1000
0001
,
0100
0010
1010
0000
1000
0100
0010
0011
,
0000
1100
0000
0110
0000
0001
0100
0010
,
1000
0000
0100
1000
0100
0000
0010
0000
0001
0000
0100
0001
0100
0000
0010
0000
,
1010
0000
0000
0101
0000
0000
1010
0000
0000
1100
0000
0000
0011
0000
0010
0000
,
0100
1000
0100
1000
0100
1000
0100
0010
0001
1000
0001
1000
0001
1000
0001
0100
,
0010
1000
0010
1000
0001
0100
0001
0100
0010
1000
0100
0010
0001
0000
0001
0010
,
0200
0000
0320
0000
,
0032
0000
0000
0103
,
0010
1000
0100
1000
,
0020
0000
0230
0000
,
0302
0000
2003
0000
,
3200
0000
0000
0310
,
0001
1000
0001
0100
,
0220
0000
0000
0000
0330
0000
0000
0000
2002
0000
0000
0000
3003
0000
0001
1000
,
0020
0000
0000
0000
0000
0000
0000
0000
0000
0000
0000
0000
1030
0010
0100
0001
,
0020
0000
0000
0000
0000
0000
0000
0000
0000
0000
0000
0000
0031
0010
0100
1000
,
0020
0000
0000
0000
0000
0000
0000
0000
0000
0000
0000
0000
0130
0001
1000
0100
,
0020
0000
0000
0000
0000
0000
0000
0000
0000
0000
0000
0000
0000
0000
0130
1000
,
0001
0001
0100
0010
1000
0100
0010
0001
,
0010
1000
0010
0001
0100
0010
1000
0001
,
0010
0100
0010
0000
0001
0000
1000
0000
0010
0100
0010
0000
1000
0000
0001
0000
,
0100
0010
0100
0000
0001
0000
1000
0000
0100
0010
0001
1000
0010
0000
0000
0000
,
0100
0000
0001
0100
0001
0000
1000
0000
0010
0000
0100
0001
0100
0000
0010
0000
,
1000
0000
0001
0010
0001
0000
1000
0000
0100
0000
0010
0001
0010
0000
0100
0000
,
1000
0000
0010
0001
0010
0000
0100
0000
0001
0000
0010
1000
0010
0000
0100
0000
,
1000
0000
0010
0001
0010
0000
0100
0000
0010
0000
1000
0000
1001
0000
0000
0000
,
0001
0000
0001
0000
0100
0001
0100
0000
0001
0000
0010
0001
0010
0000
0100
0000
,
1000
0000
0000
1000
0010
0000
0000
0010
0100
0000
0000
0100
0001
0000
0000
0001
,
1000
0000
1000
0000
0001
0100
0010
1000
0001
0000
0001
0000
1000
0100
0010
0001
,
1000
0000
0000
1100
0000
0000
1010
0000
0000
0101
0000
0000
0001
0010
0100
1000
,
0001
0000
0000
1000
0001
1000
0010
0100
0001
0010
0000
0000
,
0001
0000
0000
0000
1000
0000
0000
0000
0001
0000
0000
0000
0010
0000
0000
0000
0100
0000
0000
0000
1000
0000
0000
0000
0010
0000
0000
0000
0000
0000
1000
0000
0000
0000
0000
0000
0100
0000
0000
0010
0000
0000
0001
0000
0000
1000
0000
0000
,
0010
0000
0000
1000
0001
1000
0001
0010
0100
1000
0000
0000
,
0001
0000
0000
0000
1000
0000
0000
0000
0001
0000
0000
0000
1000
0000
0000
0000
0010
0000
0000
0000
0100
0000
0000
0000
0001
0000
0000
0000
0000
0000
0100
0000
0000
0000
0000
0000
0010
0000
0000
1000
0000
0000
0001
0000
0000
1000
0000
0000
,
0100
0000
0000
0100
0000
0000
0010
0000
0001
0000
1000
0000
0001
0000
0010
0000
0001
0000
0100
0000
0000
0100
0000
0000
,
0010
0000
0000
0000
1000
0000
0000
0000
0001
0000
0000
0000
1000
0000
0000
0000
0010
0000
0000
0000
1000
0000
0000
0000
0100
0000
0000
0000
0000
0000
0100
0000
0000
0000
0000
0000
0010
0000
0000
0001
0000
0000
1000
0000
0000
0100
0000
0000
,
0010
0000
0010
0001
0000
0001
0100
0000
0100
1000
0000
1000
,
0100
0000
0100
0010
0000
0010
1000
0000
1000
0100
0000
0100
,
0010
0001
0100
0010
1000
0100
0010
0001
0100
0010
1000
0100
,
0010
1000
0010
0001
1000
0100
0001
1000
0010
0001
0100
0010
,
2000
0000
0000
0000
,
3100
0010
0001
0010
0001
0010
0001
0010
0100
1000
0001
0010
0100
1000
0001
0100
,
0010
0000
0000
0000
1100
0000
0000
0000
1010
0000
1000
0010
0100
0001
1000
0000
,
0000
0000
0001
0000
0100
0000
1000
0000
0100
0000
0010
0100
0010
0000
1000
0000
,
0100
0000
0000
0000
0011
0000
0000
0000
0101
0000
0100
0010
1000
0001
0100
0000
,
0000
0000
0001
0000
0010
0000
0100
0000
1000
0010
1000
0010
0100
0001
0010
0001
,
0010
0000
0000
0000
1100
0000
0000
0000
0110
0000
0010
0001
1000
0010
0100
0000
,
0000
0000
1000
0000
0100
0000
0010
0000
1000
0000
0001
0100
0001
0000
0010
0000
,
1001
0000
0110
0000
0010
0001
0000
0001
,
0100
0000
0000
1010
0000
0000
0101
0000
0000
1010
0000
0000
1000
0100
0010
0001
,
0100
0010
0100
0010
1000
0001
1000
0001
,
0010
0000
0100
1000
0001
0000
0100
0010
1000
0000
0100
0010
0001
0000
1000
0000
,
0010
0100
0001
0100
0010
0100
0001
0100
0010
0000
0020
0000
0000
0000
2030
0000
,
0000
0000
3100
0000
1000
0000
0010
0000
1000
0000
0100
0010
0100
0000
0010
0000
,
0002
0000
0000
0000
0000
0000
0000
0000
0103
0010
1000
0010
1000
0010
1000
0100
,
0010
0001
0010
0001
0010
0001
0100
0010
2000
0000
0000
0000
3002
0000
0000
0000
,
1003
0100
1000
0100
0010
0100
0010
0001
0010
0100
1000
0001
0010
0100
1000
0001
,
0100
0000
0000
1010
0000
0000
1001
0000
0000
0101
0000
0000
0001
1000
0010
0100
,
0001
0000
1001
0000
1000
0010
1000
0001
0100
0000
0001
0010
0100
0000
1000
0000
,
0000
0000
1010
0000
0011
0000
0000
0000
0001
0100
0001
0100
0010
1000
0001
0100
,
0000
0000
1010
0000
1100
0000
1010
0000
0101
0000
1010
0000
,
0011
0000
0101
0000
0011
0000
1100
0000
0011
0000
0110
0000
,
1000
0000
1001
0000
0001
0010
0001
1000
0100
0000
1000
0010
0100
0000
0001
0000
,
0000
0000
0011
0000
1010
0000
0000
0000
1000
0100
1000
0100
0010
0001
1000
0100
,
0000
0000
0110
0000
0110
0000
0001
0010
0100
0000
1000
0100
0010
0000
0001
0000
,
0100
0010
1000
0001
0100
0000
0020
0000
0000
0000
1030
0100
0010
0000
0010
0000
,
0001
0100
0010
1000
0010
0100
0001
0100
0010
1000
0100
0010
0001
0100
0010
1000
,
0001
0100
0010
1000
0001
0100
0010
0100
0001
1000
0100
0010
0001
0000
2002
0000
,
0000
0000
0000
0000
,
3003
0000
0000
0000
;
