#TITLE:So This Is Love;
#SUBTITLE:;
#ARTIST:Ilene Woods and Mike Douglas;
#TITLETRANSLIT:;
#SUBTITLETRANSLIT:;
#ARTISTTRANSLIT:;
#CREDIT:;
#BANNER:;
#BACKGROUND:;
#LYRICSPATH:;
#CDTITLE:;
#MUSIC:So This Is Love.ogg;
#OFFSET:-0.055;
#SAMPLESTART:60.748;
#SAMPLELENGTH:12.000;
#SELECTABLE:YES;
#BPMS:0.000=120.827,1.000=65.814,2.000=131.963,3.000=68.294,4.000=134.540,5.000=67.522,6.000=136.723,7.000=128.515,8.000=112.601,9.000=127.838,10.000=127.573,11.000=134.451,12.000=127.789,13.000=134.567,14.000=130.351,15.000=121.560,16.000=144.994,17.000=133.286,18.000=125.778,19.000=133.927,20.000=127.838,21.000=128.210,22.000=133.542,23.000=130.796,24.000=125.035,25.000=156.244,26.000=117.199,27.000=151.226,28.000=131.753,29.000=133.582,30.000=133.934,31.000=106.231,32.000=118.257,33.000=155.849,34.000=120.404,35.000=129.846,36.000=138.469,37.000=125.778,38.000=140.625,39.000=127.838,40.000=133.636,41.000=137.870,42.000=123.196,43.000=131.786,44.000=133.219,45.000=138.136,46.000=138.411,47.000=135.999,48.000=129.446,49.000=126.821,50.000=122.319,51.000=133.880,52.000=134.499,53.000=121.812,54.000=133.927,55.000=140.625,56.000=112.749,57.000=127.524,58.000=133.927,60.000=127.845,61.000=133.927,62.000=122.279,63.000=161.944,64.000=130.012,65.000=140.625,66.000=117.194,67.000=133.927,68.000=137.605,69.000=119.372,70.000=125.018,71.000=149.584,72.000=127.678,73.000=136.314,74.000=129.161,75.000=126.319,76.000=128.117,77.000=135.021,78.000=121.143,79.000=140.625,80.000=122.279,81.000=133.934,82.000=133.927,83.000=127.838,84.000=135.090,85.000=121.337,86.000=126.548,87.000=135.380,88.000=133.927,89.000=122.279,90.000=122.285,91.000=140.625,92.000=122.285,93.000=127.838,94.000=122.285,95.000=112.500,96.000=100.178,97.000=77.393,98.000=76.627,99.000=87.379,100.000=99.646,101.000=63.984,102.000=74.680,103.000=38.647,104.000=84.496,105.000=99.841,106.000=87.002,107.000=93.195,107.500=107.413,108.000=92.105,108.500=97.301,109.000=98.178,110.000=83.375,111.000=94.392,111.500=69.007,112.000=65.914,112.333=62.443,112.667=86.530,113.000=76.232,113.333=78.912,113.667=65.290,114.000=37.001,115.000=44.250,115.333=77.294,115.667=78.976,116.000=45.728,116.333=47.524,116.667=25.879,117.000=72.622,117.333=96.605,117.667=73.019,118.000=80.858,118.333=52.048,118.667=23.061,119.000=48.094,119.333=39.518,119.667=49.867,120.000=101.477,121.000=148.020,122.000=109.697,123.000=101.430,124.000=94.917,125.000=99.646,126.000=97.739,127.000=98.481,127.667=72.337,128.000=83.880,128.542=81.393,129.000=85.228,130.000=59.776,130.667=78.303,130.833=79.203,131.000=65.290,131.333=63.908,131.667=64.691,132.000=64.048,132.333=62.847,132.667=62.504,133.000=68.665,133.333=43.035,134.000=98.886,134.500=62.794,134.667=82.988,135.000=89.707,136.000=90.890,137.000=104.593,138.000=107.613,139.000=166.730,140.000=45.847,140.333=63.659,140.667=49.573,141.000=66.387,142.000=32.413,142.333=59.793,142.667=61.549,143.000=60.146,144.000=112.510,145.000=63.984,146.000=120.366,147.000=76.383,148.000=137.497,149.000=78.127,150.000=51.146,150.500=78.849,151.000=74.099,151.333=87.111,151.667=85.848,152.000=43.368,152.250=101.482,152.667=63.992,153.000=80.602,154.000=70.320,155.000=44.113,155.333=81.268,155.667=62.852,156.000=60.544,157.000=71.072,157.333=66.321,157.667=50.678,158.000=125.385,159.000=138.978,160.000=71.924,160.333=61.489,160.667=63.462,161.000=78.778,161.333=86.589,161.667=72.664,162.000=65.275,162.333=44.492,162.604=92.729,163.000=97.743,164.000=69.828,165.000=89.801,166.000=54.206,167.000=73.031,168.000=74.497,169.000=96.285,170.000=80.452,170.333=67.039,171.000=66.028,171.333=57.572,171.667=77.307,172.000=66.122,172.667=80.262,173.000=56.768,173.333=55.343,173.667=21.046,174.000=85.402,175.000=65.234,175.667=39.585,176.000=112.769,177.000=110.999,178.000=69.231,178.333=65.542,178.667=23.400,179.000=63.394,179.333=46.341,179.667=52.245,180.000=45.382,180.333=56.830,180.667=37.524,181.000=35.156,181.333=27.232,181.667=39.809,182.000=15.797,182.771=14.949,183.000=36.896,183.333=49.604,183.667=49.115,184.000=29.763,184.333=50.845,184.667=26.410,185.000=30.369,185.333=41.019,185.667=31.434,186.000=24.707,186.333=40.685,186.667=35.833,187.000=88.288,188.000=100.509,189.000=49.277,190.000=17.463,191.000=22.646,191.333=29.085,191.667=16.282,192.000=16.282;
#STOPS:;
#BGCHANGES:;

//---------------dance-single - ----------------
#NOTES:
     dance-single:
     :
     Hard:
     11:
     0.399,0.525,0.014,0.640,0.331:
0000
0000
0000
0000
,
0000
0000
0000
0000
0000
0000
0000
0000
0000
0000
0000
1000
,
0001
0000
1000
0002
0000
0000
0013
0000
0001
1000
0000
0001
,
2000
0000
0000
3010
0000
1000
0001
0000
1000
0002
0000
0000
,
1003
0001
0020
0000
0031
0100
1000
0100
,
0001
0000
0000
0020
0000
0000
0230
0000
0000
0000
0000
0301
,
0200
0000
0000
0000
0000
0000
2300
0000
0000
0000
0000
0000
0000
0000
0000
0000
3010
0000
0100
0000
0000
1000
0000
0000
,
0100
0000
0000
0001
0000
0000
0010
0000
0000
0100
0000
0000
0001
0000
0000
0100
0000
0000
1000
0000
0000
0000
0010
0000
,
1000
0000
0010
2000
0000
0000
3001
0000
0010
0001
0000
0010
,
0002
0000
0000
0000
0000
0000
1003
0000
0000
0000
0010
0000
1000
0000
0000
0000
0010
0000
2000
0000
0000
3100
0000
0000
,
0001
0000
0100
0000
1000
0000
0010
0000
0001
0000
0010
1000
0200
0000
0000
0000
,
0302
0203
2300
3020
,
0032
0000
0000
0000
0000
0000
2003
0000
0000
0000
0000
0000
0000
0000
0000
3000
0010
0000
0001
0000
0000
0100
0000
0000
,
1000
0000
0000
0100
0000
0000
0010
0000
0000
1000
0000
0000
0002
0000
0000
0000
0000
0000
0003
0000
0000
0000
1000
0000
,
0100
0000
0000
0000
1000
0000
0100
0000
0000
0010
0000
0000
0001
0000
0000
1000
0000
0000
0000
0000
0010
0000
1000
0000
,
0100
0000
0000
0000
0000
0000
0000
0000
0010
0000
0000
0000
0000
0000
0000
0000
0001
0000
0000
0000
0000
0000
0000
0000
0100
0000
0000
0000
0000
0000
0000
0000
1000
0000
0000
0000
0000
0000
0100
0000
0000
0000
0000
0000
0000
0100
0000
0000
0000
0000
0000
0000
0000
0000
0000
0000
0001
0000
0000
0000
0000
0000
0000
0000
,
0010
0000
0000
0100
0000
0000
1000
0000
0010
0000
0100
0000
0000
0000
0000
0100
0000
0001
0000
0000
0000
0000
0000
0000
,
1000
0200
0320
0032
,
2003
3020
0230
2300
3200
0320
2030
3200
,
0302
0203
2300
3020
0230
0302
2003
3000
,
1000
2000
3200
0302
,
0013
0001
0200
0000
0000
1300
0020
0000
,
0030
0000
0000
1000
0000
0000
0010
0000
0000
0100
2000
0000
0000
0000
0000
0000
0000
0000
3000
0000
0000
1000
0000
0000
,
0100
1000
0200
0000
0300
0001
0100
0001
,
0200
0000
0000
1300
0100
0010
1000
0001
,
0010
0100
2000
0000
3002
0000
0203
0000
,
1300
0000
0100
0001
2000
0000
3100
0010
,
0001
0100
0020
0000
2030
0000
3001
1000
,
0020
0000
0130
0000
0001
0000
0010
0000
1000
0000
0010
0000
0002
0000
0000
0003
0000
0000
0100
0000
0010
0000
1000
0000
,
0010
1000
0002
0013
0001
0010
0001
0100
0020
1030
0100
0100
,
0020
0032
0203
2300
,
3200
0000
0000
0000
0000
0000
0300
0000
0000
0001
0000
0000
0020
0000
0000
0000
0000
0000
1030
0000
0000
0000
0010
0000
,
0001
0000
0000
0100
0000
0000
0020
0000
0000
0000
0000
0000
0031
0000
0000
0000
0000
0010
1000
0000
0100
0000
0010
0000
,
0001
0000
0000
0000
0100
0000
0000
0000
1000
0000
0000
0000
0100
0000
0000
0000
0002
0000
0000
0000
0000
0000
0000
0000
1003
0000
0000
0000
0000
0000
0100
0000
0000
1000
0000
0000
0200
0000
0000
0000
0000
0000
0000
0000
0000
0000
0000
0000
,
0320
0032
0203
0320
,
0031
0010
1000
0002
0000
0000
0023
0130
0001
0200
0000
0000
,
0320
0032
0203
2300
,
3020
0000
0000
0000
0000
0000
0031
0000
0000
0000
0000
0000
0000
0000
0000
0001
0000
0000
0100
0000
1000
0000
0100
0000
,
0010
0100
1000
0002
0000
0000
0000
0000
0000
0013
1000
0010
,
0200
0000
0000
0000
0000
0000
0301
0000
1000
0000
0001
2000
0000
0000
0000
0000
0000
0000
0000
0000
0000
0000
0000
0000
,
3100
0001
0100
0010
0001
0100
1000
0100
0001
0020
0000
0000
,
0030
0000
0000
0001
0000
0000
0022
0000
0030
0013
0001
0000
,
0200
0000
0000
0300
0000
0000
1000
0100
0000
0001
0010
0100
,
0002
0000
0103
1000
0001
0200
0301
0000
0000
0101
0000
1000
,
0100
0000
0000
0010
0000
0000
0001
0010
0100
0100
0001
0100
,
1000
0100
0001
0100
1000
0010
0002
0000
0003
0001
0010
0100
,
0010
0000
1000
0000
0200
0000
0001
0000
0001
0000
0301
0000
0000
0100
0010
0000
0001
0000
0002
0000
0000
0000
0000
0000
,
0103
0000
0000
0010
0000
0000
2000
0000
0000
3200
0001
0020
,
0000
0000
0330
0000
0000
0000
0000
0000
0000
0000
0000
0000
;

//---------------dance-single - ----------------
#NOTES:
     dance-single:
     :
     Medium:
     10:
     0.295,0.407,0.063,0.422,0.211:
0000
0000
0000
0000
,
0000
0000
0000
0000
0000
0000
0000
0000
0000
0000
0000
1000
,
0001
0000
1000
0002
0000
0000
0000
0000
0103
0010
0000
0100
,
0020
0000
0000
0000
0000
1030
0001
0000
1000
0002
0000
0000
,
0103
0001
1000
0000
0010
0100
0001
0000
,
0010
1000
2200
3300
,
0001
0022
0033
0001
,
1000
0000
0000
0010
0000
0000
0100
0000
0000
0000
0000
0000
1000
0000
0000
0100
0000
0000
0001
0000
0000
0000
1000
0000
,
0010
0000
1000
0020
0000
0000
0000
0000
0130
0001
0000
0100
,
0002
0000
0000
0000
0000
0013
1000
0000
0010
2000
0000
0000
,
3010
0000
0000
0001
0000
0000
0100
0000
0000
0000
0000
0000
0110
0000
0000
0000
0010
0000
1000
0000
0000
0000
0000
0000
,
0200
0302
0203
2300
,
3020
0000
0000
0031
0000
0000
0000
0000
0010
1000
0000
0000
,
0001
0000
0000
0010
0000
0000
0001
0000
0000
0010
0000
0000
0200
0000
0000
0000
0000
0000
0300
0000
0000
0000
1000
0000
,
0100
0000
1000
0200
0000
0000
0000
0000
0301
0100
0000
0001
,
0200
0000
0000
0000
0000
1300
0100
0000
1000
0200
0000
0000
,
0010
0000
0001
0310
,
0100
2000
3020
0032
,
0013
1000
0001
0100
0010
1000
0001
0010
,
0100
1000
0100
0010
0001
0100
0001
0000
,
1000
2000
3200
0320
,
0031
0100
0002
0000
0000
0000
0003
0000
0001
0010
0000
0000
,
0000
0000
0010
0000
0100
0000
0000
0010
,
0100
1000
0200
0000
0000
0310
0001
0100
,
0002
0000
0000
0013
0100
1000
0010
0100
,
0010
0100
0001
0000
2000
0000
3100
0000
,
0000
0000
0000
0000
0000
0000
1000
0100
,
0010
0100
0002
0000
0000
0003
0000
0000
,
0000
0001
1000
0001
0100
0010
0002
0000
0003
1000
0010
1000
,
0002
0000
0013
0001
0010
0001
0020
0000
0130
1000
0001
0100
,
0201
0010
1000
0010
,
0301
0000
0000
0000
0000
0000
2000
0000
0000
3000
0000
0010
,
1000
0000
0000
0100
0000
0000
0020
0000
0000
0000
0000
0000
0000
0000
0000
0000
0000
0000
0031
0000
0000
0000
0001
0000
,
0100
0000
0000
0000
0110
0000
0000
0000
2002
0000
0000
0000
3003
0000
0000
1000
0000
0000
1000
0000
0000
0000
0000
0000
,
0200
0320
0032
0203
,
0300
0010
0000
0020
0000
0000
0000
1030
0000
2000
0000
0000
,
3000
0002
0023
0230
,
0302
0000
0203
0000
0300
0100
2000
0000
,
0000
0000
0000
3000
0000
0000
0000
0000
0000
0000
0001
0100
,
0002
0000
0000
0003
1000
0000
2000
0000
0000
0000
0000
0000
,
3010
1000
0010
2000
0000
0010
0000
0001
0000
0100
0000
0000
,
3001
0000
0000
0001
0000
0000
0011
0000
0000
0010
0001
0000
,
0002
0000
0000
0003
0000
0000
0001
0100
0000
0020
0000
0000
,
0000
0000
1030
0100
,
0110
0000
0000
0010
0000
0000
0001
0100
0020
0000
0030
0010
,
1000
0000
0000
0000
0000
0000
0000
0000
0000
0000
0000
0000
0000
0000
1000
0000
0000
0100
0000
0000
1000
0000
0000
0000
0020
0000
0000
0000
0000
0000
0000
0000
0000
0030
0000
0000
0100
0000
0000
0000
0001
0000
0000
0000
0100
0000
0000
0000
,
0002
0000
0000
0000
0000
0000
0000
0100
1000
1003
0000
0000
,
0100
0011
2000
0200
,
0000
0000
3300
0000
0000
0000
0000
0000
0000
0000
0000
0000
;

//---------------dance-single - ----------------
#NOTES:
     dance-single:
     :
     Easy:
     7:
     0.175,0.220,0.000,0.309,0.067: // measure 1
0000
0000
0000
0000
,  // measure 2
0000
0000
0000
0000
,  // measure 3
1000
2000
0000
3001
,  // measure 4
0002
0000
1003
2000
,  // measure 5
0000
0000
0000
0000
,  // measure 6
3010
1000
0002
0000
,  // measure 7
0103
0002
0000
2003
,  // measure 8
0000
0000
0000
0000
,  // measure 9
3010
0020
0000
0130
,  // measure 10
0200
0000
0301
0002
,  // measure 11
0000
0000
0000
0000
,  // measure 12
2003
3200
0320
2030
,  // measure 13
3020
0000
0000
0031
0000
0000
0000
0000
0001
0100
0000
0000
,  // measure 14
0010
1000
0100
0000
,  // measure 15
0010
0020
0000
0130
,  // measure 16
0200
0000
0310
0020
,  // measure 17
0000
0000
0000
0030
,  // measure 18
0001
0200
0320
2030
,  // measure 19
3001
0010
0100
0001
,  // measure 20
0100
1000
0010
0100
,  // measure 21
0000
0100
0001
1000
,  // measure 22
0010
0100
0000
0001
,  // measure 23
0000
0001
0001
0000
,  // measure 24
1000
2000
0000
3100
,  // measure 25
0200
0000
0301
0100
,  // measure 26
1000
0010
0200
0002
,  // measure 27
0000
0000
0303
0000
,  // measure 28
0000
0000
0000
0000
,  // measure 29
0000
0000
0000
0000
0000
0000
0000
0000
0000
0001
1000
0000
,  // measure 30
1000
0000
0000
0000
0100
0000
0100
0000
0000
0010
0001
1000
,  // measure 31
0001
0010
0100
1000
,  // measure 32
0001
0000
0200
0000
,  // measure 33
0310
2000
0000
0002
,  // measure 34
0000
0000
0000
0000
0000
0000
0000
0000
3003
0000
0000
0000
0000
0000
0000
1000
0000
0000
1000
0000
0000
0000
0000
0000
,  // measure 35
0020
0230
0302
0023
,  // measure 36
0030
0100
0000
0100
0000
0000
1000
0010
0000
0100
0000
0000
,  // measure 37
0000
0002
0023
0230
,  // measure 38
0302
0000
0003
0000
0000
0100
2000
0000
,  // measure 39
0000
0000
0000
0000
0000
0000
0000
0000
0000
3000
0100
0000
,  // measure 40
0010
0000
0000
0000
0001
0000
1000
0000
0000
0000
0000
0000
,  // measure 41
0000
0010
0000
0100
0000
0001
0000
0010
0000
0200
0000
0000
,  // measure 42
0300
0000
2000
0000
,  // measure 43
3200
0000
0000
0000
0000
0000
0310
0000
0000
0001
0000
0100
,  // measure 44
0010
0000
1000
0000
1000
0200
0000
0300
0000
0010
0000
0000
,  // measure 45
0000
0000
0000
0001
0000
0000
0100
0000
0010
0000
0000
0000
,  // measure 46
1000
0000
0000
0000
0000
0000
0000
0000
0000
0000
0000
0000
0000
0000
0000
0000
0000
1000
0000
0000
0000
0000
0000
0000
0002
0000
0000
0000
0000
0000
0000
0000
0003
0000
0000
0000
0000
0000
0000
0000
1000
0000
0000
0000
0000
0000
0000
0000
,  // measure 47
2000
0000
0000
0000
,  // measure 48
3001
0000
0000
0100
0000
0000
0020
0000
0030
2000
0000
0000
,  // measure 49
0000
0000
3000
0000
0000
0000
0000
0000
0000
0000
0000
0000
;
