#TITLE:Sing For You;
#SUBTITLE:;
#ARTIST:Raven & Kreyn;
#TITLETRANSLIT:;
#SUBTITLETRANSLIT:;
#ARTISTTRANSLIT:;
#GENRE:;
#CREDIT:;
#BANNER:;
#BACKGROUND:;
#LYRICSPATH:;
#CDTITLE:;
#MUSIC:Sing For You.ogg;
#OFFSET:-0.052000;
#SAMPLESTART:46.925999;
#SAMPLELENGTH:15.000000;
#SELECTABLE:YES;
#BPMS:0.000000=128.000000
;
#STOPS:
;
#BGCHANGES:;
#KEYSOUNDS:;
#ATTACKS:;

//---------------dance-single - ----------------
#NOTES:
     dance-single:
     :
     Hard:
     11:
     0.375535,0.436940,0.260506,0.047365,0.011841,222.000000,200.000000,22.000000,4.000000,0.000000,0.000000,0.375535,0.436940,0.260506,0.047365,0.011841,222.000000,200.000000,22.000000,4.000000,0.000000,0.000000:
// measure 0
0000
0000
0000
0000
,  // measure 1
0000
0000
0000
0000
,  // measure 2
0000
0000
0000
0000
,  // measure 3
0000
0000
0000
0000
,  // measure 4
0000
0000
0000
0000
,  // measure 5
1000
0000
0100
0000
,  // measure 6
0010
0000
0001
0000
,  // measure 7
1000
0000
0010
0000
,  // measure 8
0100
0000
0001
0000
,  // measure 9
1000
1000
1000
1000
,  // measure 10
0001
0001
0001
0001
,  // measure 11
0100
0100
0100
0100
,  // measure 12
0010
0010
0010
0010
,  // measure 13
0100
0100
0100
0100
,  // measure 14
0010
0010
0010
0010
,  // measure 15
1000
1000
1000
1000
,  // measure 16
0001
0001
0001
0001
,  // measure 17
1000
0100
1000
0010
1000
0100
0010
0001
,  // measure 18
0100
0010
0100
0001
0100
0010
1000
0100
,  // measure 19
0010
0001
0010
0100
0010
0001
0100
0010
,  // measure 20
1000
0100
1000
0001
1000
0010
0100
0001
,  // measure 21
0100
0100
0010
0000
0010
0010
1000
0000
,  // measure 22
1000
1000
0001
0000
0001
0001
0010
0000
,  // measure 23
0100
0010
1000
0001
0010
0100
1000
0001
,  // measure 24
0200
0000
0000
0000
0000
0000
0310
0100
,  // measure 25
0001
0100
0101
0000
1000
0100
1100
0000
,  // measure 26
0001
0010
0100
1000
0100
0010
0110
0000
,  // measure 27
1000
0010
1010
0000
0001
0010
0011
0000
,  // measure 28
1000
0010
0100
0001
0020
0130
2000
3001
,  // measure 29
0100
0010
0110
0000
0010
1000
1010
0000
,  // measure 30
1000
0100
0010
0001
0010
0100
0110
0000
,  // measure 31
0001
0100
0110
0000
1000
0100
0110
0000
,  // measure 32
1000
0000
0000
0010
0000
0000
0100
0000
0000
0001
0000
0000
1000
0000
0200
0000
,  // measure 33
0310
0001
0011
0000
1000
0010
1010
0000
,  // measure 34
0001
0100
0010
1000
0100
0010
0110
0000
,  // measure 35
1000
0100
1100
0000
0001
0100
0101
0000
,  // measure 36
1000
0100
0010
0001
0100
0010
0110
0000
,  // measure 37
1000
0001
0011
0000
0001
1000
1010
0000
,  // measure 38
1000
0010
0100
0001
0010
0100
0110
0000
,  // measure 39
0010
0001
0101
0000
0010
1000
1100
0000
,  // measure 40
0010
0001
0100
0010
1000
0001
1000
0000
,  // measure 41
1001
0000
0000
0000
;

//---------------dance-single - ----------------
#NOTES:
     dance-single:
     :
     Challenge:
     14:
     0.502405,0.582586,0.035524,0.189459,0.580218,297.000000,294.000000,3.000000,16.000000,0.000000,0.000000,0.502405,0.582586,0.035524,0.189459,0.580218,297.000000,294.000000,3.000000,16.000000,0.000000,0.000000:
0000
0000
0000
0000
,
0000
0000
0000
0000
,
0000
0000
0000
0000
,
0000
0000
0000
0000
,
0000
0000
0000
0000
,
2000
0000
3200
0000
,
0302
0000
0023
0000
,
0230
0000
0302
0000
,
2003
0000
3200
0300
,
0010
0000
0000
0001
0000
0000
1000
0000
0000
0010
0000
0000
0100
0000
0000
0000
,
0010
0000
0000
1000
0000
0000
0001
0000
0000
1000
0000
0000
0100
0000
0000
0000
,
0010
0000
0000
0001
0000
0000
0100
0000
0000
0010
0000
0000
1000
0000
0000
0000
,
0001
0000
0000
0010
0000
0000
0100
0000
0000
1000
0000
0000
0100
0000
0000
0000
,
0010
0000
0000
0100
0000
0000
1000
0000
0000
0001
0000
0000
0100
0000
0000
0000
,
0010
0000
0000
0100
0000
0000
0001
0000
0000
1000
0000
0000
0100
0000
0000
0000
,
0100
0000
0000
1000
0000
0000
0001
0000
0000
1000
0000
0000
0010
0000
0000
0000
,
0100
0000
0000
0001
0000
0000
1000
0000
0000
0001
0000
0000
0010
0000
0000
0000
,
0100
0000
1000
0000
0001
0100
0001
0000
0100
0000
0010
0100
0000
0100
0010
0000
,
1000
0000
0100
0000
1000
0100
1000
0000
0100
0000
0010
0100
0000
0100
0010
0000
,
0001
0000
1000
0000
0010
1000
0010
0000
1000
0000
0010
0100
0000
0100
0001
0000
,
0100
0000
0001
0000
0010
0001
0010
0000
0100
0000
0010
0100
0000
0100
1000
0000
,
0100
0000
0010
0001
0010
0000
0001
0000
0100
0000
0001
0100
0001
0000
0100
0000
,
0010
0000
1000
0010
1000
0000
0010
0000
1000
0000
0100
1000
0100
0000
0010
0000
,
0001
0100
0010
0000
1000
0100
0010
0000
0001
0010
0100
0000
1000
0010
0100
0000
,
0001
0000
1000
0000
0010
0000
0100
0001
0000
0001
0000
0001
1000
0000
0101
0000
,
0001
0000
1000
0000
0001
0010
0001
0010
0100
0000
1000
0000
0010
1000
0010
1000
,
0001
0000
0100
0000
0010
0000
1000
0100
0000
0100
0000
0010
0002
0000
0000
0000
,
1003
0000
0001
0000
1000
0010
1000
0010
0100
0000
0001
0000
0010
0001
0010
0001
,
1000
0000
0100
0000
0010
0000
0001
0100
0000
0100
0000
0010
1000
0001
1000
0001
,
0010
0000
0100
0000
1000
0100
1000
0100
0010
0000
0001
0000
0100
0001
0100
0001
,
1000
0000
0010
0000
0100
0000
0001
0010
0000
0010
0000
0100
2000
0000
0000
0000
,
3100
0000
0010
0000
0001
0100
0001
0100
0010
0000
1000
0000
0100
1000
0100
1000
,
0002
0000
0000
0203
0000
0000
0320
0000
0000
2030
0000
0000
3001
0000
1100
0000
,
0100
0000
0010
0000
0001
0100
0010
1000
0010
0000
0100
0000
0001
1000
0100
0010
,
0001
0000
1000
0000
0100
0000
0010
0001
0000
1000
0000
0010
0200
0000
0000
0000
,
0310
0000
1000
0000
0001
0010
0100
1000
0001
0000
0100
0000
0010
1000
0100
0010
,
0001
0000
1000
0000
0100
0000
0010
0001
0000
1000
0000
0010
0100
0001
1000
0001
,
0010
0000
0100
0000
1000
0100
0010
0001
0010
0000
0100
0000
1000
0001
0100
0010
,
1000
0000
0001
0000
1000
0000
0100
0010
0000
0001
0000
1000
0020
0000
0000
0000
,
0130
0000
0010
0000
1000
0010
0100
0001
0010
0000
0100
0000
0010
0001
0100
0010
,
1000
0000
0001
0000
0010
0000
0100
1000
0000
0001
0000
0100
0010
0000
0000
0000
,
0110
0000
0000
0000
;

//---------------dance-single - ----------------
#NOTES:
     dance-single:
     :
     Medium:
     8:
     0.282497,0.364116,0.011841,0.106571,0.000000,167.000000,166.000000,1.000000,9.000000,0.000000,0.000000,0.282497,0.364116,0.011841,0.106571,0.000000,167.000000,166.000000,1.000000,9.000000,0.000000,0.000000:
0000
0000
0000
0000
,
0000
0000
0000
0000
,
0000
0000
0000
0000
,
0000
0000
0000
0000
,
0000
0000
0000
0000
,
1000
0000
0001
0000
,
0100
0000
0010
0000
,
1000
0000
0001
0000
,
1000
0000
0001
0000
,
0010
0010
0010
0000
,
0100
0100
0100
0000
,
0010
0010
0010
0000
,
0100
0100
0100
0000
,
1000
1000
1000
0000
,
0001
0001
0001
0000
,
1000
1000
1000
0000
,
0001
0001
0001
0000
,
0100
0010
0100
0000
0010
0000
1000
0000
,
0001
0010
0001
0000
0010
0000
0100
0000
,
1000
0100
1000
0000
0001
0000
1000
0000
,
0010
0100
0010
0000
0100
0000
0001
0000
,
0010
0001
0010
0000
0001
0010
0001
0000
,
1000
0010
1000
0000
0010
1000
0010
0000
,
0100
0010
0100
0010
0100
0010
0100
0010
,
0200
0000
0000
0300
,
0001
0010
0100
0000
1000
0100
0010
0000
,
0001
0010
0001
0000
1000
1000
2000
0000
,
3001
0100
0010
0000
1000
0010
0100
0000
,
0001
0100
0001
0000
0100
0100
0200
0000
,
0310
1000
0100
0000
0010
0001
0100
0000
,
0010
1000
0010
0000
1000
0001
2000
0000
,
3100
0010
0001
0000
0100
0010
1000
0000
,
0200
0000
0000
0310
,
1000
0100
0010
0000
0001
0010
0100
0000
,
1000
0010
1000
0000
0001
0001
0002
0000
,
0103
0010
1000
0000
0010
0100
0001
0000
,
1000
0100
1000
0000
0100
0100
0200
0000
,
0310
0001
0100
0000
0010
1000
0100
0000
,
1000
0100
1000
0000
0001
1000
0002
0000
,
0103
0010
1000
0000
0100
0010
0001
0000
,
1000
0001
1000
0001
2000
0000
3001
0000
,
1001
0000
0000
0000
;

//---------------dance-single - ----------------
#NOTES:
     dance-single:
     :
     Easy:
     5:
     0.202992,0.242744,0.035524,0.153935,0.000000,120.000000,117.000000,3.000000,13.000000,0.000000,0.000000,0.202992,0.242744,0.035524,0.153935,0.000000,120.000000,117.000000,3.000000,13.000000,0.000000,0.000000:
0000
0000
0000
0000
,
0000
0000
0000
0000
,
0000
0000
0000
0000
,
0000
0000
0000
0000
,
0000
0000
0000
0000
,
1000
0000
1000
0000
,
1000
0000
0000
0000
,
0001
0000
0001
0000
,
0001
0000
0000
0000
,
0100
0100
0100
0000
,
0010
0010
0010
0000
,
1000
1000
1000
0000
,
0001
0001
0001
0000
,
0010
0010
0010
0000
,
0100
0100
0100
0000
,
1000
1000
1000
0000
,
0001
0001
0001
0000
,
0200
0000
0310
0010
,
2000
0000
3001
0001
,
0020
0000
0130
0100
,
2000
0000
3001
0001
,
0100
0010
1000
0001
,
1000
0100
0010
0001
,
1000
1000
0001
0001
,
2002
0000
0000
3003
,
1000
0100
0010
0001
,
1000
0100
0010
0020
,
0031
0100
0010
1000
,
0001
0100
0020
2030
,
3001
0010
0100
1000
,
0001
0010
0100
0200
,
1300
0010
0100
0001
,
2002
0000
0000
3003
,
1000
1000
0001
0001
,
0100
0010
1000
0002
,
0013
0010
0100
0100
,
1000
0100
0010
0001
,
0100
0100
0001
0001
,
0010
0100
1000
0100
,
1000
1000
0010
0010
,
0100
0001
1000
0001
,
1001
0000
0000
0000
;

//---------------dance-single - ----------------
#NOTES:
     dance-single:
     :
     Beginner:
     2:
     0.118412,0.169921,0.000000,0.118412,0.000000,70.000000,70.000000,0.000000,10.000000,0.000000,0.000000,0.118412,0.169921,0.000000,0.118412,0.000000,70.000000,70.000000,0.000000,10.000000,0.000000,0.000000:
0000
0000
0000
0000
,
0000
0000
0000
0000
,
0000
0000
0000
0000
,
0000
0000
0000
0000
,
0000
0000
0000
0000
,
0000
0000
0000
0000
,
0000
0000
0000
0000
,
0000
0000
0000
0000
,
0000
0000
0000
0000
,
1000
0000
1000
0000
,
1000
0000
0100
0000
,
0001
0000
0001
0000
,
0001
0000
0100
0000
,
0010
0000
0010
0000
,
0010
0000
0100
0000
,
0001
0000
1000
0000
,
0001
0000
1000
0000
,
0200
0000
0000
0300
,
0200
0000
0000
0300
,
0020
0000
0000
0030
,
0020
0000
0000
0030
,
0002
0003
0002
0003
,
2000
3000
2000
3000
,
0010
0010
0010
0010
,
0200
0000
0000
0300
,
0001
0000
1000
0000
,
0001
0001
0001
0000
,
1000
0000
0001
0000
,
1000
1000
1000
0000
,
0010
0000
0100
0000
,
0010
0010
0010
0000
,
0100
0000
0010
0000
,
0200
0000
0000
0300
,
0001
0000
0100
0000
,
0010
0000
1000
1000
,
0001
0000
0010
0000
,
0100
0100
1000
1000
,
1000
0000
0100
0000
,
0010
0000
0001
0001
,
1000
0000
0010
0000
,
0100
0100
0001
0001
,
1000
0000
0000
0000
;
