#VERSION:0.83;
#TITLE:祝福の色彩は想い結ぶ君たち迄;
#SUBTITLE:;
#ARTIST:Yu-dachi;
#TITLETRANSLIT:Shukufuku no shikisai wa omoi musubu kimitachi made;
#SUBTITLETRANSLIT:;
#ARTISTTRANSLIT:;
#GENRE:;
#ORIGIN:;
#CREDIT:;
#BANNER:Shukufuku no shikisai wa omoi musubu kimitachi made.png;
#BACKGROUND:Shukufuku no shikisai wa omoi musubu kimitachi made-bg.png;
#PREVIEWVID:;
#JACKET:Shukufuku no shikisai wa omoi musubu kimitachi made-jacket.png;
#CDIMAGE:;
#DISCIMAGE:;
#LYRICSPATH:;
#CDTITLE:;
#MUSIC:Shukufuku no shikisai wa omoi musubu kimitachi made.ogg;
#OFFSET:-0.343184;
#SAMPLESTART:65.515610;
#SAMPLELENGTH:15.000000;
#SELECTABLE:YES;
#BPMS:0.000=235.000,
313.000=230.000,
315.000=210.000,
317.000=165.000,
319.000=120.000,
341.000=60.000,
342.000=190.000,
342.500=95.000,
342.750=47.500,
343.000=95.000,
344.000=180.000,
347.000=200.000,
351.000=230.000,
356.000=235.000,
414.000=65.000,
414.250=130.000,
414.500=260.000,
415.000=235.000;
#STOPS:;
#DELAYS:;
#WARPS:;
#TIMESIGNATURES:0.000=4=4;
#TICKCOUNTS:0.000=4;
#COMBOS:0.000=1;
#SPEEDS:0.000=0.150=0.000=0,
12.000=1.000=8.000=0,
415.000=1.500=15.000=0;
#SCROLLS:0.000=1.000;
#FAKES:;
#LABELS:0.000=Song Start;
#BGCHANGES:;
#KEYSOUNDS:;
#ATTACKS: TIME=1.63:LEN=0.43:MODS=*2 30% confusion: TIME=2.82:LEN=0.43:MODS=*3 50% confusion: TIME=4.10:LEN=0.51:MODS=*0.5 5% confusion;

//---------------dance-single - ----------------
#NOTEDATA:;
#CHARTNAME:;
#STEPSTYPE:dance-single;
#DESCRIPTION:;
#CHARTSTYLE:;
#DIFFICULTY:Hard;
#METER:16;
#RADARVALUES:0.770094,0.944280,0.343194,0.611053,0.401788,644.000000,603.000000,41.000000,73.000000,0.000000,0.000000,0.000000,0.000000,0.000000,0.770094,0.944280,0.343194,0.611053,0.401788,644.000000,603.000000,41.000000,73.000000,0.000000,0.000000,0.000000,0.000000,0.000000;
#CREDIT:;
#NOTES:
// measure 0
0000
0000
0000
0000
,  // measure 1
0000
0000
0000
0000
,  // measure 2
0000
0000
0000
0000
,  // measure 3
0000
0000
0000
0000
,  // measure 4
0000
0000
0000
0000
,  // measure 5
1000
0001
0010
0000
0001
1000
0100
0010
,  // measure 6
0000
0010
0001
1000
0001
0100
0010
1000
,  // measure 7
0001
0000
0100
0010
0000
0100
0001
0000
,  // measure 8
0000
0001
0100
0010
1000
0001
0010
0100
,  // measure 9
1000
0100
0010
0001
0100
0010
1000
0100
,  // measure 10
0010
0100
1000
0010
0100
0010
0100
0001
,  // measure 11
2000
0100
0001
3010
,  // measure 12
0001
0000
0010
0001
0000
1000
0010
0000
0010
1000
0001
0100
,  // measure 13
0001
0000
0000
0101
0000
0000
1001
0000
0000
0001
0100
0001
,  // measure 14
1000
0000
0000
1000
0100
1000
0001
0000
0001
0010
0000
0010
,  // measure 15
0100
0000
0000
1100
0000
0000
1001
0000
0000
1000
0100
0010
,  // measure 16
0001
0000
0000
0001
0100
0010
1000
0000
1001
0000
0001
0000
,  // measure 17
1000
0000
0000
0110
0000
0000
0001
0000
1000
0020
0000
0000
,  // measure 18
1030
0000
0020
0000
0100
0000
1030
0000
0002
0000
0010
0000
,  // measure 19
1003
0000
1000
0100
0000
0000
0010
0000
0010
0001
0000
0000
,  // measure 20
1000
0000
1000
0001
0000
0001
1000
0010
0100
0001
0000
0000
,  // measure 21
1002
0100
1003
2001
,  // measure 22
0100
0100
3000
0100
0020
0000
0032
0000
,  // measure 23
0203
0320
1000
1030
,  // measure 24
0002
0000
1003
0001
0010
0100
0010
0000
,  // measure 25
1100
0101
0100
1010
,  // measure 26
0011
0002
2003
3200
,  // measure 27
1300
0100
0010
0100
1000
0001
0100
0010
,  // measure 28
0001
1000
0100
0001
0010
0000
0010
0100
,  // measure 29
0000
0000
0010
0000
0001
0000
1000
0000
0001
0000
0100
0000
0010
0100
0010
0000
,  // measure 30
1000
0000
0000
1000
0001
1000
0010
0000
0100
0010
0000
0000
,  // measure 31
0101
1010
1001
0110
,  // measure 32
1001
0000
1000
0100
0010
0001
0010
0100
,  // measure 33
0100
0000
0000
1000
0000
0000
0001
0000
0000
1000
0000
0000
0100
0000
0000
1000
0000
0000
0001
0000
1000
0000
0001
0000
,  // measure 34
1000
0000
0000
0000
0001
0000
0010
0000
0000
0001
0000
0000
0010
0000
0000
0100
0000
0000
0010
0000
0000
0001
0000
0000
,  // measure 35
1000
0000
0001
0000
1000
0000
0001
0000
0000
0000
1000
0000
0010
0000
0000
1000
0000
0000
0001
0000
0000
1000
0000
0000
,  // measure 36
0001
0000
0000
0100
0000
0000
0010
0000
0100
0000
0010
0000
0100
0000
0000
0000
0100
0000
0001
0000
0000
0010
0000
0000
,  // measure 37
0001
0000
1000
0000
0100
0000
1000
0000
0100
0010
0100
0000
0010
0000
0001
0000
,  // measure 38
2000
0000
0001
0001
0000
0100
0100
0000
,  // measure 39
3002
0000
0203
0000
1000
1000
0000
0010
,  // measure 40
0010
0000
0302
0000
0023
0000
0100
0100
,  // measure 41
0000
1000
1000
0000
0230
0000
2300
0000
,  // measure 42
0000
0000
0000
0000
,  // measure 43
3001
0000
0000
0000
,  // measure 44
0000
0000
0000
0000
,  // measure 45
0000
0000
0000
0000
,  // measure 46
0000
0000
0000
0000
,  // measure 47
1000
0101
1010
0101
,  // measure 48
1001
0000
1100
0000
0011
0000
0010
0001
,  // measure 49
1000
0100
1000
0010
1000
0001
0100
0001
,  // measure 50
0020
0000
0000
0030
,  // measure 51
0002
0000
0003
0001
0100
0010
0100
0001
,  // measure 52
0020
0000
0000
0000
0000
0000
0031
0000
0000
0000
1000
0001
1000
0000
0001
0000
,  // measure 53
0010
0000
0010
0100
1000
0001
0200
0000
,  // measure 54
0310
0000
0000
0000
0110
0000
0000
0000
0010
1000
0010
0000
1000
0000
0001
0000
,  // measure 55
0020
0000
0130
2000
0001
0000
3100
0000
,  // measure 56
0002
0000
0010
0000
1003
0000
0001
1000
,  // measure 57
0200
0000
1300
0001
0010
0001
1000
0010
,  // measure 58
0010
0100
0001
0100
0010
1000
0001
0010
,  // measure 59
0100
1000
0001
1000
0001
1000
0010
0100
,  // measure 60
0010
0100
0010
0100
0010
1000
0001
0000
0000
0101
0000
0000
,  // measure 61
0110
0000
0010
1000
1001
0000
1100
0000
,  // measure 62
0001
1000
0001
1000
0001
1000
0100
0010
0100
1000
0100
0010
,  // measure 63
0002
0023
0130
2001
,  // measure 64
3100
1000
0100
0010
0001
1000
0000
1000
,  // measure 65
0001
0100
0010
1000
0001
0100
0001
0000
,  // measure 66
0001
0010
0000
0010
1000
0000
1000
0010
,  // measure 67
0001
0100
0010
0000
0100
0010
1000
0001
,  // measure 68
0001
1000
1000
0100
0100
1000
0001
0010
,  // measure 69
0000
0000
0110
0000
0000
0000
0010
0000
0001
0000
1000
0000
0010
1000
0010
0000
,  // measure 70
0000
0000
1000
0001
1000
0000
0000
0000
0100
1000
0100
0000
0000
0000
0010
0001
,  // measure 71
0010
0002
2003
3020
,  // measure 72
0000
0000
0000
0000
,  // measure 73
0000
0000
0030
0100
0010
0100
0001
0000
,  // measure 74
0001
0000
0000
0100
0000
0000
0010
0000
0000
1000
0000
0000
0100
0000
0000
0000
0000
0000
1000
0000
0100
0000
1000
0000
,  // measure 75
0001
0000
0000
0000
0000
0000
0001
0000
0100
0000
0001
0000
1000
0000
0000
0000
0100
0000
0010
0000
0000
0001
0000
0000
,  // measure 76
0010
0100
0020
0000
0032
0000
1003
0001
,  // measure 77
1000
0000
0001
0000
1000
0010
1000
0000
0001
0100
0001
0000
1000
0000
0000
0000
,  // measure 78
0001
1000
0001
0020
0000
0000
0032
0000
0000
2003
0000
0000
,  // measure 79
3020
0230
0302
2003
,  // measure 80
0000
3020
0230
0000
0320
0000
0000
0000
,  // measure 81
2030
3002
0000
0023
,  // measure 82
0230
0000
0300
0200
,  // measure 83
0310
0100
2000
0000
3002
0000
0203
0000
,  // measure 84
0320
2030
0000
0000
0000
0000
3002
0000
,  // measure 85
0203
0000
0000
0000
0000
0000
0302
0000
0000
0003
0010
0001
,  // measure 86
2000
3002
2003
3200
,  // measure 87
0000
0000
0320
0000
0000
0032
0000
0000
,  // measure 88
0000
0000
2003
0000
0001
0000
3001
1000
,  // measure 89
0001
0000
0100
0000
0010
0000
1000
0000
0100
0000
0010
0000
0001
0010
0001
0000
,  // measure 90
0010
0001
0010
0000
0001
0010
0001
0010
0100
0000
1000
0000
0001
0000
1000
0000
,  // measure 91
0100
0010
0001
0010
0100
1000
0010
0100
,  // measure 92
0001
1000
0001
1000
0001
1000
0001
1000
0002
0000
0000
0000
0000
0000
0000
0000
,  // measure 93
0000
0000
0000
0000
0003
0000
0000
0000
0100
0010
0100
0010
0100
0010
0100
0010
,  // measure 94
0100
0000
1001
0000
0002
0000
0013
0001
,  // measure 95
0100
0000
0000
0001
0000
0000
2000
0000
0000
0000
0000
0000
3100
0000
0000
0000
1000
0000
0100
0000
0000
0000
0010
0000
,  // measure 96
0001
0000
0000
0000
1000
0000
0010
0000
0000
0000
0100
0000
0001
0000
0000
0000
0000
0000
0001
0000
0000
0100
0000
0000
,  // measure 97
0020
0000
2030
0000
3001
1000
0010
0100
,  // measure 98
0010
1000
0010
1000
0010
1000
0010
0000
1000
0000
0010
0000
0100
0000
0001
0000
,  // measure 99
0100
0010
1000
0000
1001
0000
0001
1000
,  // measure 100
0100
0010
0100
1000
0001
0000
1001
0000
,  // measure 101
1000
0000
0100
0000
0010
0000
0100
0000
0000
1000
0000
0000
0001
0000
0000
0000
0000
0000
0101
0000
0000
0000
0000
0000
,  // measure 102
1100
0000
0000
0000
0000
0000
0001
0000
0100
0000
0010
0000
0100
0000
0000
0001
0000
0000
1000
0000
0000
0000
0000
0000
,  // measure 103
1000
0100
0010
0002
0000
0000
1003
0000
,  // measure 104
0000
0000
1100
0000
0000
1001
0000
0000
,  // measure 105
0011
0000
1010
0000
0011
0000
0000
0110
,  // measure 106
0000
0000
0100
1000
0100
1000
0001
0100
,  // measure 107
0001
0000
0100
0000
0010
0100
0010
0100
0000
0000
0000
0000
0000
0000
0000
0000
;

//---------------dance-single - ----------------
#NOTEDATA:;
#CHARTNAME:;
#STEPSTYPE:dance-single;
#DESCRIPTION:;
#CHARTSTYLE:;
#DIFFICULTY:Medium;
#METER:11;
#RADARVALUES:0.507018,0.674093,0.251117,0.611053,0.075335,424.000000,394.000000,30.000000,73.000000,0.000000,0.000000,0.000000,0.000000,0.000000,0.507018,0.674093,0.251117,0.611053,0.075335,424.000000,394.000000,30.000000,73.000000,0.000000,0.000000,0.000000,0.000000,0.000000;
#CREDIT:;
#ATTACKS:TIME=1.63:LEN=0.43:MODS=*2 30% confusion:TIME=2.82:LEN=0.43:MODS=*3 50% confusion:TIME=4.10:LEN=0.51:MODS=*0.5 5% confusion;
#NOTES:
0000
0000
0000
0000
,
0000
0000
0000
0000
,
0000
0000
0000
0000
,
0000
0000
0000
0000
,
0000
0000
0000
0000
,
1000
0000
0100
1000
0000
0000
1000
0100
,
0000
0100
1000
0000
0001
0000
1000
0000
,
0001
0000
0001
0100
0000
0100
0001
0000
,
0000
2002
0000
0000
0000
0000
3003
0000
,
0101
0000
0000
1001
0000
0000
1100
0000
,
0000
1001
0000
0000
0001
0000
0100
0000
,
0020
0000
0000
0030
,
1000
0000
0000
0001
0000
0001
1000
0000
1000
0100
0000
0000
,
1000
0100
1000
0010
,
1000
0000
0000
0001
0000
0000
0100
0000
0100
0010
0000
0100
,
0001
0100
0001
0010
,
0001
0000
0000
1000
0000
0000
1000
0000
0010
0000
0100
0000
,
0001
0000
0000
1000
0000
0000
0100
0000
0010
0000
0000
0000
,
0100
0000
1000
0000
0001
0000
0100
0000
0001
0000
1000
0000
,
0010
0000
0000
1000
0000
0000
0001
0000
0000
0100
0000
0100
,
0001
0101
0110
2010
,
3001
1000
0001
0020
,
0031
1000
0000
1000
0100
0000
1000
0000
,
0010
0100
0101
0100
,
0010
0000
1000
0010
1000
0000
2010
0000
,
0001
3001
0012
1000
,
1003
0200
2300
3020
,
1030
0000
0001
1000
0001
0000
0200
0000
,
0310
1000
0000
1000
0001
0000
0001
0010
,
0000
0010
0100
0000
1000
0000
0001
0000
,
1000
0010
1000
0001
,
0101
0101
1000
1100
,
1100
0000
0100
0010
0100
0010
0001
0000
,
1000
0100
0000
2000
0000
0200
0000
0300
,
3000
0000
0001
0000
0100
0002
0000
0200
,
0000
0300
0003
0000
1000
0010
0000
2000
,
0000
0020
0000
0030
3000
0000
0001
0000
,
0010
0002
0000
0020
0000
0030
0003
0000
,
2000
0010
0000
0010
0000
0002
0000
0003
,
3000
0000
0002
0000
1000
1000
0000
0200
,
0000
0300
0003
0000
0020
0100
0000
0100
,
0000
0200
0000
0300
0030
0000
2002
0000
,
0000
0000
0000
3003
,
0110
0000
0000
0000
,
0000
0000
0000
0000
,
0000
0000
0000
0000
,
0000
0000
0000
0000
,
2000
3002
0203
0302
,
0023
0000
0230
0000
0320
0000
0031
1000
,
0001
0101
1100
0101
,
0220
0000
0000
0330
,
0001
0000
0200
0010
0000
0000
0001
0000
,
0000
0310
0000
0000
0001
0000
1000
0000
,
0001
0000
0020
0100
0000
0000
0001
0000
,
0000
0130
0000
0000
0001
0000
1000
0000
,
0010
1000
0001
0100
,
0001
0000
0010
0000
0100
0000
1000
0100
,
2000
0000
3001
0000
1000
0100
1000
0001
,
1000
0000
0001
0000
0100
0000
0010
0100
,
0010
0100
0001
0000
1000
0000
0100
0010
,
0100
0000
1000
0001
0020
0000
0100
0000
,
1000
0001
1000
0130
,
0001
0000
1000
0001
0000
0100
0010
0000
0010
0100
0000
0001
,
2000
3002
0103
0001
,
1000
0000
0100
1000
0001
0020
0000
0000
,
0031
0000
0010
0001
1000
0000
0010
0000
,
1000
0010
0000
0010
1000
0000
0001
0010
,
0000
0010
0100
0000
0010
0000
0001
0000
,
0010
1000
0010
0001
,
0100
1000
0100
0001
,
0000
0101
0000
0000
1001
0000
0000
1100
,
0000
0110
0011
2000
,
0000
0000
0000
0000
,
0000
3000
0000
1000
0100
0000
1000
0000
,
0001
0000
0100
0001
0010
0000
0001
0000
,
0001
1000
1000
0001
,
0100
1000
0100
0001
,
0010
1000
0010
0002
,
0000
0023
0000
0230
,
0000
2300
0000
3002
,
0000
0203
0302
0000
2003
0000
0000
0000
,
3020
0230
0000
0000
,
0302
0000
0000
2003
,
3200
0320
0230
2300
,
3002
0023
0000
0000
0000
0000
0032
0000
,
0203
0000
0000
0000
0000
0000
0310
0000
0000
0000
0100
0010
,
1000
0001
0100
0002
,
0000
0000
2003
0000
0000
3200
0000
0000
,
0000
0320
0000
0000
,
0031
0000
1000
0000
0001
0000
0100
0010
,
0100
0010
0100
0000
0001
0000
0010
0000
,
0100
0010
0001
0100
,
0010
0100
0010
0000
2000
0000
0000
0000
,
0000
0000
0000
0000
3001
0100
0001
1000
,
0001
0010
0001
0000
1000
0000
0001
0000
,
0010
0100
1000
0000
0010
0000
1000
0000
,
0001
0100
0001
0101
,
1000
0000
1100
0000
0100
0000
1000
0001
,
0010
0001
0010
0001
1000
0000
1000
0100
,
0000
0100
1000
0000
0001
0000
0001
0000
,
0100
0001
0000
0001
0100
0000
0010
0000
,
1000
0010
1000
0000
0010
0000
0110
0000
,
1001
0000
0001
0010
0001
0000
0010
0000
,
0001
0010
0100
2000
0000
0000
3001
0000
,
0000
0000
0100
0000
0000
0010
0000
0000
,
1000
0000
0001
0000
1000
0000
0000
0100
,
0000
0020
0032
2003
,
3010
1000
0100
0001
0000
0000
0000
0000
;

//---------------dance-single - ----------------
#NOTEDATA:;
#CHARTNAME:;
#STEPSTYPE:dance-single;
#DESCRIPTION:;
#CHARTSTYLE:;
#DIFFICULTY:Easy;
#METER:8;
#RADARVALUES:0.386243,0.584214,0.050223,0.309712,0.025112,323.000000,317.000000,6.000000,37.000000,0.000000,0.000000,0.000000,0.000000,0.000000,0.386243,0.584214,0.050223,0.309712,0.025112,323.000000,317.000000,6.000000,37.000000,0.000000,0.000000,0.000000,0.000000,0.000000;
#CREDIT:;
#ATTACKS:TIME=1.63:LEN=0.43:MODS=*2 30% confusion:TIME=2.82:LEN=0.43:MODS=*3 50% confusion:TIME=4.10:LEN=0.51:MODS=*0.5 5% confusion;
#NOTES:
0000
0000
0000
0000
,
0000
0000
0000
0000
,
0000
0000
0000
0000
,
0000
0000
0000
0000
,
0000
0000
0000
0000
,
1000
0000
1000
0000
,
0001
0100
0001
0000
,
1000
0000
0001
0000
,
0000
1000
0100
0010
,
0001
0000
0000
0001
0000
0000
1000
0000
,
0000
1000
0000
0000
0010
0000
0100
0000
,
0001
0100
0010
1000
,
0001
0010
0200
0300
,
1000
1000
0100
0100
,
0010
0010
0100
0100
,
1000
0001
0100
0001
,
1000
0100
2000
3000
,
0001
0000
0000
0001
0000
0000
0100
0000
0010
0000
0100
0000
,
0002
0003
2000
3000
,
0100
0010
0100
0010
,
0001
1000
0001
1000
,
0020
0030
1000
0002
,
0003
1000
0100
0010
,
0001
0200
0300
0001
,
1000
0001
0100
0010
,
0010
0010
1000
1000
,
1000
0001
0010
0100
,
0020
0030
0001
0010
,
0100
1000
0010
0100
,
0010
2000
0000
3000
,
0001
0010
0001
0100
,
0001
0001
1000
0100
,
0100
0000
0010
0000
0010
0100
0010
0000
,
0001
0010
0001
0100
,
0001
1000
0100
1000
,
0010
1000
0001
0010
,
0100
1000
0001
1000
,
0010
0100
0001
1000
,
0001
0100
0001
0100
,
0010
1000
0100
1000
,
0100
0010
0001
0010
,
0001
0010
0100
2000
,
0000
0000
0000
3000
,
1001
0000
0000
0000
,
0000
0000
0000
0000
,
0000
0000
0000
0000
,
0000
0000
0000
0000
,
0001
0100
1000
0100
,
0001
1000
0100
0010
,
0001
1000
0001
1000
,
0100
0100
0200
0300
,
1000
0000
0000
0100
0000
0000
0010
0000
,
0000
0100
0000
0000
1000
0000
1000
0000
,
0001
0000
0000
0100
0000
0000
0010
0000
,
0000
0100
0000
0000
0001
0000
1000
0000
,
0010
0100
0001
1000
,
0100
0010
0002
0003
,
1000
0010
1000
0001
,
0100
0001
0010
0001
,
1000
0100
1000
0001
,
0100
0010
2000
0001
,
0001
0001
0001
3001
,
1000
0000
0001
1000
0000
0001
1000
0000
0001
1000
0000
0001
,
2000
0000
3000
0001
,
0100
0001
0100
0010
,
0100
0010
0100
0010
,
1000
0010
1000
0001
,
1000
0002
0003
1000
,
1000
0001
0001
0100
,
0100
0010
0100
0001
,
0000
0001
0000
0000
1000
0000
0000
1000
,
0000
0001
0010
0200
,
0000
0000
0000
0000
,
0000
0000
0300
1000
,
0100
1000
0001
0010
,
0001
0100
0010
1000
,
1000
0001
1000
0100
,
0010
0100
0010
0002
,
0000
0000
0003
2000
,
0000
0000
3000
0002
,
0000
0003
0200
0000
,
0300
0020
0000
0030
,
2000
0000
3000
2000
,
0000
0000
3000
0000
0200
0000
0000
0300
,
0000
0020
0000
0000
0000
0000
0030
0000
,
0002
0000
0000
0000
0000
0000
2003
0000
0000
0000
3000
0000
,
0020
0000
0030
0200
,
0000
0000
0000
0300
0000
0002
0000
0000
,
0000
0000
0000
0000
0003
0000
1000
0001
,
1000
0001
0001
0110
,
0110
0110
0001
0100
,
0100
0010
1000
0100
,
0100
0010
1001
0000
,
0000
0000
2002
0000
,
3003
0000
1000
0100
,
1000
0010
0100
0001
,
1000
0100
0010
0100
,
0010
0001
1000
1000
,
0020
0000
0000
0000
1030
0000
0000
1000
,
0000
0010
0100
0001
,
0000
0001
0000
0000
0100
0000
0010
0000
,
2000
0000
3000
0100
,
0010
0002
0000
0003
,
0100
0000
0010
0200
0000
0000
0302
0000
,
0000
0000
0103
0000
0000
0010
0000
0000
,
0100
0000
0010
0000
1000
0000
0000
0100
,
0000
0010
0100
0010
,
0001
0000
0001
1000
0000
0000
0000
0000
;

//---------------dance-single - ----------------
#NOTEDATA:;
#CHARTNAME:;
#STEPSTYPE:dance-single;
#DESCRIPTION:;
#CHARTSTYLE:;
#DIFFICULTY:Beginner;
#METER:4;
#RADARVALUES:0.163824,0.359517,0.083706,0.016741,0.000000,137.000000,127.000000,10.000000,2.000000,0.000000,0.000000,0.000000,0.000000,0.000000,0.163824,0.359517,0.083706,0.016741,0.000000,137.000000,127.000000,10.000000,2.000000,0.000000,0.000000,0.000000,0.000000,0.000000;
#CREDIT:;
#ATTACKS:TIME=1.63:LEN=0.43:MODS=*2 30% confusion:TIME=2.82:LEN=0.43:MODS=*3 50% confusion:TIME=4.10:LEN=0.51:MODS=*0.5 5% confusion;
#NOTES:
0000
0000
0000
0000
,
0000
0000
0000
0000
,
0000
0000
0000
0000
,
0000
0000
0000
0000
,
0000
0000
0000
0000
,
1000
0000
0000
0000
,
0000
0000
0000
0000
,
0001
0000
0000
0000
,
0000
0000
0000
0000
,
0010
0000
0000
0010
,
0000
0000
0010
0000
,
0001
0000
0000
0000
,
1000
0000
0000
0000
,
0001
0000
0000
0000
,
0001
0000
0000
0000
,
1000
0000
0000
0000
,
1000
0000
0000
0000
,
0001
0000
0000
0000
,
0001
0000
0000
0000
,
1000
0000
0000
0000
,
1000
0000
0000
0000
,
0001
0000
0000
0100
,
0000
0000
0001
0000
,
0000
0100
0000
0000
,
0001
0000
0000
0010
,
0000
0000
0001
0000
,
0000
0001
0000
0000
,
1000
0000
0000
0100
,
0000
0000
1000
0000
,
0000
0100
0000
0000
,
1000
0000
0000
0010
,
0000
0000
1000
0000
,
0000
1000
0000
0000
,
0001
0000
0000
0000
,
0000
0001
0000
0000
,
0000
0000
1000
0000
,
0000
0000
0000
1000
,
0000
0000
0000
0000
,
0100
0000
0000
0000
,
0000
0100
0000
0000
,
0000
0000
0010
0000
,
0000
0000
0000
0110
,
0000
0000
0000
0000
,
1001
0000
0000
0000
,
0000
0000
0000
0000
,
0000
0000
0000
0000
,
0000
0000
0000
0000
,
1000
0000
1000
0000
,
0001
0000
0001
0000
,
1000
0000
0001
0000
,
0110
0000
0000
0000
,
0001
0000
0000
0000
,
0001
0000
0100
0000
,
0010
0000
0000
0000
,
1000
0000
0100
0000
,
0010
0000
0000
0000
,
0100
0000
0000
0000
,
1000
0000
1000
0000
,
0000
0001
0000
0000
,
0000
0001
0000
0000
,
0000
0000
1001
0000
,
0000
0000
0000
0000
,
0010
0010
0010
0010
,
0010
0000
0000
1000
,
0000
0000
0000
0100
,
0000
0000
0000
1000
,
0000
0000
0000
0010
,
0000
0000
0000
0001
,
0000
0000
0000
0100
,
0000
0000
0000
0001
,
0000
0000
1000
0000
,
0000
0001
0000
0001
,
0000
0000
0000
0000
,
0000
0000
0000
1000
,
0000
0000
0000
0100
,
0000
0010
0000
0100
,
0000
0000
0000
1000
,
0000
0000
0000
0002
,
0000
0000
0000
0000
,
0000
0000
0003
1000
,
0000
0000
0010
0000
,
0000
0100
0000
0000
,
0001
0000
0000
1000
,
0000
0000
0100
0000
,
0000
0010
0000
0000
,
0001
0000
1001
0000
,
0000
0000
0000
1001
,
0000
0000
0000
0000
,
0000
0000
0000
0000
,
0110
0000
0000
0000
,
0000
0000
0000
0001
,
1000
0001
1000
0001
,
0010
0100
0010
0000
,
0000
0000
0110
0000
,
0000
0000
0001
0000
,
0001
0000
0100
0000
,
0001
0000
1000
0000
,
0100
0000
1000
0000
,
0010
0000
1000
0000
,
0000
1000
1000
0001
,
0000
0000
0001
0001
,
1000
0000
0000
0100
,
0010
0001
0000
0000
,
0100
0020
0030
0110
,
0000
0000
0000
0000
,
0000
0000
1001
0000
,
0000
0000
0000
0000
,
1000
0001
1000
0001
0000
0000
0000
0000
;
