#TITLE:Seventh Heaven (白龍Remix);
#SUBTITLE:;
#ARTIST:Ryu☆;
#TITLETRANSLIT:Seventh Heaven (HAKURYU Remix);
#SUBTITLETRANSLIT:;
#ARTISTTRANSLIT:;
#GENRE:;
#CREDIT:;
#MENUCOLOR:;
#METERTYPE:DDR;
#BANNER:Seventh Heaven (HAKURYU Remix).png;
#BACKGROUND:Seventh Heaven (HAKURYU Remix)-bg.png;
#LYRICSPATH:;
#CDTITLE:./CDTITLES/NONE.PNG;
#MUSIC:Seventh Heaven (HAKURYU Remix).ogg;
#OFFSET:0.000;
#SAMPLESTART:46.415;
#SAMPLELENGTH:15.000;
#SELECTABLE:YES;
#LISTSORT:;
#BPMS:0.000=212.000;
#STOPS:;
#BGCHANGES:;
#ATTACKS:;

//---------------dance-single - ----------------
#NOTES:
     dance-single:
     :
     Beginner:
     5:
     0.183,0.292,0.008,0.000,0.000: // measure 1
0000
0000
0000
0000
,  // measure 2
0000
0000
0000
0000
,  // measure 3
0000
0000
0000
0000
,  // measure 4
0000
0000
0000
0000
,  // measure 5
0000
0000
0000
0000
,  // measure 6
0000
0000
0000
0000
,  // measure 7
0000
0000
0000
0000
,  // measure 8
0000
0000
0000
0000
,  // measure 9
0000
0000
0000
0000
,  // measure 10
1000
0000
0000
1000
,  // measure 11
1000
0000
0000
0000
,  // measure 12
0001
0000
0000
0001
,  // measure 13
0001
0000
0000
0000
,  // measure 14
0100
0000
0000
0100
,  // measure 15
0100
0000
0000
0000
,  // measure 16
0010
0000
0000
0010
,  // measure 17
0010
0000
0000
0000
,  // measure 18
1000
0000
0000
0000
,  // measure 19
0100
0000
0000
0000
,  // measure 20
0010
0000
0000
0000
,  // measure 21
0001
0000
0000
0000
,  // measure 22
0010
0000
0000
0000
,  // measure 23
0100
0000
0000
0000
,  // measure 24
1000
0000
0000
0000
,  // measure 25
0001
0000
0000
0000
,  // measure 26
1000
0000
1000
0000
,  // measure 27
1000
0000
0000
0000
,  // measure 28
0001
0000
0001
0000
,  // measure 29
0001
0000
0000
0000
,  // measure 30
0100
0000
0100
0000
,  // measure 31
0100
0000
0000
0000
,  // measure 32
0010
0000
0010
0000
,  // measure 33
0010
0000
0000
0000
,  // measure 34
1000
0000
1000
0000
,  // measure 35
0000
1000
1000
0000
,  // measure 36
0001
0000
0001
0000
,  // measure 37
0000
0001
0001
0000
,  // measure 38
0010
0000
0010
0000
,  // measure 39
0000
0010
0010
0000
,  // measure 40
0100
0000
0100
0000
,  // measure 41
0000
0100
0100
0000
,  // measure 42
0010
0000
0010
0000
,  // measure 43
0001
0000
1000
0000
,  // measure 44
0010
0000
0010
0000
,  // measure 45
1000
0000
0001
0000
,  // measure 46
1000
1000
1000
0000
,  // measure 47
0100
0000
0010
0000
,  // measure 48
0001
0001
0001
0000
,  // measure 49
0100
0000
0010
0000
,  // measure 50
1000
0000
1000
0000
,  // measure 51
0001
0001
0001
0000
,  // measure 52
0010
0000
0010
0000
,  // measure 53
0100
0100
0100
0000
,  // measure 54
0010
0000
0010
0000
,  // measure 55
0001
0001
0001
0000
,  // measure 56
1000
0000
1000
0000
,  // measure 57
0010
0010
0010
0000
,  // measure 58
1000
0000
0000
0000
,  // measure 59
0000
0000
0000
0000
,  // measure 60
0100
0000
0000
0000
,  // measure 61
0000
0000
0000
0000
,  // measure 62
0001
0000
0000
0000
,  // measure 63
0000
0000
0000
0000
,  // measure 64
0010
0000
0000
0000
,  // measure 65
0000
0000
0000
0000
,  // measure 66
1000
0000
0000
0000
,  // measure 67
0001
0000
0000
0000
,  // measure 68
1000
0000
0000
0000
,  // measure 69
0000
0000
0000
0000
,  // measure 70
0010
0000
0000
0000
,  // measure 71
0100
0000
0000
0000
,  // measure 72
0010
0000
0000
0000
,  // measure 73
0000
0000
0000
0000
,  // measure 74
0000
0000
0000
0000
,  // measure 75
0000
0000
0000
0000
,  // measure 76
0100
0000
0100
0000
,  // measure 77
0100
0000
0000
0000
,  // measure 78
0010
0000
0010
0000
,  // measure 79
0010
0000
0000
0000
,  // measure 80
1000
0000
1000
0000
,  // measure 81
1000
0000
0000
0000
,  // measure 82
0001
0000
0001
0000
,  // measure 83
0001
0000
0000
0000
,  // measure 84
1000
0000
0000
0001
,  // measure 85
0001
0000
0000
1000
,  // measure 86
1000
0000
1000
0000
,  // measure 87
0010
0000
0000
0000
,  // measure 88
0100
0000
0100
0000
,  // measure 89
0000
0010
0010
0000
,  // measure 90
1000
0000
1000
0000
,  // measure 91
0000
0001
0001
0000
,  // measure 92
1000
0000
1000
0000
,  // measure 93
0000
0100
0100
0000
,  // measure 94
0010
0000
0010
0000
,  // measure 95
0000
0001
0001
0000
,  // measure 96
0010
0010
0010
0000
,  // measure 97
0001
0001
0001
0000
,  // measure 98
1000
1000
1000
0000
,  // measure 99
0010
0010
0010
0000
,  // measure 100
0100
0100
0100
0000
,  // measure 101
0010
0010
0010
0000
,  // measure 102
1000
1000
1000
0000
,  // measure 103
0001
0001
0001
0001
,  // measure 104
1001
0000
0000
0000
;

//---------------dance-single - ----------------
#NOTES:
     dance-single:
     :
     Easy:
     8:
     0.427,0.553,0.065,0.113,0.000: // measure 1
0000
0000
0000
0000
,  // measure 2
0000
0000
0000
0000
,  // measure 3
0000
0000
0000
0000
,  // measure 4
0000
0000
0000
0000
,  // measure 5
0000
0000
0000
0000
,  // measure 6
0000
0000
0000
0000
,  // measure 7
0000
0000
0000
0000
,  // measure 8
0000
0000
0000
0000
,  // measure 9
0000
0000
0000
0000
,  // measure 10
0001
0000
0000
0100
0000
0000
0010
0000
,  // measure 11
1000
0001
0010
0100
,  // measure 12
1000
0000
0000
0001
0000
0000
0100
0000
,  // measure 13
0001
0010
0100
1000
,  // measure 14
0010
0000
0000
0100
0000
0000
0001
0000
,  // measure 15
1000
0010
0100
0001
,  // measure 16
0100
0000
0000
0010
0000
0000
1000
0000
,  // measure 17
0001
0010
0100
1000
,  // measure 18
0001
0000
0010
0000
0001
0100
0001
0000
,  // measure 19
1000
0010
0100
0001
,  // measure 20
1000
0000
0010
0000
1000
0100
1000
0000
,  // measure 21
0001
0010
0100
1000
,  // measure 22
0010
0000
0100
0000
0001
1000
0001
0000
,  // measure 23
0100
0010
1000
0001
,  // measure 24
0100
0000
0010
0000
1000
0001
1000
0000
,  // measure 25
0001
0010
0100
0000
,  // measure 26
0010
0000
0001
0000
0100
0001
0100
0000
,  // measure 27
0001
0010
0100
1000
,  // measure 28
0010
0000
1000
0000
0100
1000
0100
0000
,  // measure 29
1000
0010
0100
0001
,  // measure 30
1000
0000
0001
0000
1000
0001
1000
0000
,  // measure 31
0010
0100
0001
1000
,  // measure 32
0010
0010
0100
0100
,  // measure 33
0001
0010
0100
1000
,  // measure 34
0020
1000
0000
1030
,  // measure 35
0100
0001
0010
0100
,  // measure 36
2000
0100
0000
3100
,  // measure 37
0001
0010
0100
1000
,  // measure 38
0002
0100
0000
0103
,  // measure 39
1000
0010
0100
0001
,  // measure 40
0020
0100
0000
0130
,  // measure 41
0002
0000
0000
0000
,  // measure 42
1003
0000
0100
0000
1000
0010
1000
0000
,  // measure 43
0001
0010
0100
1000
,  // measure 44
0001
0000
0010
0000
0001
0100
0001
0000
,  // measure 45
1000
0001
1000
0000
0001
0000
0100
0000
,  // measure 46
0010
0000
1000
0000
0001
0010
0001
0000
,  // measure 47
1000
0100
0010
0001
,  // measure 48
1000
0000
0010
0000
0100
0001
0100
0000
,  // measure 49
0001
1000
0010
0100
,  // measure 50
0010
0000
1000
0010
0000
0000
1000
0000
,  // measure 51
0001
0000
0010
0001
0000
0000
0010
0000
,  // measure 52
0001
0000
0100
0001
0000
0000
0100
0000
,  // measure 53
0010
0000
1000
0010
0000
0000
1000
0000
,  // measure 54
0100
0000
1000
0100
0000
1000
0100
0000
,  // measure 55
0010
0000
0001
0010
0000
0001
0010
0000
,  // measure 56
0001
0000
0100
0001
0000
0100
0001
0000
,  // measure 57
0100
0000
0010
1000
0000
0010
1000
0000
,  // measure 58
0002
0000
0000
0000
,  // measure 59
0000
0000
0000
0000
,  // measure 60
0023
0000
0000
0000
,  // measure 61
0000
0000
0000
0000
,  // measure 62
0230
0000
0000
0000
,  // measure 63
0000
0000
0000
0000
,  // measure 64
2300
0000
0000
0000
,  // measure 65
0000
0000
0000
0000
,  // measure 66
3001
0000
0100
0000
,  // measure 67
0010
0000
1000
0000
,  // measure 68
0001
0000
0010
0000
,  // measure 69
0100
0000
1000
0000
,  // measure 70
0001
0001
0010
0000
,  // measure 71
1000
1000
0010
0000
,  // measure 72
0001
0001
0100
0000
,  // measure 73
1000
1000
0100
0000
,  // measure 74
0002
0000
0000
0000
,  // measure 75
0000
0000
0000
0000
,  // measure 76
1003
0000
0100
0000
0000
1000
0001
0000
,  // measure 77
0000
1000
0010
0100
,  // measure 78
0001
0000
0010
0000
0000
0001
1000
0000
,  // measure 79
0001
0100
0010
1000
,  // measure 80
0010
0000
0100
0000
0000
0001
1000
0000
,  // measure 81
0100
0010
0100
1000
,  // measure 82
0010
0000
0100
0000
0000
0001
1000
0000
,  // measure 83
0010
0010
0010
0000
,  // measure 84
1001
0010
0010
0010
,  // measure 85
1001
0100
0100
0100
,  // measure 86
1000
1001
0001
1001
,  // measure 87
0220
0000
0000
0330
,  // measure 88
1000
0000
0010
0000
1000
0100
1000
0001
,  // measure 89
1000
0010
0100
0001
,  // measure 90
0010
0000
0001
0000
0100
0001
0100
0010
,  // measure 91
0100
0010
1000
0001
,  // measure 92
0100
0000
0001
0000
1000
0100
1000
0010
,  // measure 93
1000
0010
0100
0001
,  // measure 94
0010
0000
0100
0000
0010
0001
0010
0100
,  // measure 95
0010
0010
0010
0000
,  // measure 96
0001
0000
0100
0000
0001
0010
0001
1000
,  // measure 97
0001
0100
0010
1000
,  // measure 98
0100
0000
0010
0000
0100
1000
0100
0010
,  // measure 99
0100
1000
0010
0100
,  // measure 100
0010
0000
1000
0000
0001
0100
0001
0010
,  // measure 101
0001
1000
0100
0000
1000
0001
0100
0000
,  // measure 102
0010
0110
0001
1001
,  // measure 103
0010
0100
0010
0100
0010
0100
0010
0000
,  // measure 104
2002
0000
0000
0000
,  // measure 105
0000
0000
0000
0000
,  // measure 106
3003
0000
0000
0000
;

//---------------dance-single - ----------------
#NOTES:
     dance-single:
     :
     Medium:
     12:
     0.589,0.808,0.097,0.081,0.231: // measure 1
0000
0000
0000
0000
,  // measure 2
0000
0000
0000
0000
,  // measure 3
0000
0000
0000
0000
,  // measure 4
0000
0000
0000
0000
,  // measure 5
0000
0000
0000
0000
,  // measure 6
0000
0000
0000
0000
,  // measure 7
0000
0000
0000
0000
,  // measure 8
0000
0000
0000
0000
,  // measure 9
0000
0000
0000
0000
,  // measure 10
0010
0000
1000
0100
0010
0100
1000
0001
,  // measure 11
1000
0000
0001
0100
0010
0100
0001
1000
,  // measure 12
0001
0000
1000
0010
0100
0010
1000
0100
,  // measure 13
1000
0000
0001
0010
0100
0010
0001
0100
,  // measure 14
0001
0000
0100
0010
1000
0010
0100
0001
,  // measure 15
0100
0000
0010
1000
0100
1000
0010
1000
,  // measure 16
0001
0000
0010
0001
0100
0001
0010
0001
,  // measure 17
1000
0001
1000
1001
,  // measure 18
0100
0010
0100
0001
0000
0010
0100
1000
,  // measure 19
0100
0001
0100
1000
,  // measure 20
0010
0100
0010
1000
0000
0100
0010
0001
,  // measure 21
0010
1000
0010
0001
,  // measure 22
1000
0100
0010
0100
0000
1000
0001
0100
,  // measure 23
0001
0010
1000
0010
,  // measure 24
0001
0100
0010
0100
0000
0001
0010
0100
,  // measure 25
1000
0100
0001
0100
,  // measure 26
1000
0000
0010
0000
0100
0000
0000
0001
0000
0000
1000
0000
0010
0000
0000
0000
,  // measure 27
1000
0100
1000
0000
0001
0000
0100
0000
,  // measure 28
0001
0000
0010
0000
0100
0000
0000
1000
0000
0000
0001
0000
0100
0000
0000
0000
,  // measure 29
0001
0010
0001
0000
1000
0000
0010
0000
,  // measure 30
1000
0000
0100
0000
0001
0000
0000
0100
0000
0000
0010
0000
0001
0000
0000
0000
,  // measure 31
1000
0010
0100
0000
0001
0000
0010
0000
,  // measure 32
1001
0000
0000
0000
0010
0000
0000
0100
0000
0000
0010
0000
1000
0000
0000
0000
,  // measure 33
0001
0010
0100
0000
0010
0001
1000
0000
,  // measure 34
1001
0000
0100
0000
0000
0010
1000
0000
,  // measure 35
0001
0010
0100
0000
0010
0000
0001
0000
,  // measure 36
1000
0000
0100
0000
0000
0010
0001
0000
,  // measure 37
1000
0010
0100
0000
0010
0000
1000
0000
,  // measure 38
0001
0000
0100
0000
0000
0010
1000
0000
,  // measure 39
0010
0000
0100
0000
0001
1000
0010
0000
,  // measure 40
1000
0000
0100
0000
0000
0010
0100
0000
,  // measure 41
2000
0000
0000
0000
,  // measure 42
3001
0000
0100
0001
0000
0010
0001
0100
,  // measure 43
0010
1000
0001
0000
1000
0001
0100
0001
,  // measure 44
1000
0000
0100
1000
0000
0100
0010
0001
,  // measure 45
1000
0010
0010
0000
0100
0010
1000
0000
,  // measure 46
0010
0000
0100
0001
0000
0100
0010
1000
,  // measure 47
0001
0010
0100
0000
0010
0001
1000
0001
,  // measure 48
0100
0000
0010
1000
0000
0001
0010
0100
,  // measure 49
1000
0100
0100
0000
1000
0010
0100
0000
,  // measure 50
0010
0000
0000
1000
0000
0000
0010
0000
0000
0100
0000
0000
0001
0000
0010
0000
,  // measure 51
0100
0000
0000
0010
0000
0000
0001
0000
0000
0010
0000
0000
0001
0000
1000
0000
,  // measure 52
0010
0000
0000
0100
0000
0000
0001
0000
0000
0100
0000
0000
0010
0000
1000
0000
,  // measure 53
0100
0000
0000
0010
0000
0000
0100
0000
0000
1000
0000
0000
0001
0000
0100
0000
,  // measure 54
0010
0000
0000
1000
0000
0000
0010
0000
0000
0001
0000
0000
0010
0000
1000
0000
,  // measure 55
0100
0000
0000
0001
0000
0000
0100
0000
0000
1000
0000
0000
0100
0000
0010
0000
,  // measure 56
0001
0000
0000
0100
0000
0000
1000
0000
0000
0100
0000
0000
0001
0000
0010
0000
,  // measure 57
1000
0000
0000
0010
0000
0000
0001
0000
0000
0010
0000
0000
0100
0000
1000
0000
,  // measure 58
0002
0000
0000
0000
,  // measure 59
0000
0000
0000
0000
,  // measure 60
0203
0000
0000
0000
,  // measure 61
0000
0000
0000
0000
,  // measure 62
2300
0000
0000
0000
,  // measure 63
0000
0000
0000
0000
,  // measure 64
3020
0000
0000
0000
,  // measure 65
0000
0000
0000
0000
,  // measure 66
0130
0000
0010
0000
1000
0001
1000
0000
,  // measure 67
0001
0010
0100
0000
,  // measure 68
0010
0000
0100
0000
0010
0001
0010
0000
,  // measure 69
0001
1000
0010
0000
,  // measure 70
0100
0000
0010
0000
1000
0010
1000
0000
,  // measure 71
0010
0100
0001
0000
,  // measure 72
0010
0000
0100
0000
1000
0001
1000
0000
,  // measure 73
0010
0100
0001
0000
,  // measure 74
2000
0000
0000
0000
,  // measure 75
0000
0000
0000
0000
,  // measure 76
3001
0000
0100
0000
0001
0010
0100
0000
,  // measure 77
1000
0010
0100
0000
0010
1000
0001
0000
,  // measure 78
1000
0000
0100
0000
0010
0100
1000
0000
,  // measure 79
0001
0010
0010
0000
0001
1000
0100
0000
,  // measure 80
1000
0000
0010
0000
0100
0010
1000
0000
,  // measure 81
0010
0100
0001
0000
0100
0001
1000
0000
,  // measure 82
0001
0000
0010
0000
0100
0010
0001
0000
,  // measure 83
1000
0001
0001
0000
0100
0010
1000
0010
,  // measure 84
0100
0000
0110
0000
0001
0100
1000
0000
,  // measure 85
0010
0000
0110
0000
1000
0100
0001
0000
,  // measure 86
0100
0110
0001
1001
,  // measure 87
0220
0000
0000
0330
,  // measure 88
1010
0000
0000
0000
0001
0000
0000
0100
0000
0001
0000
0010
0001
0000
0000
0000
,  // measure 89
1000
0100
0010
0000
0100
1000
0001
0000
,  // measure 90
0100
0000
0000
0000
0010
0000
0000
1000
0000
0010
0000
0100
0010
0000
0000
0000
,  // measure 91
1000
0100
0100
0000
0010
0100
1000
0000
,  // measure 92
0001
0000
0000
0000
0100
0000
0000
0010
0000
0100
0000
0001
1000
0000
0000
0000
,  // measure 93
0001
0010
0100
0000
1000
0010
0100
0000
,  // measure 94
0010
0000
0000
0000
1000
0000
0000
0001
0000
0010
0000
0001
0100
0000
0000
0000
,  // measure 95
0010
0000
0100
0000
0100
0000
0000
0000
0001
0000
1000
0100
0000
1000
0000
0001
,  // measure 96
1000
0000
0100
0000
0010
0000
0001
1000
0000
0010
0000
1000
0001
0000
1000
0000
,  // measure 97
0001
0000
0010
0000
0100
0000
1000
0001
0000
0010
0000
0001
1000
0000
0001
0000
,  // measure 98
0100
0000
0010
0000
1000
0000
0010
0100
0000
0001
0000
1000
0100
0000
0010
0000
,  // measure 99
0100
0000
1000
0000
1000
0000
0001
0000
0100
0000
0010
0100
0000
0001
0000
1000
,  // measure 100
0100
0000
0000
0000
0110
0000
0000
0001
0000
1000
0000
0010
1000
0000
0001
0000
,  // measure 101
1000
0000
0000
0000
1001
0000
0000
1000
0000
0100
0000
0010
0100
0000
1000
0000
,  // measure 102
0001
0100
1000
0100
0001
0010
1000
0010
,  // measure 103
0001
1000
0001
1000
0001
0000
0000
0000
0100
0010
0100
0010
0100
0000
0000
0000
,  // measure 104
2020
0000
0000
0000
,  // measure 105
0000
0000
0000
0000
,  // measure 106
3030
0000
0000
0000
;

//---------------dance-single - ----------------
#NOTES:
     dance-single:
     :
     Hard:
     17:
     0.854,0.979,0.138,0.113,0.786: // measure 1
0000
0000
0000
0000
,  // measure 2
0000
0000
0000
0000
,  // measure 3
0000
0000
0000
0000
,  // measure 4
0000
0000
0000
0000
,  // measure 5
0000
0000
0000
0000
,  // measure 6
0000
0000
0000
0000
,  // measure 7
0000
0000
0000
0000
,  // measure 8
0000
0000
0000
0000
,  // measure 9
0000
0000
0000
0000
,  // measure 10
1001
0000
0000
0000
0010
0000
0000
0100
0000
0000
1000
0000
0100
0010
0001
0100
,  // measure 11
0010
0000
0000
0000
1000
0001
1000
0001
1000
0000
0001
0000
1000
0100
0010
0100
,  // measure 12
1000
0000
0000
0000
0010
0000
0000
0100
0000
0000
0001
0000
0100
0010
1000
0100
,  // measure 13
0010
0000
0000
0000
0001
1000
0001
1000
0001
0000
1000
0000
0001
0100
0010
0100
,  // measure 14
0001
0000
0000
0000
0010
0000
0000
0100
0000
0000
1000
0000
0001
0100
0010
1000
,  // measure 15
0001
0000
0000
0000
1000
0010
1000
0010
1000
0000
0001
0000
0100
0010
1000
0010
,  // measure 16
0100
0000
0000
0000
0001
0000
0000
0010
0000
0000
0100
0000
0010
0001
1000
0010
,  // measure 17
0100
0110
1001
1010
,  // measure 18
0010
0100
0001
1000
0010
0100
0001
1000
,  // measure 19
0010
0100
0001
1000
0002
0000
2003
0000
,  // measure 20
3100
0010
0001
1000
0100
0010
0001
1000
,  // measure 21
0100
0010
0001
1000
0020
0000
0230
0000
,  // measure 22
0310
0000
1000
0000
0100
0000
1000
0000
0010
0000
0100
0000
0001
0100
0000
0001
,  // measure 23
0010
0000
0001
0000
0100
0000
0001
1000
0100
0000
1000
0000
0001
0000
0000
0000
,  // measure 24
1000
0000
0100
0000
0010
0000
0100
0000
1000
0000
0010
0000
1000
0001
0000
1000
,  // measure 25
0100
0000
1000
0010
1000
0000
0010
0000
0100
0000
0001
0000
0010
0000
0000
0000
,  // measure 26
0001
0000
0100
0000
1000
0000
0100
0000
0001
0000
0010
0000
0001
1000
0000
0001
,  // measure 27
0100
0000
0001
0000
0010
0000
0100
1000
0100
0000
1000
0000
0010
0000
0100
0000
,  // measure 28
0001
0000
0010
0000
1000
0000
0010
0000
0001
0000
0100
0000
0001
0010
0000
0001
,  // measure 29
1000
0000
0100
0000
0010
0000
0001
0010
0001
0000
1000
0000
0010
0000
0100
0000
,  // measure 30
0010
0000
1000
0000
0100
0000
1000
0010
0000
1000
0001
0000
0100
0000
0001
0010
,  // measure 31
0100
0000
0010
0000
0001
0000
1000
0001
0100
0000
0001
0000
1000
0000
0000
0000
,  // measure 32
0010
0000
1000
0000
0100
0000
1000
0000
0010
0000
0100
0000
0001
0010
0100
1000
,  // measure 33
0001
0000
1000
0001
1000
0000
0001
0000
0100
0010
1000
0001
1000
0000
0000
0000
,  // measure 34
1001
0000
0100
0000
1000
0010
0100
0000
,  // measure 35
0001
0000
0010
0000
1000
0000
0000
0010
0000
0100
0000
1000
0001
0000
1000
0000
,  // measure 36
0001
0000
0100
0000
0001
0010
0100
0000
,  // measure 37
1000
0000
0010
0000
0001
0000
0010
0000
1000
0000
0100
1000
0000
0010
0000
0000
,  // measure 38
1000
0000
0010
0000
0100
0010
1000
0000
,  // measure 39
0001
0000
0100
0000
1000
0000
0000
0100
0000
0010
0000
1000
0001
0000
1000
0000
,  // measure 40
0001
0000
0010
0000
0100
0000
0010
0001
1000
0000
0001
0000
1000
0000
0010
0100
,  // measure 41
0002
0000
0000
0000
,  // measure 42
1003
0000
0100
0000
0010
0000
0100
1000
0010
0000
0100
0000
0001
0010
0100
0010
,  // measure 43
0001
0000
1000
0000
1000
0000
0001
0100
0000
0001
0000
0010
0001
0000
1000
0000
,  // measure 44
0001
0000
0100
0000
0010
0000
0100
0001
0010
0000
0001
0000
1000
0010
0100
0010
,  // measure 45
1000
0000
0001
0000
0001
0000
1000
0000
0100
0000
1000
0010
0000
1000
0000
0001
,  // measure 46
1000
0000
0100
0000
0001
0000
0100
0010
0001
0000
1000
0000
0010
0100
0001
0100
,  // measure 47
0010
0000
1000
0000
1000
0000
0001
0100
0000
0001
0000
0010
0100
0000
0010
0000
,  // measure 48
0001
0000
0100
0000
1000
0000
0100
0010
1000
0000
0001
0000
0010
0100
1000
0100
,  // measure 49
0010
0000
0001
0000
0001
0000
1000
0000
0010
0000
0100
0010
0000
0100
0000
0000
,  // measure 50
0010
0000
1000
0010
0000
1000
0100
0000
1000
0010
0000
1000
0100
0000
1000
0001
,  // measure 51
0100
0000
0001
0010
0000
0001
0100
0000
0001
0010
0000
0001
1000
0000
0010
0100
,  // measure 52
0001
0000
0100
0010
0000
1000
0010
0000
0100
0010
0000
1000
0010
0000
0100
0001
,  // measure 53
1000
0000
0100
0010
0000
0100
0001
0000
0100
0010
0000
0100
1000
0000
0001
0100
,  // measure 54
0010
0000
1000
0100
0000
0100
0010
0000
0010
0001
0000
0001
1000
0000
0001
0100
,  // measure 55
0001
0000
0010
0100
0000
0100
1000
0000
1000
0010
0000
0010
0100
0000
0010
1000
,  // measure 56
0001
0000
1000
0010
0000
0010
0100
0000
0100
0001
0000
0001
1000
0000
0001
0010
,  // measure 57
0100
0000
0010
1000
0000
0010
0100
0000
0010
0000
0000
0000
0110
0000
0000
0000
,  // measure 58
2000
0000
0000
0000
,  // measure 59
0100
0000
0000
0000
,  // measure 60
3020
0000
0000
0000
,  // measure 61
1000
0000
0000
0000
,  // measure 62
0032
0000
0000
0000
,  // measure 63
0010
0000
0000
0000
,  // measure 64
0203
0000
0000
0000
,  // measure 65
0010
0000
0000
0000
,  // measure 66
1300
0000
0100
0000
1000
0001
0100
0000
,  // measure 67
0001
0000
0010
0000
0001
1000
0100
0000
,  // measure 68
1000
0000
0010
0000
1000
0100
0001
0000
,  // measure 69
0100
0000
0010
0000
0001
0010
1000
0000
,  // measure 70
0010
0000
0001
0000
0100
0010
1000
0010
,  // measure 71
0100
0000
0001
0000
1000
0010
0100
0010
,  // measure 72
1000
0000
0100
0000
0010
0001
0100
0001
,  // measure 73
0010
0000
0001
0000
1000
0001
0100
0001
,  // measure 74
2000
0000
0000
0000
,  // measure 75
0000
0000
0000
0000
,  // measure 76
3001
0000
0000
0000
0100
0000
0000
0010
0000
1000
0000
0001
1000
0000
0001
0000
,  // measure 77
1000
0000
0100
0000
0010
0000
0000
0100
0000
1000
0000
0001
1000
0000
0001
0000
,  // measure 78
0100
0000
0000
0000
0010
0000
0000
1000
0000
0100
0000
0010
0100
0000
1000
0000
,  // measure 79
0001
0000
0100
0000
0100
0000
0001
0000
1000
0000
0001
0010
0000
0001
0000
0000
,  // measure 80
1000
0000
0000
0000
0010
0000
0000
0100
0000
0010
0000
1000
0001
0000
1000
0000
,  // measure 81
0001
0000
0010
0000
0100
0000
0000
0010
0000
0001
0000
1000
0001
0000
1000
0000
,  // measure 82
0010
0000
0000
0000
0100
0000
0000
0001
0000
0010
0000
0100
1000
0000
0001
0000
,  // measure 83
1000
0000
0010
0000
0010
0000
0001
0000
0010
0000
1000
0100
0000
1000
0000
0000
,  // measure 84
1001
0000
0000
0000
0010
0000
0000
1000
0000
0100
0000
1000
0001
0000
1000
0000
,  // measure 85
1001
0000
0000
0000
0010
0000
0000
0001
0000
0100
0000
0001
1000
0000
0100
0000
,  // measure 86
1100
0011
0110
1001
,  // measure 87
0220
0000
0000
0330
,  // measure 88
1000
0000
0010
0000
0100
0000
0010
1000
0000
0000
0001
0000
0100
0001
0010
0100
,  // measure 89
0010
0000
0001
0000
1000
0000
0001
0100
0000
0001
0000
0010
0001
1000
0001
0000
,  // measure 90
1000
0000
0100
0000
0010
0000
0100
1000
0000
0000
0001
0000
0100
0010
1000
0010
,  // measure 91
0100
0000
0010
0000
0010
0000
1000
0000
0001
0000
0010
0001
0000
1000
0000
0001
,  // measure 92
0100
0000
0001
0000
0010
0000
0100
0010
0000
0000
0001
0000
1000
0010
0100
0001
,  // measure 93
0100
0000
0010
0000
1000
0000
0001
0010
0000
0001
0000
1000
0100
1000
0001
0000
,  // measure 94
0101
0000
0000
0000
0010
0000
0000
1000
0000
0001
0000
1000
0100
0000
1000
0000
,  // measure 95
0001
0000
0010
0000
0100
0000
0010
0001
1000
0000
0001
1000
0100
0000
1000
0001
,  // measure 96
1000
0000
0100
0000
0001
0000
0100
0010
0000
0000
0001
0000
1000
0010
0100
0001
,  // measure 97
1000
0000
0001
0000
0001
0000
0010
0001
0000
1000
0000
0010
0001
0010
0100
0000
,  // measure 98
0001
0000
0010
0000
1000
0000
0010
0100
0000
0000
1000
0000
0001
0010
0100
1000
,  // measure 99
0001
0000
0100
0000
0100
0000
0010
0000
1000
0000
0100
0001
0000
0100
0000
0010
,  // measure 100
0001
0000
0100
0000
1000
0000
0100
0010
0000
0000
1000
0000
0001
0010
1000
0010
,  // measure 101
0001
0000
1000
0000
1000
0000
0100
0001
0000
0100
0000
1000
0010
0000
0100
0000
,  // measure 102
0010
1000
1100
0010
0001
0100
0101
0001
,  // measure 103
1000
0001
1000
0001
1000
0001
1000
0001
0100
0010
0100
0010
0100
0000
0000
0000
,  // measure 104
2020
0000
0000
0000
,  // measure 105
0000
0000
0000
0000
,  // measure 106
3030
0000
0000
0000
;
