#VERSION:0.83;
#TITLE:Set Me Free;
#SUBTITLE:;
#ARTIST:kors k VS L.E.D.;
#TITLETRANSLIT:;
#SUBTITLETRANSLIT:;
#ARTISTTRANSLIT:;
#GENRE:;
#ORIGIN:;
#CREDIT:;
#BANNER:banner.png;
#BACKGROUND:background.png;
#PREVIEWVID:;
#JACKET:jacket.png;
#CDIMAGE:;
#DISCIMAGE:;
#LYRICSPATH:;
#CDTITLE:;
#MUSIC:Set Me Free.ogg;
#OFFSET:-0.200000;
#SAMPLESTART:88.601059;
#SAMPLELENGTH:12.631577;
#SELECTABLE:YES;
#BPMS:0.000=152.000;
#STOPS:43.750=1.579,
215.750=1.579,
260.000=0.197,
260.500=0.197;
#DELAYS:;
#WARPS:;
#TIMESIGNATURES:0.000=4=4;
#TICKCOUNTS:0.000=4;
#COMBOS:0.000=1;
#SPEEDS:0.000=1.000=0.000=0;
#SCROLLS:0.000=1.000;
#FAKES:;
#LABELS:0.000=Song Start;
#BGCHANGES:;
#KEYSOUNDS:;
#ATTACKS:
;

//---------------dance-single - ----------------
#NOTEDATA:;
#CHARTNAME:;
#STEPSTYPE:dance-single;
#DESCRIPTION:;
#CHARTSTYLE:;
#DIFFICULTY:Hard;
#METER:15;
#RADARVALUES:0.733762,0.866438,0.601782,0.423790,0.538213,606.000000,535.000000,71.000000,50.000000,0.000000,0.000000,0.000000,0.000000,0.000000,0.733762,0.866438,0.601782,0.423790,0.538213,606.000000,535.000000,71.000000,50.000000,0.000000,0.000000,0.000000,0.000000,0.000000;
#CREDIT:;
#NOTES:
// measure 0
0000
0000
0000
0000
,  // measure 1
0000
0000
0000
0000
,  // measure 2
0000
0000
0000
0000
,  // measure 3
0000
0000
0000
0000
,  // measure 4
1001
0000
0000
0000
0000
0000
0000
0001
,  // measure 5
0011
0000
0011
0000
1000
0100
0000
0100
,  // measure 6
0001
0000
0100
0010
0100
0000
0010
0001
0010
0000
0001
0100
0001
0000
0100
0010
,  // measure 7
0000
0100
0010
1000
0001
1000
0001
0000
0110
0000
0000
0000
1001
0000
0000
0000
,  // measure 8
0102
0000
0000
0000
0013
0000
0100
1000
0010
0000
0000
0000
0100
0000
0010
1000
,  // measure 9
0001
0000
0000
0000
1000
0000
0001
1000
0010
0000
0000
0000
0100
0000
0100
0000
,  // measure 10
0010
0000
1000
0000
0001
0000
0010
0000
0100
0010
0001
1000
0010
1000
0001
0010
,  // measure 11
1001
0000
1000
0010
0010
1000
0100
0000
,  // measure 12
1000
0200
0001
0000
0301
0100
1000
0001
,  // measure 13
1001
0000
0001
0200
1000
0300
1000
0200
,  // measure 14
0001
0300
0001
1000
0110
0000
1001
0000
,  // measure 15
0011
0000
1000
0100
1000
0000
0001
0000
1000
0000
0001
0000
1000
0000
0000
0000
,  // measure 16
0000
0000
0100
0000
0100
0000
0010
0000
0001
0000
0001
1000
0010
0000
0010
0000
,  // measure 17
0100
0000
0201
0301
0000
0000
2100
3100
,  // measure 18
0010
0000
0001
0000
1000
0000
0100
0000
0010
0100
0010
0000
0110
0000
0000
0000
,  // measure 19
1001
0000
1000
0010
0000
0010
0100
0000
0100
0001
0000
0001
1000
0000
0100
0000
,  // measure 20
0010
0000
0001
0010
0000
0010
0100
0000
0100
1000
0000
1000
0001
0000
0100
0000
,  // measure 21
0010
0000
1000
0010
0000
0010
0100
0000
0100
0001
0000
0001
0010
0000
0001
0000
,  // measure 22
1000
0000
0001
0100
0000
0010
1000
0000
0001
0010
0001
0000
0010
0000
0100
0000
,  // measure 23
1000
0000
0001
0100
0000
0001
0010
0000
0001
1000
0000
0001
0100
0000
0010
0000
,  // measure 24
1000
0000
0010
1000
0000
0010
0100
0000
0010
0001
0000
0010
0100
0000
0001
0000
,  // measure 25
1000
0000
0100
0010
0000
0100
1000
0000
0100
0001
0000
0100
0010
0000
0001
0000
,  // measure 26
1000
0000
0000
1000
0000
0000
2000
0000
0001
0000
0000
0001
0000
0000
3001
0000
,  // measure 27
1001
1000
1001
0001
1001
1000
1001
0001
,  // measure 28
0101
0100
0110
0010
1010
1000
1100
0000
,  // measure 29
1001
1000
1001
0001
1001
1000
1001
0001
,  // measure 30
0011
0010
0110
0100
1100
0100
1001
0000
,  // measure 31
1001
0001
1001
1000
1001
0001
1001
1000
,  // measure 32
1010
0010
0110
0100
0101
0001
0011
0000
,  // measure 33
1001
1000
1001
0001
1001
1000
1001
0001
,  // measure 34
0110
0000
0000
0000
0000
0000
1001
0000
0000
1000
0100
1000
0100
0000
0000
0000
0000
0000
0011
0000
0000
0000
0000
0000
,  // measure 35
1100
1000
0100
0001
0100
0010
0001
2000
,  // measure 36
3000
2000
3000
2000
0000
3001
1000
0020
,  // measure 37
0030
0020
0030
0020
0000
0130
0001
2000
,  // measure 38
3000
2000
3000
2000
3100
0001
0100
0010
,  // measure 39
0000
0100
0010
0001
1000
0010
0100
0002
,  // measure 40
0003
0002
0003
0002
0000
1003
0001
0020
,  // measure 41
0030
0020
0030
0020
0000
0031
1000
0200
,  // measure 42
0300
0200
0300
0100
0001
0100
1000
0010
,  // measure 43
0000
0100
1000
0100
0010
1000
0001
0021
,  // measure 44
0000
0030
0012
0000
0000
0003
0022
0000
0003
0000
0031
0000
0010
0000
0210
0000
,  // measure 45
0000
0300
0120
0000
0000
0030
0220
0000
0300
0000
0130
0000
1000
0000
2001
0000
,  // measure 46
0000
3000
1002
0000
0000
0003
1001
0000
0001
0000
0010
0000
1000
0000
0010
0000
,  // measure 47
0000
0100
0010
0001
1000
0010
0100
0201
,  // measure 48
0000
0300
0102
0000
0000
0003
0202
0000
0003
0000
0301
0000
0100
0000
1020
0000
,  // measure 49
0000
0030
2010
0000
0000
3000
2020
0000
3000
0000
1030
0000
0001
0000
0021
0000
,  // measure 50
0000
0030
0012
0000
0000
0003
0011
0000
0010
0000
0100
0000
1000
0000
0001
0000
,  // measure 51
1000
0000
0000
0000
0001
0000
1000
0001
0100
0000
0000
0000
0010
0000
1000
0001
,  // measure 52
0010
0000
0000
0000
0100
0000
0010
0001
1000
0000
0000
0000
0001
0000
0001
0000
,  // measure 53
0010
0000
0100
0000
1000
0000
0001
0000
0010
0001
0100
0010
1000
0100
0010
0100
,  // measure 54
2002
0000
0000
0000
3003
0000
0001
0010
0000
0010
0001
0000
1000
0000
0001
0000
,  // measure 55
0100
0000
0001
0100
0000
0010
1000
0000
0100
0010
0000
0100
1000
0100
0010
0000
,  // measure 56
0000
0000
0100
0000
0010
0001
1000
0010
0100
0000
0010
1000
0000
1000
0000
1000
,  // measure 57
0001
0000
0010
0000
0001
0000
0100
0001
0020
0000
0000
0000
0230
0000
0000
0000
,  // measure 58
1300
0000
0001
0100
0000
0010
1000
0000
0100
0010
0000
0100
1000
0000
0001
0000
,  // measure 59
0100
0000
0010
1000
0000
0001
0010
0000
0100
0010
0000
0100
0010
0001
1000
0010
,  // measure 60
0100
0000
0010
0000
1000
0010
1000
0010
0100
0001
0100
0001
0000
0010
0000
0100
,  // measure 61
1000
0010
0100
0001
1000
0001
0100
0010
1000
0001
0010
0100
0010
0001
1000
0010
,  // measure 62
0100
0000
0001
0010
0000
0100
1000
0000
0100
0010
0000
0100
1000
0010
0100
0000
,  // measure 63
0001
0000
0100
0010
0000
1000
0001
0000
0010
0100
0000
0010
0001
1000
0010
0100
,  // measure 64
0010
0000
1000
0010
0000
0100
0001
0000
0010
0100
0000
0010
0001
0000
1000
0000
,  // measure 65
1001
0000
0110
0000
1001
0000
0010
0000
1001
0000
0100
0000
1001
0000
1000
0010
,  // measure 66
0000
0100
0001
0000
0010
0100
0000
0010
0001
0000
1000
0000
0001
0000
0100
0010
,  // measure 67
0000
0000
0000
1000
0000
0000
0100
0000
0000
0000
0000
0000
0010
0000
0100
0000
0010
0000
0000
0000
0000
0100
0000
0000
0000
0000
0000
0000
0000
0000
0010
0000
0000
0000
0000
0000
0001
0000
0000
0000
0000
0000
1000
0000
0000
0010
0000
0000
,  // measure 68
1000
0000
0001
0100
0001
0000
0010
0001
0010
0000
0100
0000
0010
0001
0100
0010
,  // measure 69
1000
0010
1000
0001
0010
0100
0010
0001
1000
0010
0100
0002
0020
0000
0000
0000
,  // measure 70
0000
0000
0033
0000
;

//---------------dance-single - ----------------
#NOTEDATA:;
#CHARTNAME:;
#STEPSTYPE:dance-single;
#DESCRIPTION:;
#CHARTSTYLE:;
#DIFFICULTY:Medium;
#METER:12;
#RADARVALUES:0.525499,0.561628,0.347508,0.211895,0.203419,434.000000,393.000000,41.000000,25.000000,0.000000,0.000000,0.000000,0.000000,0.000000,0.525499,0.561628,0.347508,0.211895,0.203419,434.000000,393.000000,41.000000,25.000000,0.000000,0.000000,0.000000,0.000000,0.000000;
#CREDIT:;
#NOTES:
0000
0000
0000
0000
,
0000
0000
0000
0000
,
0000
0000
0000
0000
,
0000
0000
0000
0000
,
1001
0000
0000
0000
,
1010
0000
0011
0000
1010
1000
0000
0001
,
0000
1000
0100
0010
0001
1000
0100
0010
,
0000
0100
1000
0010
0100
0000
0001
0000
,
1001
0000
0001
0100
1010
0000
1000
0100
,
0011
0000
0001
0010
1001
0000
0001
0001
,
1000
0001
0100
0010
1000
0100
0010
0001
,
1100
0000
0100
1000
0001
0100
0001
0000
,
1000
0001
0020
0000
0130
0000
0010
0000
,
0001
0000
0200
0310
0000
0000
0200
0310
,
0000
0000
0200
0310
1001
0000
0110
0000
,
1001
1000
0100
0020
0001
0000
0130
0000
,
0000
0010
0100
0100
1000
0010
0100
0001
,
1000
0000
0002
0103
0000
0000
0002
0103
,
0010
0010
0100
0100
1001
0000
0110
0000
,
1000
0000
0000
0001
0000
0000
0010
0000
0000
0001
0000
0000
0100
0000
0001
0000
,
1000
0000
0000
0100
0000
0000
0010
0000
0000
0100
0000
0000
1000
0000
0010
0000
,
0100
0000
0000
0001
0000
0000
0010
0000
0000
0001
0000
0000
1000
0000
0100
0000
,
0010
0000
0000
0100
0000
0000
1000
0000
0010
0000
0000
0100
0000
0000
0001
0000
,
1000
0000
0000
0001
0000
0000
0010
0000
0000
0001
0000
0000
0100
0000
0001
0000
,
1000
0000
0000
0100
0000
0000
0010
0000
0000
0100
0000
0000
0010
0000
0001
0000
,
0100
0000
0000
0001
0000
0000
1000
0000
0000
0100
0000
0000
0010
0000
0100
0000
,
2000
0000
0000
3010
0000
0000
0001
0000
0020
0000
0000
0130
0000
0000
0001
0000
,
1000
0100
1000
0100
0001
0100
0001
0100
,
1000
0100
0001
0100
1000
0100
0010
0000
,
0001
0010
0001
0010
1000
0010
1000
0010
,
0001
0010
1000
0010
0001
0010
0100
0000
,
1001
1001
0110
0110
,
1001
0110
1001
0110
,
1010
0101
0011
1100
,
1001
0000
0000
0000
0110
0000
0001
1000
0001
0000
0000
0000
1001
0000
0000
0000
,
0000
1000
0001
0100
0001
0010
0100
1000
,
0000
1000
0000
2000
0000
3100
0010
0001
,
0000
0001
0000
0002
0000
0013
0100
1000
,
0000
1000
0000
1000
0001
0010
1000
0010
,
0000
0100
0010
0001
0100
0010
1000
0010
,
0000
0010
0000
0020
0000
0130
0001
0100
,
0000
0100
0000
0200
0000
0301
0100
0010
,
0000
0010
0000
0010
0100
1000
0100
0001
,
0000
1000
0010
1000
0001
0010
0100
1000
,
0000
0100
0000
0020
0000
0130
1000
0001
,
0000
0100
0000
0020
0000
0130
0001
1000
,
0000
0001
0000
0010
1000
0010
0100
1000
,
0000
0100
1000
0010
0100
0001
0010
0100
,
0000
0010
0000
0002
0000
0013
0100
1000
,
0000
0100
0000
0020
0000
0130
1000
0010
,
0000
0100
0000
0010
0001
0010
1000
0100
,
0010
0000
0100
1000
1100
0000
0001
0100
,
0101
0000
1000
0010
1010
0000
0001
0001
,
1000
0001
1000
0001
1000
0100
0010
0001
,
2002
0000
0000
0000
3003
0000
1000
0000
0000
0001
0000
0010
0100
0000
1000
0000
,
0100
0000
0000
1000
0000
0000
0010
0000
0000
0100
0000
0001
0010
0000
0100
0000
,
0000
0010
0001
0100
1000
0100
0010
1000
,
0001
0010
0001
0010
0011
0000
1100
0000
,
1001
0000
0000
1000
0000
0000
0010
0000
0000
0100
0000
0001
0010
0000
0001
0000
,
1000
0000
0000
0100
0000
0000
0010
0000
0000
0100
0000
0010
0100
0000
0010
0000
,
0000
0100
1000
1000
0100
0001
0100
0010
,
0011
0000
0002
0000
0000
0023
0000
0000
0200
0000
0000
0000
0330
0000
0000
0000
,
1001
0000
0000
1000
0000
0000
0010
0000
0000
1000
0000
0100
0010
0000
0001
0000
,
0010
0000
0000
0001
0000
0000
0100
0000
0000
0010
0000
1000
0001
0000
0010
0000
,
0100
0000
0000
0010
0000
0000
0001
0000
0000
1000
0000
0010
1000
0000
0001
0000
,
1001
0000
1001
0000
0100
0000
0010
0000
1000
0000
0001
0000
1000
0000
0000
0100
,
0000
0000
0010
0000
0000
0100
0000
1000
0010
0000
0100
0000
0001
0000
0000
1000
,
0000
0000
0001
0000
0000
0010
0000
0100
0000
0000
0100
0000
0010
0000
0000
0001
,
0000
0000
0100
0000
0000
0010
0000
1000
0010
0000
0100
0000
0001
0000
0200
0000
,
0000
0302
0000
0000
2000
0000
0000
0000
0000
0000
3003
0000
0110
0000
0000
0000
;

//---------------dance-single - ----------------
#NOTEDATA:;
#CHARTNAME:;
#STEPSTYPE:dance-single;
#DESCRIPTION:;
#CHARTSTYLE:;
#DIFFICULTY:Easy;
#METER:8;
#RADARVALUES:0.438320,0.532068,0.440741,0.169516,0.004238,362.000000,310.000000,52.000000,20.000000,0.000000,0.000000,0.000000,0.000000,0.000000,0.438320,0.532068,0.440741,0.169516,0.004238,362.000000,310.000000,52.000000,20.000000,0.000000,0.000000,0.000000,0.000000,0.000000;
#CREDIT:;
#NOTES:
0000
0000
0000
0000
,
0000
0000
0000
0000
,
0000
0000
0000
0000
,
0000
0000
0000
0000
,
0110
0000
0000
0000
,
1001
1001
0010
0100
,
0002
0013
2000
3100
,
0001
0100
1100
0101
,
0011
0000
0001
1000
0001
0000
1000
0001
,
1000
0000
0010
0100
0010
0000
0100
0010
,
0100
0000
0010
0000
0100
0010
1000
0001
,
1000
0000
0100
0020
0001
0000
0030
0000
,
0000
0100
2000
0000
0000
0000
3000
0000
,
0001
2000
3001
2000
,
3001
2000
3001
0010
,
0100
0000
0010
0002
0100
0000
0003
0000
,
0000
0100
0010
1000
0001
0000
1000
0000
,
0100
0020
0130
0020
,
0130
0110
0011
1001
,
0001
0100
1000
0100
,
0010
0000
1000
0000
0001
0010
0100
0000
,
0010
0000
0001
0000
1000
0000
0100
0010
,
0001
0000
0100
0000
0010
0100
0010
0000
,
1000
0100
0010
0000
0100
0000
1000
0000
,
0001
0000
0100
0000
0001
0010
0000
0010
,
0002
0103
0020
1030
,
1000
0000
0100
0000
0010
0001
0010
0000
,
1001
1001
1001
1001
,
0101
1010
0101
1010
,
1001
1001
1001
1001
,
1100
0011
1100
0011
,
1001
1001
0110
0110
,
1001
0110
1001
0110
,
1010
0101
0011
1100
,
1001
0000
0001
0100
1000
0000
1001
0000
,
0000
0001
0010
0000
0100
0000
0010
0001
,
0000
1000
0000
0020
0000
1030
0001
0100
,
0000
0001
0000
0020
0000
0130
1000
0001
,
0000
1000
0000
0001
0100
0010
1000
0100
,
0000
0010
0100
0000
1000
0000
0001
1000
,
0000
0001
0000
0020
0000
0130
0010
0001
,
0000
0100
0000
0020
0000
0130
0001
1000
,
0000
0001
0000
1000
0100
0010
0001
0010
,
0000
0100
0010
0000
0100
0000
1000
0001
,
0000
0100
0000
0020
0000
0130
0001
1000
,
0000
0100
0000
0020
0000
0130
1000
0001
,
0000
1000
0000
0001
1000
0100
0010
0001
,
0000
1000
0001
0000
0010
0000
0100
0010
,
0000
0100
0000
2000
0000
3100
0010
0001
,
0000
0100
0000
0020
0000
0130
0001
1000
,
0000
0001
0000
1000
0100
0010
0001
0010
,
0100
0000
1000
0100
1000
0000
0001
0100
,
0001
0000
1000
0010
1000
0000
0001
0010
,
0001
0000
1000
0000
0001
0100
0010
1000
,
1001
1001
0001
1000
,
0100
0000
0010
0000
0100
0000
1000
0001
,
0000
0100
0001
0010
0100
0000
0010
0000
,
0001
1000
0100
0000
0011
0000
1100
0000
,
1001
0001
1000
0010
,
0001
0010
0100
0001
,
0000
1000
0100
0000
1000
0000
0010
0000
,
0110
0000
0100
0010
0110
0000
1001
0000
,
1000
0001
0010
0100
,
0010
0000
0001
0000
0100
0000
0010
1000
,
0100
0000
0010
0000
0100
1000
0100
0010
,
0001
0001
1000
0001
1000
0001
1000
0000
,
0001
0010
0100
1000
,
0100
0000
0000
0000
1000
0000
0000
0001
0000
0000
0100
0000
0001
0000
0000
0000
,
0010
0100
1000
1100
,
0011
1010
0101
1001
;

//---------------dance-single - ----------------
#NOTEDATA:;
#CHARTNAME:;
#STEPSTYPE:dance-single;
#DESCRIPTION:;
#CHARTSTYLE:;
#DIFFICULTY:Beginner;
#METER:5;
#RADARVALUES:0.174359,0.354712,0.110185,0.000000,0.000000,144.000000,131.000000,13.000000,0.000000,0.000000,0.000000,0.000000,0.000000,0.000000,0.174359,0.354712,0.110185,0.000000,0.000000,144.000000,131.000000,13.000000,0.000000,0.000000,0.000000,0.000000,0.000000,0.000000;
#CREDIT:;
#NOTES:
0000
0000
0000
0000
,
0000
0000
0000
0000
,
0000
0000
0000
0000
,
0000
0000
0000
0000
,
1001
0000
0000
0000
,
0010
0010
0010
0000
,
0100
0000
0100
0000
,
0001
0000
1000
0000
,
1001
0000
0001
0000
,
1000
0000
0001
0000
,
0100
0100
0100
0100
,
0010
0000
0000
0000
,
1000
0000
0000
0000
,
0001
1000
0000
1000
,
0000
1000
0001
0000
,
0100
0100
0000
0000
,
0010
0010
0000
0000
,
1000
0000
0001
0000
,
0100
0000
0000
0000
,
0010
0000
0000
0000
,
1000
0000
0000
0000
,
0100
0000
0000
0000
,
0010
0000
0001
0000
,
0100
0000
0000
0000
,
0010
0000
0000
0000
,
1001
0000
0010
0000
,
1001
0000
0100
0000
,
0001
0001
0001
0001
,
0001
0001
0001
0001
,
1000
1000
1000
1000
,
1000
1000
1000
1000
,
0010
0010
0010
0010
,
0010
0010
0010
0010
,
0100
0100
0100
0100
,
0110
1001
0110
0000
,
1000
0000
0000
0000
0000
0000
0000
0001
,
0000
0000
0000
0000
0000
0000
0000
0001
,
0000
0000
0000
0000
0000
0000
0000
0001
,
0000
0000
1000
0000
,
0010
0000
0000
0000
0000
0000
0000
0100
,
0000
0000
0000
0000
0000
0000
0000
0100
,
0000
0000
0000
0000
0000
0000
0000
0100
,
0000
0000
0010
0000
,
1000
0000
0000
0000
0000
0000
0000
0100
,
0000
0000
0000
0000
0000
0000
0000
0100
,
0000
0000
0000
0000
0000
0000
0000
0100
,
0000
0000
0000
0000
,
0010
0000
0000
0000
0000
0000
0000
0001
,
0000
0000
0000
0000
0000
0000
0000
0001
,
0000
0000
0000
0000
0000
0000
0000
0001
,
0000
0000
1000
0000
,
0010
0000
1000
0000
,
0001
0000
0100
0000
,
0010
0010
1000
1000
,
1001
0000
0001
0000
,
1000
0000
0010
0000
,
0100
0000
0000
0000
,
0001
0000
1000
0001
,
0110
0000
0000
0000
,
0010
0000
0000
0000
,
1000
0000
0001
0000
,
0100
0010
1000
0000
,
1001
0000
0001
0000
,
1000
0000
0010
0000
,
0100
0000
0001
0000
,
1001
0000
0000
0110
,
0000
0000
0000
0010
,
0000
0100
0000
0001
,
0000
1000
0000
0001
,
1000
0010
0100
1001
;
