#VERSION:0.83;
#TITLE:Seasons;
#SUBTITLE:;
#ARTIST:Ryunosuke Kudo;
#TITLETRANSLIT:;
#SUBTITLETRANSLIT:;
#ARTISTTRANSLIT:;
#GENRE:FUTURE BASS;
#ORIGIN:;
#CREDIT:;
#BANNER:Seasons.png;
#BACKGROUND:Seasons-bg.png;
#PREVIEWVID:;
#JACKET:Seasons-jacket.jpg;
#CDIMAGE:;
#DISCIMAGE:;
#LYRICSPATH:;
#CDTITLE:;
#MUSIC:Seasons.ogg;
#OFFSET:-1.256000;
#SAMPLESTART:67.449997;
#SAMPLELENGTH:12.000000;
#SELECTABLE:YES;
#BPMS:0.000=43.508,
16.000=87.017,
48.000=174.033,
142.000=87.017,
143.000=174.033,
205.000=87.017,
206.000=174.033,
238.000=87.017;
#STOPS:;
#DELAYS:;
#WARPS:;
#TIMESIGNATURES:0.000=4=4,
140.000=3=4,
143.000=4=4,
203.000=3=4,
206.000=4=4;
#TICKCOUNTS:0.000=4;
#COMBOS:0.000=1;
#SPEEDS:0.000=1.000=0.000=0;
#SCROLLS:0.000=1.000;
#FAKES:;
#LABELS:0.000=Song Start;
#BGCHANGES:;
#KEYSOUNDS:;
#ATTACKS:
;

//---------------dance-single - ----------------
#NOTEDATA:;
#CHARTNAME:;
#STEPSTYPE:dance-single;
#DESCRIPTION:;
#CHARTSTYLE:;
#DIFFICULTY:Hard;
#METER:13;
#RADARVALUES:0.495472,0.669635,0.212780,0.205687,0.234058,489.000000,459.000000,30.000000,29.000000,2.000000,0.000000,0.000000,0.000000,0.000000,0.495472,0.669635,0.212780,0.205687,0.234058,489.000000,459.000000,30.000000,29.000000,2.000000,0.000000,0.000000,0.000000,0.000000;
#CREDIT:;
#NOTES:
0000
0000
0000
0000
,
0000
0000
0000
0000
,
2000
0000
3100
0010
0001
0000
0001
0000
0002
0000
0013
0100
1000
0000
1000
0000
,
0200
0000
0310
0001
1000
0000
0100
0000
0020
0000
0031
0001
0001
0000
1000
0000
,
1100
0000
1000
0000
0001
0000
1000
0100
0000
0100
0000
0010
0001
0000
1000
0000
,
0001
0000
1000
0100
0000
0100
0000
0100
2000
0000
0000
0000
3001
0000
0000
0000
,
0110
0000
1000
0001
1000
0000
0100
0010
0000
0010
0000
0010
0000
0001
0010
0000
,
0100
0000
1000
0001
0000
0010
0000
0200
0000
0000
0000
0000
0310
0000
0000
0000
,
1000
0000
0002
0000
0000
1000
0103
0010
0000
0001
0000
0000
0110
0000
1000
0001
,
1000
0000
0001
0010
0000
0001
0000
0020
0000
0000
0030
0000
0110
0000
0000
0000
,
2000
0000
0000
0000
3001
0010
0100
0010
0000
0001
0000
0000
1100
0000
0010
0100
,
0010
0000
1000
0001
0000
0100
0000
0020
0000
0000
0030
0000
1001
0000
0000
0000
,
1001
0000
1000
0100
1000
0000
0010
0000
,
1000
0100
0010
0000
0001
0010
0001
0010
,
0001
0000
0010
0100
0010
0000
0100
0000
,
1000
0100
1000
0000
1000
0001
0100
0010
,
1001
0000
1000
0001
1000
0000
0100
0000
,
1000
0001
0100
0000
0010
0100
0010
0100
,
0010
0000
0100
0001
0100
0000
0001
0000
,
1000
0001
1000
0000
1000
0010
1000
0100
,
1000
0001
1000
0001
1000
0100
1000
0100
,
1000
0000
0100
0000
0010
0000
0001
0000
0010
0000
0001
0000
0010
0000
0001
0010
,
0001
0010
0001
0010
0100
0010
0100
0010
,
0001
0000
1000
0000
0100
0000
0010
0000
0001
0000
1000
0000
0100
0010
0100
0010
,
0100
1000
0100
1000
0100
0010
0100
0010
,
0100
0010
0001
0010
0001
0010
0001
0010
,
0001
1000
0001
1000
0001
1000
0001
0000
0100
0000
0010
0000
0100
0000
0010
0000
,
1000
0100
1000
0100
0010
0001
0010
0001
0010
0100
0010
0100
1000
0100
1000
0100
,
1000
0000
1001
1000
0100
0010
0001
0000
,
2000
0000
3000
0000
0100
0010
0001
0100
,
0110
0000
0110
0100
0010
1000
0001
0000
,
0200
0000
0300
0000
0001
0010
0100
1000
,
0011
0000
1100
0100
0010
0100
0010
0000
,
0200
0000
0300
0000
1000
0001
0100
0010
,
0110
0000
1001
0001
0010
0100
1000
0000
,
2000
0000
0000
0000
3000
0000
0000
0000
00M1
1000
0001
1000
0001
0000
0000
0000
,
1000
0100
0010
0001
1000
0000
2002
0000
,
3003
0000
1000
0100
1000
0001
0101
0000
,
1010
0010
1000
0001
1000
0000
2200
0000
,
3300
0000
0100
0010
0100
0010
0110
0000
,
1001
1000
0001
0010
0001
0000
2200
0000
,
3300
0000
1000
0100
1000
0100
0011
0000
,
1100
0000
1000
0001
1000
0000
0002
0000
,
0000
2000
3003
1001
,
0011
0000
1000
0100
0010
0000
2100
0000
,
0000
0000
3010
0001
0010
0001
0010
0000
,
0001
1000
0002
0000
0103
0010
2000
0000
,
3001
0010
0100
1000
0010
0100
0001
0000
,
0001
0000
0010
0100
0010
0000
2001
0000
,
0000
0000
3100
0010
0001
0010
0100
0000
,
1000
0100
0010
0000
0001
0100
0010
0000
,
1000
0000
0000
0000
001M
0100
0010
0100
0010
0000
0000
0000
0100
0000
0000
0000
,
0010
1000
0100
0000
0021
0000
0000
0000
,
0130
1000
0100
1000
0010
0000
0100
0001
,
0100
0000
0010
1000
0010
0000
1000
0100
,
0010
0001
0010
0100
1000
0000
0001
0000
,
1000
0100
0010
0000
2100
0000
0000
0000
,
3010
0001
0010
0100
1000
0000
0001
0100
,
0001
0000
0100
0001
0100
0000
0001
0000
,
2000
0000
3000
0000
1000
0001
0100
0010
,
1000
0000
0001
0000
1000
0100
0010
0001
1000
0000
0100
0000
1000
0000
0100
0000
,
0010
0000
0001
0000
0010
0100
0010
0100
0010
0000
0001
0000
0010
0000
0001
0000
,
0010
0000
0100
0000
1000
0100
1000
0100
1000
0000
0010
0000
0100
0000
0001
0000
,
1000
0000
0001
0000
0100
0010
1000
0001
1000
0000
0100
0000
1000
0000
0100
0000
,
0010
0000
0001
0000
0010
0100
1000
0100
0010
0000
0100
0000
0010
0000
0100
0000
,
0010
0000
0100
0000
1000
0001
1000
0001
1000
0000
0100
0000
0010
0000
0001
0000
,
0010
0000
0100
0000
1000
0001
0100
0010
0100
0000
0010
0000
1000
0000
0001
0000
,
1000
0000
0100
0000
1000
0100
0010
0001
0000
0000
0000
0000
0000
0000
0000
0000
;

//---------------dance-single - ----------------
#NOTEDATA:;
#CHARTNAME:;
#STEPSTYPE:dance-single;
#DESCRIPTION:;
#CHARTSTYLE:;
#DIFFICULTY:Beginner;
#METER:3;
#RADARVALUES:0.113482,0.166323,0.021278,0.028371,0.000000,112.000000,109.000000,3.000000,4.000000,0.000000,0.000000,0.000000,0.000000,0.000000,0.113482,0.166323,0.021278,0.028371,0.000000,112.000000,109.000000,3.000000,4.000000,0.000000,0.000000,0.000000,0.000000,0.000000;
#CREDIT:;
#NOTES:
0000
0000
0000
0000
,
0000
0000
0000
0000
,
1000
0000
0001
0000
,
1000
0000
0001
0000
,
1000
0000
0100
0000
,
0010
0000
0001
0000
,
1000
0000
1000
0000
,
2000
0000
0000
3000
,
0001
0000
0001
0000
,
0001
0000
1000
0000
,
2000
0000
0000
3000
,
0100
0000
0100
0000
,
1000
0000
0000
0000
,
0010
0000
0000
0000
,
0001
0000
0000
0000
,
1000
0000
0000
0000
,
0100
0000
0000
0000
,
0100
0000
0000
0000
,
0010
0000
0000
0000
,
0001
0000
0000
0000
,
1000
0000
1000
0000
,
0001
0000
0001
0000
,
0100
0000
0100
0000
,
0010
0000
0010
0000
,
1000
0000
0001
0000
,
1000
0000
0001
0000
,
1000
0000
0001
0000
,
1000
1000
1000
0000
,
1000
0000
0001
0000
,
1001
0000
0000
0000
,
0100
0000
0010
0000
,
0110
0000
0000
0000
,
1000
0000
0100
0000
,
0110
0000
0000
0000
,
0001
0000
1000
0000
,
0200
0000
0300
1000
,
0000
0001
0000
0100
,
0000
0000
0000
1000
,
0000
1000
0000
1000
,
0000
0000
0000
0001
,
0000
0001
0000
0001
,
0000
0000
0000
0100
,
0000
0010
0000
0010
,
0000
0000
0000
1000
,
0000
1000
0000
1000
,
0000
0000
0000
0001
,
0000
0001
0000
0001
,
0000
0010
0000
1000
,
0000
1000
0000
1000
,
0000
0000
0000
0100
,
0000
0100
0000
0020
,
0000
0000
1030
0000
,
1000
0000
1000
0000
,
0000
0000
0100
0000
,
0100
0000
0100
0000
,
0000
0000
0010
0000
,
0010
0000
0010
0000
,
0000
0000
0001
0000
,
1000
0000
0001
0000
,
1000
0000
1000
0000
,
0100
0000
0010
0000
,
0001
0000
1000
0000
,
0001
0000
1000
0000
,
0001
0000
1000
0000
,
0100
0000
0010
0000
,
0001
0000
0100
0000
,
0010
0000
0100
0000
,
0010
0000
0000
0000
;

//---------------dance-single - ----------------
#NOTEDATA:;
#CHARTNAME:;
#STEPSTYPE:dance-single;
#DESCRIPTION:;
#CHARTSTYLE:;
#DIFFICULTY:Easy;
#METER:6;
#RADARVALUES:0.232031,0.383003,0.120575,0.212780,0.000000,229.000000,212.000000,17.000000,30.000000,0.000000,0.000000,0.000000,0.000000,0.000000,0.232031,0.383003,0.120575,0.212780,0.000000,229.000000,212.000000,17.000000,30.000000,0.000000,0.000000,0.000000,0.000000,0.000000;
#CREDIT:;
#NOTES:
0000
0000
0000
0000
,
0000
0000
0000
0000
,
1000
0100
0010
0001
,
1000
0001
1000
0001
,
1000
0001
0000
0100
,
1000
0010
0000
1010
,
1000
0001
0000
1100
,
1000
0001
0100
0000
,
1000
0100
0010
1100
,
1000
0100
0010
0001
,
2000
0000
3001
0000
,
2000
0000
3010
0000
,
1000
0000
1000
0100
,
0010
0000
0001
0010
,
0100
0000
1000
0100
,
0010
0000
0001
0010
,
0100
0000
1000
0001
,
1000
0000
0001
1000
,
0001
0000
1000
0100
,
0001
0000
0001
0100
,
1000
1000
0001
0001
,
0100
0100
0010
0010
,
1000
1000
0001
0001
,
1000
1000
0001
0001
,
1100
1000
0011
0001
,
1001
1000
0001
0001
,
1100
1100
0011
0011
,
1001
1001
2002
3003
,
1000
1000
0100
0010
,
0002
0003
1000
0000
,
1000
0100
0010
0001
,
2000
0000
3001
0000
,
0100
0100
0010
0010
,
2000
0000
3001
0000
,
0100
0010
1000
0010
,
0200
0000
0000
1300
,
1000
0100
0010
0002
,
0000
1003
0000
0100
,
0100
1000
0010
0200
,
0000
0301
0000
1000
,
1000
0001
0100
0020
,
0000
1030
0000
1000
,
0100
1000
0100
2000
,
0000
3002
0000
1003
,
0100
0010
0100
2000
,
0000
3010
0000
0100
,
0010
0100
0010
0002
,
0000
1003
0000
1000
,
0100
1000
0100
0000
,
0000
1001
0000
1000
,
0001
1000
0001
2200
,
3300
0011
1000
0100
,
0010
0100
2000
0000
,
3001
0000
0001
0010
,
0100
0010
0002
0000
,
0013
0000
0100
1000
,
0010
0100
0002
0000
,
1003
0000
2000
0000
,
3002
0000
1003
0001
,
1000
0000
1100
1000
,
0100
0020
0031
0010
,
0100
2000
3100
1000
,
0100
0020
0031
1000
,
0001
2000
3100
0100
,
0010
0020
0031
0001
,
1000
2000
3100
0100
,
1000
2000
3001
0001
,
0010
0020
0030
0000
;

//---------------dance-single - ----------------
#NOTEDATA:;
#CHARTNAME:;
#STEPSTYPE:dance-single;
#DESCRIPTION:;
#CHARTSTYLE:;
#DIFFICULTY:Medium;
#METER:8;
#RADARVALUES:0.317143,0.406187,0.070927,0.255335,0.000000,313.000000,303.000000,10.000000,36.000000,0.000000,0.000000,0.000000,0.000000,0.000000,0.317143,0.406187,0.070927,0.255335,0.000000,313.000000,303.000000,10.000000,36.000000,0.000000,0.000000,0.000000,0.000000,0.000000;
#CREDIT:;
#NOTES:
// measure 0
0000
0000
0000
0000
,  // measure 1
0000
0000
0000
0000
,  // measure 2
1000
0100
0010
0001
,  // measure 3
1000
0100
1000
0100
0010
0001
0010
0001
,  // measure 4
0010
0100
1000
0000
1000
0000
1001
0000
,  // measure 5
0010
0100
0010
0100
0020
0000
0130
0000
,  // measure 6
1000
0100
0010
0000
0001
0000
0001
0000
,  // measure 7
1000
0001
1000
0001
2000
0000
3001
0000
,  // measure 8
1000
0200
0010
0000
0310
0000
0100
0000
,  // measure 9
1000
0001
0100
0010
1000
0000
1100
0000
,  // measure 10
2000
0000
0001
0001
3001
0000
0110
0000
,  // measure 11
1000
0100
0010
0001
0010
0000
1100
0000
,  // measure 12
1000
0000
0002
0000
0000
1000
0103
0010
,  // measure 13
0000
0200
0000
0300
0000
0000
1000
0100
,  // measure 14
0010
0000
0001
0010
0000
0010
0000
0020
,  // measure 15
0000
0000
0000
0030
,  // measure 16
1000
0000
0100
0010
0000
0001
0000
0010
,  // measure 17
0000
0200
0000
0300
0000
1000
0100
0010
,  // measure 18
0001
0000
1000
0100
0000
0010
0000
0002
,  // measure 19
0000
0000
0000
0003
,  // measure 20
1000
0000
0100
0010
0100
0000
0010
0000
,  // measure 21
0001
0010
0001
0000
1000
0000
0001
0000
,  // measure 22
1000
1000
1000
1000
,  // measure 23
0001
0001
0001
0001
,  // measure 24
1000
0100
1000
0000
0100
0000
0100
0000
,  // measure 25
0010
0001
0010
0000
0100
0000
0100
0000
,  // measure 26
1000
0001
1000
0001
1000
0001
1000
0001
,  // measure 27
1000
0100
0010
0100
0010
0100
0010
0100
,  // measure 28
0010
0000
0010
0000
0000
0100
0010
0000
,  // measure 29
0220
0000
0330
0000
0000
1000
1000
1000
,  // measure 30
1000
0000
0001
0000
0000
0100
0010
0000
,  // measure 31
2002
0000
3003
0000
0000
0010
0010
0010
,  // measure 32
0010
0000
1000
0000
0000
0001
1000
0000
,  // measure 33
2200
0000
3300
0000
0000
0001
0010
0001
,  // measure 34
0010
0000
0010
0000
0000
0100
1000
0000
,  // measure 35
0200
0000
0000
1300
,  // measure 36
0001
0000
0001
0010
0100
0000
2000
0000
,  // measure 37
0000
0000
0000
0001
0001
0001
3001
0000
,  // measure 38
0100
0000
0010
0100
0010
0000
2000
0000
,  // measure 39
0000
0000
3100
0010
0100
0010
0100
0000
,  // measure 40
0010
0000
0100
0010
0100
0000
0020
0000
,  // measure 41
0000
0000
0000
0100
0100
0100
0130
0000
,  // measure 42
0001
0000
1000
0001
1000
0000
2200
0000
,  // measure 43
3300
0022
0033
1000
,  // measure 44
0001
0000
0100
0010
0100
0000
2000
0000
,  // measure 45
3000
0000
0000
0100
0010
0001
0020
0000
,  // measure 46
0030
0100
2000
0000
3000
0100
0010
0000
,  // measure 47
1000
0100
0010
0001
1000
0100
0010
0000
,  // measure 48
0001
0000
1000
0001
1000
0000
0002
0000
,  // measure 49
0000
0003
0000
0100
0010
0100
0020
0000
,  // measure 50
0030
1000
0200
0000
0300
0010
0001
0000
,  // measure 51
1000
0002
1003
0100
,  // measure 52
0010
0001
0010
0000
2001
0000
0000
0000
,  // measure 53
3000
0100
0010
0001
0020
0000
0030
0100
,  // measure 54
2000
0000
3000
0100
0010
0000
0001
0010
,  // measure 55
0100
1000
0100
0010
0001
0000
1000
0000
,  // measure 56
0100
0010
0100
0000
2000
0000
0000
0000
,  // measure 57
0000
0001
0001
0001
3001
0000
0000
1000
,  // measure 58
0200
0000
0300
0010
0001
0000
1000
0000
,  // measure 59
0002
0000
1003
0100
,  // measure 60
0010
0000
0001
0001
0001
0000
0100
0000
,  // measure 61
0010
0000
0100
0100
0100
0000
0010
0000
,  // measure 62
1000
0000
0010
0010
0010
0000
1000
0000
,  // measure 63
0001
0000
1000
1000
1000
0000
0010
0000
,  // measure 64
0100
0000
0001
1000
0001
0000
1000
0000
,  // measure 65
0100
0000
0010
0001
0010
0000
0100
0000
,  // measure 66
1000
0000
0001
0001
1000
0000
0100
0000
,  // measure 67
0010
0000
0100
0100
0000
0000
0000
0000
;
