#TITLE:Say So;
#SUBTITLE:;
#ARTIST:Doja Cat;
#TITLETRANSLIT:;
#SUBTITLETRANSLIT:;
#ARTISTTRANSLIT:;
#GENRE:;
#CREDIT:BadWolf;
#BANNER:Say So.png;
#BACKGROUND:Say So-bg.png;
#LYRICSPATH:;
#CDTITLE:cdtitle.png;
#MUSIC:Say So.ogg;
#OFFSET:0.016549;
#SAMPLESTART:8.602663;
#SAMPLELENGTH:17.097292;
#SELECTABLE:YES;
#BPMS:0.000000=111.000000
;
#STOPS:
;
#BGCHANGES:;
#KEYSOUNDS:;
#ATTACKS:;

//---------------dance-single - ----------------
#NOTES:
     dance-single:
     :
     Hard:
     10:
     0.372330,0.468978,0.224198,0.224198,0.182161,279.000000,255.000000,24.000000,24.000000,0.000000,0.000000,0.372330,0.468978,0.224198,0.224198,0.182161,279.000000,255.000000,24.000000,24.000000,0.000000,0.000000:
// measure 0
0000
0000
0000
0000
,  // measure 1
0000
0000
0000
0000
,  // measure 2
0000
0000
0000
0000
,  // measure 3
0000
0000
0000
0000
,  // measure 4
1000
0000
0100
0000
0001
0000
0100
0000
1000
0000
0000
0001
0000
0000
0100
0000
,  // measure 5
0010
0000
1000
0000
0001
0000
0010
0000
0100
0000
0000
1000
0000
0000
0000
0000
,  // measure 6
0001
0000
0100
0000
1000
0000
0100
0000
0001
0000
0000
1000
0000
0000
0100
0000
,  // measure 7
0010
0001
2000
0000
3001
0000
1001
0000
,  // measure 8
1000
0000
0010
0000
0001
0000
0010
0000
1000
0000
0000
0001
0000
0000
0010
0000
,  // measure 9
0100
0000
1000
0000
0001
0000
0100
0000
0010
0000
0000
1000
0000
0000
0000
0000
,  // measure 10
0001
0000
0010
0000
1000
0000
0010
0000
0001
0000
0000
1000
0000
0000
0010
0000
,  // measure 11
0100
0001
2000
0000
3001
0000
1001
0000
,  // measure 12
1000
0001
1000
0000
0100
0000
0010
0000
0100
0000
0000
0000
1000
0000
0000
0000
,  // measure 13
0001
0100
0010
0100
1000
0000
0100
0000
,  // measure 14
0001
1000
0001
1000
0001
0000
0010
0000
0100
0000
0000
0000
1000
0000
0000
0000
,  // measure 15
0010
0100
0010
0100
0010
0000
1000
0000
0001
0000
0000
0000
0100
0000
0000
0000
,  // measure 16
0001
1000
0001
0000
0010
0000
0100
0000
0010
0000
0000
0000
0001
0000
0000
0000
,  // measure 17
1000
0010
0100
0010
0001
0000
0010
0000
,  // measure 18
1000
0100
1000
0100
0010
0000
0001
0000
1000
0000
0000
0001
0000
0100
0010
0100
,  // measure 19
0001
1000
0001
1000
0001
0000
0010
0000
0100
0000
0000
1000
0000
0000
0001
0000
,  // measure 20
2000
3020
0032
0203
,  // measure 21
2300
3200
0302
0023
,  // measure 22
1030
1100
0101
0011
,  // measure 23
1010
1001
0110
1001
,  // measure 24
0002
0023
2030
3200
,  // measure 25
0302
0203
2300
3020
,  // measure 26
0031
0000
0000
0000
0101
0000
0000
0000
1001
0000
0000
0000
1000
0000
0000
0001
,  // measure 27
1000
0010
0001
0010
1000
0000
1001
0000
,  // measure 28
0001
0000
0010
0000
1000
0000
0010
0000
0001
0000
0000
1000
0000
0000
0010
0000
,  // measure 29
0100
0000
0001
0000
1000
0000
0100
0000
0010
0000
0000
0001
0000
0000
0000
0000
,  // measure 30
1000
0000
0010
0000
0001
0000
0010
0000
1000
0000
0000
0001
0000
0000
0010
0000
,  // measure 31
0100
1000
0002
0000
1003
0000
1001
0000
,  // measure 32
0001
0000
0100
0000
1000
0000
0100
0000
0001
0000
0000
1000
0000
0000
0100
0000
,  // measure 33
0010
0000
0001
0000
1000
0000
0010
0000
0100
0000
0000
0001
0000
0000
0000
0000
,  // measure 34
1000
0000
0100
0000
0001
0000
0100
0000
1000
0000
0000
0001
0000
0000
0100
0000
,  // measure 35
0010
1000
0002
0000
1003
0000
1001
0000
,  // measure 36
0001
0011
1001
1000
,  // measure 37
0010
0000
0100
0000
0001
1000
0000
0001
1000
0000
0000
0000
0001
0000
0000
0000
,  // measure 38
1000
1100
1001
0001
,  // measure 39
0100
0000
0010
0000
1000
0001
0000
1000
0001
0000
0000
0000
1000
0000
0000
0000
,  // measure 40
1001
0110
1001
0001
,  // measure 41
0010
0000
0100
0000
1000
0001
0000
1000
0001
0000
0000
0000
1000
0000
0000
0000
,  // measure 42
1001
0110
1001
0001
,  // measure 43
0100
0000
0010
0000
1000
0001
0000
1000
0001
0000
0000
0000
1000
0000
0000
0000
,  // measure 44
0002
0010
1003
0000
,  // measure 45
0000
0000
2000
0000
0000
0001
0000
0000
3100
0000
0000
0000
0000
0000
0000
0000
,  // measure 46
0002
0100
1003
0000
,  // measure 47
0000
0000
2000
0000
0000
0010
0000
0000
3001
0000
0000
1000
0000
0001
0000
0000
;

//---------------dance-single - ----------------
#NOTES:
     dance-single:
     :
     Medium:
     7:
     0.312276,0.358718,0.317615,0.280248,0.000000,234.000000,200.000000,34.000000,30.000000,0.000000,0.000000,0.312276,0.358718,0.317615,0.280248,0.000000,234.000000,200.000000,34.000000,30.000000,0.000000,0.000000:
0000
0000
0000
0000
,
0000
0000
0000
0000
,
0000
0000
0000
0000
,
0000
0000
0000
0000
,
1001
0110
1001
0001
,
0010
0100
1000
0100
0010
0000
0001
0000
,
1001
0110
1001
1000
,
0100
0010
0001
0010
0100
0000
1000
0000
,
1001
0110
1001
0001
,
0100
0010
1000
0010
0100
0000
0001
0000
,
1001
0110
1001
1000
,
0010
0100
0001
0100
0010
0000
1000
0000
,
0001
1000
0001
1000
0100
0000
0010
0000
,
0002
2003
3002
0003
,
1000
0001
1000
0001
0100
0000
0010
0000
,
1000
0100
0010
0001
1000
0000
0001
0000
,
1000
0001
1000
0001
0100
0000
0010
0000
,
2000
3002
2003
3000
,
0001
1000
0001
1000
0100
0000
0010
0000
,
0001
0100
0010
1000
0001
0000
1000
0000
,
0002
0023
2030
3020
,
0032
0203
2300
3200
,
0301
0011
1010
1100
,
0101
1001
0110
1001
,
2000
3200
0302
0203
,
2300
3020
0032
0023
,
1030
1100
1001
0001
,
0100
0010
0100
0010
1000
0000
0001
0000
,
1001
0110
1001
1000
,
0100
0010
0001
0010
0100
0000
1000
0000
,
1001
0110
1001
0001
,
0010
0100
1000
0100
0010
0000
0001
0000
,
1001
0110
1001
1000
,
0010
0100
0001
0100
0010
0000
1000
0000
,
1001
0110
1001
0001
,
0100
0010
1000
0010
0100
0000
0001
0000
,
2000
0001
3001
1000
,
0001
0100
0001
0100
0001
0000
1000
0000
,
0002
1000
1003
0001
,
1000
0010
1000
0010
1000
0000
0001
0000
,
0200
0010
0310
0100
,
0001
1000
0001
1000
0001
0000
1000
0000
,
0020
0100
0130
0010
,
1000
0001
1000
0001
1000
0000
1001
0000
,
0002
0000
0000
0000
0000
0000
0000
2003
,
0000
0000
0000
0000
,
3020
0000
0000
0000
0000
0000
0000
0230
,
0000
0000
0000
0000
,
0300
0000
0000
0000
;

//---------------dance-single - ----------------
#NOTES:
     dance-single:
     :
     Easy:
     5:
     0.204181,0.269038,0.130782,0.308273,0.000000,153.000000,139.000000,14.000000,33.000000,0.000000,0.000000,0.204181,0.269038,0.130782,0.308273,0.000000,153.000000,139.000000,14.000000,33.000000,0.000000,0.000000:
0000
0000
0000
0000
,
0000
0000
0000
0000
,
0000
0000
0000
0000
,
0000
0000
0000
0000
,
1000
1000
0001
0001
,
1000
0100
0001
0100
,
1000
1000
0001
0001
,
1001
0110
1001
0000
,
0001
0001
1000
1000
,
0001
0010
1000
0010
,
0001
0001
1000
1000
,
1001
0110
1001
0000
,
1000
0100
0010
0000
,
0001
1000
0001
0000
,
0100
0010
0100
0000
,
0001
0010
0100
0000
,
1000
0001
1000
0010
,
0100
0010
1000
0000
,
0100
0100
0010
0010
,
0001
0001
1000
1000
,
0002
0023
0230
2300
,
3002
0203
0320
2030
,
3200
0320
0032
2003
,
3020
0230
0302
2003
,
3002
2003
3200
0320
,
0032
2003
3020
0230
,
0302
0000
0003
0000
,
1000
0001
1000
0000
,
0001
0001
1000
1000
,
0001
0010
1000
0010
,
0001
0001
1000
1000
,
1001
0110
1001
0000
,
1000
1000
0001
0001
,
1000
0100
0001
0100
,
1000
1000
0001
0001
,
1001
0110
1001
0000
,
2002
0000
0000
3003
,
1000
0100
0010
0000
,
0100
1000
0001
0000
,
0100
0100
0100
0000
,
2002
0000
0000
3003
,
0001
0010
0100
0000
,
0010
0001
1000
0000
,
0010
0010
0010
0000
,
2000
0000
0000
0000
,
3002
0000
0000
0000
,
0203
0000
0000
0000
,
0320
0000
0000
0000
,
0030
0000
0000
0000
;

//---------------dance-single - ----------------
#NOTES:
     dance-single:
     :
     Beginner:
     2:
     0.100089,0.153669,0.009342,0.037366,0.000000,75.000000,74.000000,1.000000,4.000000,0.000000,0.000000,0.100089,0.153669,0.009342,0.037366,0.000000,75.000000,74.000000,1.000000,4.000000,0.000000,0.000000:
0000
0000
0000
0000
,
0000
0000
0000
0000
,
0000
0000
0000
0000
,
0000
0000
0000
0000
,
1000
0000
0001
0000
,
1000
0000
0000
0000
,
0010
0000
0100
0000
,
0010
0000
0000
0000
,
1000
0000
0001
0000
,
1000
0000
0000
0000
,
0100
0000
0010
0000
,
0100
0000
0000
0000
,
1000
1000
1000
0000
,
0000
0000
0000
0000
,
0001
0001
0001
0000
,
1000
1000
1000
0000
,
0010
0010
0010
0000
,
0000
0000
0000
0000
,
0100
0100
0100
0000
,
0010
0010
0010
0000
,
1000
0000
1000
0000
,
0100
0000
0100
0000
,
0010
0000
0010
0000
,
0001
0000
0001
0000
,
1000
0000
1000
0000
,
0001
0000
0001
0000
,
1000
0000
0000
0000
,
1001
0000
0000
0000
,
0001
0000
1000
0000
,
0001
0000
0000
0000
,
0100
0000
0010
0000
,
0100
0000
0000
0000
,
0001
0000
1000
0000
,
0001
0000
0000
0000
,
0010
0000
0100
0000
,
0010
0000
0000
0000
,
0002
0000
0000
0003
,
1000
0000
0001
0000
,
2000
0000
0000
3000
,
0001
0001
0001
0000
,
0200
0000
0000
0300
,
0010
0000
0100
0000
,
0020
0000
0000
0030
,
0100
0100
0100
0000
,
0001
0000
0000
0000
,
1000
0000
0000
0000
,
0100
0000
0000
0000
,
0010
0000
0000
0000
;
