#VERSION:0.83;
#TITLE:Say It Baby;
#SUBTITLE:;
#ARTIST:Natasha;
#TITLETRANSLIT:;
#SUBTITLETRANSLIT:;
#ARTISTTRANSLIT:;
#GENRE:;
#ORIGIN:;
#CREDIT:;
#BANNER:Say It Baby.png;
#BACKGROUND:Say It Baby-BG.png;
#PREVIEWVID:;
#JACKET:Say It Baby-jacket.png;
#CDIMAGE:;
#DISCIMAGE:;
#LYRICSPATH:;
#CDTITLE:;
#MUSIC:Say It Baby.ogg;
#OFFSET:1.777000;
#SAMPLESTART:14.232000;
#SAMPLELENGTH:15.000000;
#SELECTABLE:YES;
#BPMS:0.000=134.980;
#STOPS:;
#DELAYS:;
#WARPS:;
#TIMESIGNATURES:0.000=4=4;
#TICKCOUNTS:0.000=4;
#COMBOS:0.000=1;
#SPEEDS:0.000=1.000=0.000=0;
#SCROLLS:0.000=1.000;
#FAKES:;
#LABELS:0.000=Song Start;
#BGCHANGES:;
#KEYSOUNDS:;
#ATTACKS:
;

//---------------dance-single - OrangeRight----------------
#NOTEDATA:;
#CHARTNAME:OrangeRight;
#STEPSTYPE:dance-single;
#DESCRIPTION:OrangeRight;
#CHARTSTYLE:;
#DIFFICULTY:Beginner;
#METER:1;
#RADARVALUES:0.098333,0.137667,0.000000,0.000000,0.000000,70.000000,70.000000,0.000000,0.000000,0.000000,0.000000,0.000000,0.000000,0.000000,0.098333,0.137667,0.000000,0.000000,0.000000,70.000000,70.000000,0.000000,0.000000,0.000000,0.000000,0.000000,0.000000,0.000000;
#CREDIT:OrangeRight;
#NOTES:
0000
0000
0000
0000
,
0000
0000
0000
0000
,
0000
0000
0000
0000
,
0000
0000
0000
0000
,
0000
0000
0000
0000
,
1000
0000
0000
0000
,
0001
0000
0000
0000
,
1000
0000
0000
0000
,
0001
0000
0000
0000
,
1000
0000
1000
0000
,
1000
0000
0000
0000
,
0001
0000
0001
0000
,
0001
0000
0000
0000
,
1000
0000
1000
0000
,
1000
0000
0000
0000
,
0001
0000
0001
0000
,
0001
0000
0000
0000
,
1000
0000
0000
0000
,
0100
0000
0000
0000
,
1000
0000
0000
0000
,
1000
0000
1000
0000
,
0001
0000
0000
0000
,
0100
0000
0000
0000
,
0001
0000
0000
0000
,
0001
0000
0001
0000
,
1000
0000
0000
0000
,
0010
0000
0000
0000
,
0100
0000
0000
0000
,
0100
0000
0000
0000
,
0001
0000
0000
0000
,
0010
0000
0000
0000
,
0100
0000
0000
0000
,
1000
0000
1000
0000
,
1000
0000
0000
0000
,
0001
0000
0001
0000
,
0001
0000
0000
0000
,
1000
0000
1000
0000
,
1000
0000
0000
0000
,
0001
0000
0001
0000
,
0001
0000
0000
0000
,
1000
0000
0001
0000
,
1000
0000
0000
0000
,
0001
0000
1000
0000
,
0001
0000
0000
0000
,
1000
0000
0001
0000
,
1000
0000
0000
0000
,
0001
0000
1000
0000
,
0100
0000
0100
0000
,
1000
0000
0001
0000
,
1000
0000
0000
0000
,
0001
0000
1000
0000
,
0001
0000
0000
0000
,
1000
0000
0000
0000
,
1000
0000
0000
0000
,
0001
0000
0000
0000
,
0001
0000
1000
0000
,
0100
0000
0000
0000
;

//---------------dance-single - OrangeRight----------------
#NOTEDATA:;
#CHARTNAME:OrangeRight;
#STEPSTYPE:dance-single;
#DESCRIPTION:OrangeRight;
#CHARTSTYLE:;
#DIFFICULTY:Easy;
#METER:4;
#RADARVALUES:0.196666,0.251119,0.029500,0.236000,0.000000,140.000000,137.000000,3.000000,24.000000,0.000000,0.000000,0.000000,0.000000,0.000000,0.196666,0.251119,0.029500,0.236000,0.000000,140.000000,137.000000,3.000000,24.000000,0.000000,0.000000,0.000000,0.000000,0.000000;
#CREDIT:OrangeRight;
#NOTES:
0000
0000
0000
0000
,
0000
0000
0000
0000
,
0000
0000
0000
0000
,
0000
0000
0000
0000
,
0000
0000
0000
0000
,
2000
0000
0000
3000
,
0002
0000
0000
0003
,
1000
0000
0001
0000
,
2002
0000
0000
3003
,
1000
0000
1000
0001
,
0100
0000
0010
0010
,
1000
0000
0001
0010
,
0001
0000
0010
0010
,
0001
0000
0001
1000
,
0010
0000
1000
1000
,
0001
0000
1000
0010
,
2000
0000
0000
3000
,
2000
0000
3100
0000
,
0002
0000
0103
0000
,
0010
0000
1000
0000
,
0001
1000
0001
1000
,
0002
0000
0013
0000
,
2000
0000
3010
0000
,
1000
0100
0010
0001
,
2000
3000
0002
0003
,
1000
1000
0001
0001
,
0100
0000
0010
0100
,
0020
0000
0030
0000
,
0200
0000
0300
0000
,
0001
0001
1000
1000
,
0100
0010
0001
1000
,
0002
0000
0000
0003
,
1000
0000
1000
0001
,
0010
0000
0100
0100
,
1000
0000
0001
0100
,
0001
0000
0100
0100
,
0001
0000
0001
1000
,
0100
0000
1000
1000
,
0001
0000
1000
0100
,
2000
3000
0002
0003
,
1000
1000
0100
0010
,
0001
0000
1000
1000
,
0001
0001
0100
0010
,
1000
0000
0001
0001
,
1000
0010
0100
0001
,
0010
0000
0100
0100
,
1000
0001
1000
0001
,
2002
0000
3003
0000
,
1000
1000
0100
0010
,
0001
0001
0100
0010
,
1000
1000
0001
0010
,
0001
0001
1000
0100
,
2000
0000
3000
0000
,
0002
0000
0003
0000
,
0200
0000
0300
0000
,
0020
0030
1000
0001
,
2002
0000
0000
3003
;

//---------------dance-single - OrangeRight----------------
#NOTEDATA:;
#CHARTNAME:OrangeRight;
#STEPSTYPE:dance-single;
#DESCRIPTION:OrangeRight;
#CHARTSTYLE:;
#DIFFICULTY:Medium;
#METER:7;
#RADARVALUES:0.323095,0.446433,0.216333,0.226166,0.019667,230.000000,208.000000,22.000000,23.000000,0.000000,0.000000,0.000000,0.000000,0.000000,0.323095,0.446433,0.216333,0.226166,0.019667,230.000000,208.000000,22.000000,23.000000,0.000000,0.000000,0.000000,0.000000,0.000000;
#CREDIT:OrangeRight;
#NOTES:
0000
0000
0000
0000
,
0000
0000
0000
0000
,
0000
0000
0000
0000
,
0000
0000
0000
0000
,
0000
0000
0000
0000
,
2000
0100
0000
3100
,
0002
0100
0000
0103
,
1000
0100
0010
0001
,
2002
0000
0000
3003
,
1000
1000
0001
0100
,
0010
0000
0010
1000
0001
0000
1000
0000
,
0001
0001
1000
0010
,
0100
0000
0100
0001
1000
0000
0001
0000
,
1000
0100
0010
0001
,
0100
0000
0010
0100
0010
0000
1000
0000
,
0001
0100
0010
1000
,
0200
0000
0000
0300
,
2001
0000
3100
0000
,
1002
0000
0103
0000
,
0010
1000
0001
0010
,
0100
1000
0001
0100
,
0102
0000
1003
0000
,
2100
0000
3001
0000
,
1000
0001
0010
0100
,
2000
0001
0000
3001
,
1000
0000
0000
1000
0000
0000
1000
0000
0001
0000
0000
0001
0000
0000
0001
0000
,
0100
0000
0010
0000
1000
0001
1000
0000
,
2001
0000
0000
0000
0001
0000
3001
0100
,
0010
0000
1000
0000
0100
0000
1000
0001
,
1000
0000
0100
0000
0010
0000
0001
1000
,
0001
0000
0000
0100
0000
0000
0010
0000
0100
0000
0010
0000
,
0200
0000
0000
0300
,
1002
0000
0013
0100
,
0010
0000
0001
0100
0010
1000
0001
0000
,
2001
0000
3010
0100
,
0010
0000
1000
0100
0010
0001
1000
0000
,
2001
0000
3010
0100
,
0001
0000
0010
0100
1000
0010
0100
0000
,
0120
0000
0130
0010
,
1000
0000
0100
0000
0010
0001
1000
0010
,
1000
0000
0010
1000
0000
1001
0000
0000
,
0001
0000
0010
0100
1000
0001
1000
0000
,
0001
0000
0010
0001
0000
1001
0000
0000
,
1000
0000
0100
0010
0001
0100
0010
0000
,
1000
0000
0100
0001
0000
0100
1000
0000
,
0001
0000
0100
0010
1000
0100
1000
0000
,
0001
0000
0100
1000
0000
0100
0001
0000
,
2002
0000
3003
0000
0001
1000
0001
1000
,
1001
0000
1001
0000
0001
0100
0001
0000
,
1001
0000
1001
0000
1000
0100
1000
0000
,
1001
0000
1001
0000
0010
0001
0010
0000
,
1001
0000
1001
0000
0010
1000
0010
0000
,
2000
0100
0000
0100
,
3002
0100
0000
0100
,
2003
0001
0000
3001
,
1000
0001
1000
0001
,
2002
0000
0000
3003
;

//---------------dance-single - OrangeRight----------------
#NOTEDATA:;
#CHARTNAME:OrangeRight;
#STEPSTYPE:dance-single;
#DESCRIPTION:OrangeRight;
#CHARTSTYLE:;
#DIFFICULTY:Hard;
#METER:10;
#RADARVALUES:0.379285,0.418531,0.236000,0.442500,0.162250,270.000000,246.000000,24.000000,45.000000,0.000000,0.000000,0.000000,0.000000,0.000000,0.379285,0.418531,0.236000,0.442500,0.162250,270.000000,246.000000,24.000000,45.000000,0.000000,0.000000,0.000000,0.000000,0.000000;
#CREDIT:OrangeRight;
#NOTES:
// measure 0
0000
0000
0000
0000
,  // measure 1
0000
0000
0000
0000
,  // measure 2
0000
0000
0000
0000
,  // measure 3
0000
0000
0000
0000
,  // measure 4
0000
0000
0000
0000
,  // measure 5
2000
0100
0000
0100
,  // measure 6
3002
0100
0000
0100
,  // measure 7
1003
0001
0100
0010
1000
0000
0001
0000
,  // measure 8
2002
0000
0000
3003
,  // measure 9
2000
0000
3100
0000
0100
1000
0010
0000
,  // measure 10
0100
0000
0001
0000
0010
0100
1000
0000
,  // measure 11
0002
0000
0103
0000
0100
0001
0010
0000
,  // measure 12
0100
0000
1000
0000
0001
1000
0001
0000
,  // measure 13
2000
0000
3100
0000
0010
0100
1000
0000
,  // measure 14
0001
0000
0100
0000
0010
1000
0001
0000
,  // measure 15
2000
0000
3001
0000
0010
0100
1000
0000
,  // measure 16
2002
0000
0000
3003
,  // measure 17
1000
0000
0100
2000
0000
0000
3010
0100
,  // measure 18
0001
0000
0010
0200
0000
0000
0300
1000
,  // measure 19
0001
0000
0100
0000
0010
0000
1000
0001
,  // measure 20
2000
3200
0302
0203
,  // measure 21
1300
0000
0010
2000
0000
0000
3001
0000
,  // measure 22
0001
0000
0010
0002
0000
0000
1003
0001
,  // measure 23
1000
0000
0100
0000
0010
0000
0001
1000
,  // measure 24
0002
0023
2030
3020
,  // measure 25
0031
0000
0000
0100
0000
0000
0010
0000
1000
0000
0000
0100
0000
0000
0010
0000
,  // measure 26
0001
1000
1010
0110
,  // measure 27
0102
0000
1000
0000
0010
0000
1003
0001
,  // measure 28
0010
0000
0000
0000
0100
0000
0000
1000
0000
0001
0000
1000
0000
0000
0010
0000
,  // measure 29
1010
0000
1000
0010
0100
0000
0010
0100
,  // measure 30
0001
0000
0000
1000
0000
0000
0001
0000
1000
0000
0001
0000
,  // measure 31
2002
0000
0000
0000
3003
1000
0001
1000
,  // measure 32
0002
0000
0013
0200
0000
0310
0001
0000
,  // measure 33
0010
0000
0001
1000
1100
0000
0101
0000
,  // measure 34
0002
0000
0103
0020
0000
1030
0001
0000
,  // measure 35
0010
0000
0001
0100
0101
0000
1100
0000
,  // measure 36
2000
0000
3010
0200
0000
0301
0010
0000
,  // measure 37
0100
0000
0100
1000
1010
0000
0110
0000
,  // measure 38
0002
0000
0013
0200
0000
1300
0100
0000
,  // measure 39
2000
0000
0001
0000
0000
0000
3001
0100
,  // measure 40
0002
0000
0000
0000
0013
0000
0000
0100
0000
1000
0000
0010
0000
0000
0100
0000
,  // measure 41
0001
0000
0001
0100
0010
0000
0110
0000
,  // measure 42
2001
0000
0000
0000
3010
0000
0000
0100
0000
0001
0000
0010
0000
0000
0001
0000
,  // measure 43
0100
0000
0100
0001
1000
0000
1001
0000
,  // measure 44
0120
0000
0000
0000
1030
0000
0000
1000
0000
0100
0000
0010
0000
0000
0001
0000
,  // measure 45
1000
0000
0010
0100
0001
0000
0011
0000
,  // measure 46
0120
0000
0000
0000
0031
0000
0000
0001
0000
0100
0000
0010
0000
0000
1000
0000
,  // measure 47
0002
0000
0000
0000
0003
0000
0000
0000
1000
0001
1000
0001
1000
0000
0000
0000
,  // measure 48
1000
0000
0000
0000
0100
0000
0000
0010
0000
0001
0000
1000
0000
0000
1000
0000
,  // measure 49
0001
0000
0000
0000
0100
0000
0000
0010
0000
1000
0000
0001
0000
0000
0001
0000
,  // measure 50
1000
0000
0000
0000
0001
0000
0000
1000
0000
0010
0000
0100
0000
0000
0001
0000
,  // measure 51
1000
0000
0000
0000
0001
0000
0000
1000
0000
0010
0000
1000
0000
0000
0100
0000
,  // measure 52
2100
0010
0001
3100
,  // measure 53
0102
0010
1000
0103
,  // measure 54
2100
0001
0010
3001
,  // measure 55
0012
1000
0100
1003
,  // measure 56
2002
0000
0000
3003
;

//---------------dance-single - OrangeRight----------------
#NOTEDATA:;
#CHARTNAME:OrangeRight;
#STEPSTYPE:dance-single;
#DESCRIPTION:OrangeRight;
#CHARTSTYLE:;
#DIFFICULTY:Challenge;
#METER:11;
#RADARVALUES:0.421428,0.641747,0.118000,0.403166,0.240916,300.000000,288.000000,12.000000,41.000000,0.000000,0.000000,0.000000,0.000000,0.000000,0.421428,0.641747,0.118000,0.403166,0.240916,300.000000,288.000000,12.000000,41.000000,0.000000,0.000000,0.000000,0.000000,0.000000;
#CREDIT:OrangeRight;
#NOTES:
0000
0000
0000
0000
,
0000
0000
0000
0000
,
0000
0000
0000
0000
,
0000
0000
0000
0000
,
0000
0000
0000
0000
,
2000
0000
0000
0000
,
3002
0000
0000
0000
,
1003
0001
0100
1000
0100
0000
0001
0000
,
2002
0000
0000
0000
3003
0001
0100
0010
,
2000
0000
3100
0020
0000
0130
1000
0000
,
0100
0000
0010
0001
0010
0100
1000
0000
,
0002
0000
0103
0020
0000
0130
0001
0000
,
0100
0000
0010
1000
0010
0100
0001
0000
,
2000
0000
3100
0020
0000
0031
0100
0000
,
0010
0000
0010
1000
0100
0010
0001
0000
,
0002
0000
0103
0020
0000
1030
0010
0000
,
2002
0000
0000
3003
,
2000
0000
3100
0000
,
0002
0000
0000
0000
0103
0000
0000
0001
,
1000
0000
0010
0000
0100
0000
0001
0010
,
2000
3020
0032
0203
,
0302
0100
1003
0000
,
2000
0000
0100
0000
3001
0000
1000
0100
,
0001
0000
0100
0000
1000
0000
0010
0001
,
0020
2030
3200
0302
,
0103
0000
0000
1000
0000
0000
0010
0000
0001
0000
0000
0010
0000
0000
0100
0000
,
0001
1000
0100
0001
,
0200
0000
1000
0000
0010
0000
0301
0100
,
1000
0000
0000
0000
0010
0000
0000
0100
0000
0001
0000
1000
0000
0000
1000
0000
,
0001
0000
0000
0000
0100
0000
0000
0010
0000
1000
0000
0001
0000
0000
0100
0000
,
0010
0000
0000
0100
0000
0000
1010
0000
0110
0000
0101
0000
,
2002
0000
0000
0000
3003
1000
0100
0010
,
2001
0000
0000
0000
3010
0000
0000
0100
0000
0001
0000
0010
0000
0000
0100
0000
,
1000
0000
1000
0001
1000
0010
0100
0000
,
1002
0000
0000
0000
0013
0000
0000
0100
0000
1000
0000
0010
0000
0000
1000
0000
,
0100
0000
0100
1000
0010
1000
0001
0000
,
0120
0000
0000
0000
0031
0000
0000
0001
0000
0010
0000
1000
0000
0000
0010
0000
,
0001
0000
0100
0010
1000
0000
1100
0000
,
0210
0000
0000
0000
0301
0000
0000
0001
0000
0100
0000
1000
0000
0000
0001
0000
,
2000
0000
0000
0000
0000
3001
1000
0100
,
1000
0010
0001
0010
1000
0001
0010
0100
,
1000
0000
0100
0000
0001
0000
0100
0000
1000
0100
1000
0000
0010
0000
1000
0000
,
0001
0010
1000
0010
0001
0100
0010
0100
,
1000
0000
0100
0000
0010
0000
0100
0000
0001
0010
0001
0000
1000
0100
1000
0000
,
0100
1000
0010
0001
0010
1000
0100
0010
,
0001
0000
0100
0000
0010
0000
0100
0000
0001
0100
0001
0000
0100
0000
1000
0000
,
0100
0001
1000
0100
0001
0100
1000
0001
,
2000
0000
0000
0000
0000
0000
0000
0000
3000
0000
0000
0000
1000
0000
0001
0000
1000
0001
1000
0000
0010
0000
0100
0000
0001
0000
1000
0000
0001
0000
0000
0000
,
1000
0000
0010
0000
0100
0000
0010
1000
0000
0100
0000
0010
0000
0001
1000
0000
,
0001
0000
0100
0000
0010
0000
1000
0001
0000
0010
0000
0100
0000
1000
0001
1000
,
0010
0000
0100
0000
0001
0000
0100
0001
0000
0010
0000
0100
0000
1000
0001
0000
,
1000
0000
0010
0000
0100
0000
0001
1000
0000
0001
0000
0010
0000
0001
0100
0010
,
2000
0100
0000
0010
,
3002
0010
0000
0100
,
0203
1000
0010
0001
,
0320
0000
0001
0000
0100
0000
1030
0001
,
2002
0000
0000
3003
;

//---------------dance-double - OrangeRight----------------
#NOTEDATA:;
#CHARTNAME:OrangeRight;
#STEPSTYPE:dance-double;
#DESCRIPTION:OrangeRight;
#CHARTSTYLE:;
#DIFFICULTY:Easy;
#METER:5;
#RADARVALUES:0.203690,0.279021,0.019667,0.265500,0.000000,145.000000,143.000000,2.000000,27.000000,0.000000,0.000000,0.000000,0.000000,0.000000,0.203690,0.279021,0.019667,0.265500,0.000000,145.000000,143.000000,2.000000,27.000000,0.000000,0.000000,0.000000,0.000000,0.000000;
#CREDIT:OrangeRight;
#NOTES:
00000000
00000000
00000000
00000000
,
00000000
00000000
00000000
00000000
,
00000000
00000000
00000000
00000000
,
00000000
00000000
00000000
00000000
,
00000000
00000000
00000000
00000000
,
20000000
00000000
00000000
30000000
,
00020000
00000000
00000000
00030000
,
01000000
00010000
00100000
01000000
,
20000000
00000000
00000000
30000000
,
10000000
00000000
10000000
00000000
,
00010000
01000000
00010000
00100000
,
00001000
00000000
00001000
00000000
,
00010000
00001000
00010000
00000010
,
00001000
00000000
00001000
00000000
,
00000001
00000100
00000001
00000010
,
00000100
00000000
00000100
00000000
,
00002000
00000000
00000000
00003000
,
00000002
00000000
00000000
00000003
,
00002000
00000000
00000000
00003000
,
00000100
00010000
00001000
00100000
,
00001000
00010000
00001000
01000000
,
00020000
00000000
00000000
00030000
,
20000000
00000000
00000000
30000000
,
00100000
01000000
00010000
00100000
,
00002000
00003000
00020000
00030000
,
00000100
00001000
00000010
00000100
,
00000001
00000010
00000100
00001000
,
00000200
00000000
00000000
00000300
,
00010000
00001000
00010000
00001000
,
00100000
00010000
01000000
00100000
,
10000000
01000000
00100000
00010000
,
20020000
00000000
00000000
30030000
,
20000000
00000000
31000000
00100000
,
00010000
00000000
01000000
00001000
,
00020000
00000000
00030100
00001000
,
00000010
00000000
00000100
00000001
,
00000020
00000000
00000130
00001000
,
00000100
00000000
00010000
00001000
,
00200000
00000000
00310000
01000000
,
00200000
00300000
20000000
30000000
,
00010000
01000000
00010000
00010000
,
10000000
00010000
10000000
00010000
,
00100000
00100000
00001000
00010000
,
00000100
00001000
00000100
00000010
,
00000001
00000100
00000001
00000001
,
00001000
00000100
00001000
00000010
,
00010000
00000000
00001000
00000000
00010000
00001000
00010000
00000000
,
00002000
00000000
00000000
00003000
,
00100000
00100000
01000000
10000000
,
00100000
00100000
01000000
00010000
,
00100000
00001000
00010000
00000100
,
00010000
00001000
01000000
00010000
,
20000000
00000000
00000000
30000000
,
00020000
00000000
00000000
00030000
,
00200000
00000000
00000000
00300000
,
00002000
00003000
00020000
00030000
,
00022000
00000000
00000000
00033000
;

//---------------dance-double - OrangeRight----------------
#NOTEDATA:;
#CHARTNAME:OrangeRight;
#STEPSTYPE:dance-double;
#DESCRIPTION:OrangeRight;
#CHARTSTYLE:;
#DIFFICULTY:Medium;
#METER:7;
#RADARVALUES:0.316071,0.446433,0.206500,0.206500,0.019667,225.000000,204.000000,21.000000,21.000000,0.000000,0.000000,0.000000,0.000000,0.000000,0.316071,0.446433,0.206500,0.206500,0.019667,225.000000,204.000000,21.000000,21.000000,0.000000,0.000000,0.000000,0.000000,0.000000;
#CREDIT:OrangeRight;
#NOTES:
00000000
00000000
00000000
00000000
,
00000000
00000000
00000000
00000000
,
00000000
00000000
00000000
00000000
,
00000000
00000000
00000000
00000000
,
00000000
00000000
00000000
00000000
,
20000000
01000000
00000000
31000000
,
00020000
01000000
00000000
01030000
,
01000000
00001000
00010000
00000100
,
00022000
00000000
00000000
00033000
,
00001000
00001000
00100000
00010000
,
01000000
00000000
00100000
10000000
00010000
00000000
10000000
00000000
,
00010000
00010000
10000000
00100000
,
01000000
00000000
00001000
00100000
00010000
00000000
00100000
00000000
,
00001000
00001000
00100000
00001000
,
00010000
00000000
00010000
00000000
00000100
00001000
00000100
00000000
,
00000010
00000001
00000100
00000000
00000010
00001000
00000100
00000000
,
00000020
00000000
00000000
00000030
,
00001002
00000000
00000103
00000000
,
00002001
00000000
00003100
00000000
,
00000100
00010000
00001000
00100000
,
10000000
00100000
00010000
10000000
,
20010000
00000000
31000000
00000000
,
10020000
00000000
01030000
00000000
,
01000000
00001000
00010000
00000100
,
00001000
00000010
00000001
00000010
,
00001000
00000000
00000000
00001000
00000000
00000000
00001000
00000000
00000001
00000000
00000000
00000001
00000000
00000000
00000001
00000000
,
00001000
00000000
00000100
00000000
00010000
00001000
00010000
00000000
,
00021000
00000000
00000100
00000000
00031000
00000000
00001000
00010000
,
00000100
00000000
00000010
00000000
00000001
00000000
00001000
00000001
,
00001000
00000000
00000100
00000000
00000010
00000000
00000001
00001000
,
00000001
00000000
00000000
00000100
00000000
00000000
00000010
00000000
00010000
00000000
00001000
00000000
,
02000000
00000000
00000000
03000000
,
10020000
00000000
00130000
01000000
,
00100000
00000000
00010000
01000000
00100000
10000000
00010000
00000000
,
20010000
00000000
30100000
01000000
,
00100000
00000000
10000000
01000000
00100000
00001000
00010000
00000000
,
00021000
00000000
00030100
00001000
,
00000001
00000000
00000010
00000100
00001000
00000010
00000100
00000000
,
00000210
00000000
00000301
00000001
,
00000100
00000000
00000010
00000000
00001000
00000001
00001000
00000001
,
00001000
00000000
00000010
00000100
00000000
00000110
00000000
00000000
,
00010000
00001000
00100000
00010000
,
10000000
00000000
00100000
01000000
00000000
01100000
00000000
00000000
,
00001000
00010000
00000100
00000010
,
00000001
00000000
00000100
00001000
00000000
00000100
00000001
00000000
,
00001000
00000100
00010000
00001000
,
00010000
00000000
01000000
10000000
00000000
01000000
00010000
00000000
,
02000000
00000000
13000000
00100000
,
10010000
00000000
10010000
00000000
00010000
01000000
00010000
00000000
,
01010000
00000000
01010000
00000000
00010000
01000000
00001000
00000000
,
00011000
00000000
00011000
00000000
00100000
00010000
00100000
00000000
,
00011000
00000000
00011000
00000000
00000010
00001000
00000010
00000000
,
00020000
00001000
00000000
00030100
,
00002000
00010000
00000000
01003000
,
20000000
00010000
00000000
30010000
,
10000000
00010000
10000000
00010000
,
20020000
00000000
00000000
30030000
;

//---------------dance-double - OrangeRight----------------
#NOTEDATA:;
#CHARTNAME:OrangeRight;
#STEPSTYPE:dance-double;
#DESCRIPTION:OrangeRight;
#CHARTSTYLE:;
#DIFFICULTY:Hard;
#METER:10;
#RADARVALUES:0.407381,0.558041,0.334333,0.373666,0.240916,290.000000,256.000000,34.000000,38.000000,0.000000,0.000000,0.000000,0.000000,0.000000,0.407381,0.558041,0.334333,0.373666,0.240916,290.000000,256.000000,34.000000,38.000000,0.000000,0.000000,0.000000,0.000000,0.000000;
#CREDIT:OrangeRight;
#NOTES:
00000000
00000000
00000000
00000000
,
00000000
00000000
00000000
00000000
,
00000000
00000000
00000000
00000000
,
00000000
00000000
00000000
00000000
,
00000000
00000000
00000000
00000000
,
00102000
00010000
00000000
00013000
,
00020010
00001000
00000000
00031000
,
00010000
00001000
00100000
00010000
01000000
00000000
00100000
00000000
,
02200000
00000000
00000000
03300000
,
00200000
00000000
10300000
00000000
01000000
00100000
00010000
00000000
,
02000000
00000000
03001000
00000000
00001000
00010000
00000100
00000000
,
00000020
00000000
00000031
00000000
00000100
00000010
00001000
00000000
,
00000200
00000000
00010300
00000000
00010000
00001000
00100000
00000000
,
02000000
00000000
03100000
00000000
00010000
01000000
00010000
00000000
,
20000000
00000000
31000000
00000000
00100000
00001000
00010000
00000000
,
00002000
00000000
00103000
00000000
00001000
00010000
00000100
00000000
,
00002200
00000000
00000000
00003300
,
00000200
00000000
00001300
00000002
00000000
00000000
00000103
00000010
,
00002000
00000000
00003100
00020000
00000000
00000000
00031000
00000000
,
01000000
00000000
00100000
00000000
01000000
00000000
00010000
00100000
,
00001000
00010000
00000100
00001000
,
00000020
00000000
00000130
00000002
00000000
00000000
00000013
00000000
,
00000200
00000000
00010300
00002000
00000000
00000000
01003000
00100000
,
01000000
00000000
00010000
00000000
10000000
00000000
01000000
00100000
,
01000000
10000000
00010000
01000000
,
00001000
00000000
00000000
00010000
00000000
00000000
01000000
00000000
00010000
00000000
00000000
00001000
00000000
00000000
00000100
00000000
,
00000010
00001000
00000100
00000001
,
00000200
00000000
00001000
00000000
00010000
00000000
00001300
00000100
,
00010000
00000000
00000000
00000000
00001000
00000000
00000000
00100000
00000000
00001000
00000000
00100000
00000000
00000000
00010000
00000000
,
01000000
00000000
00100000
10000000
00010000
00000000
10000000
01000000
,
00100000
00000000
00000000
00010000
00000000
00000000
01000000
00000000
00001000
00000000
00010000
00000000
,
00000200
00000000
00000000
00000300
,
00001100
00000000
00000011
00000000
00000010
00000001
00000100
00000000
,
00000100
00000010
00001000
00000100
00001000
00000000
00010010
00000000
,
00101000
00000000
00010100
00000000
00010000
00000100
00010000
00000000
,
00001000
00100000
00010000
01000000
00100000
00000000
10010000
00000000
,
01010000
00000000
10100000
00000000
00100000
10000000
01000000
00000000
,
01000000
00100000
00010000
01000000
00010000
00000000
00101000
00000000
,
00010010
00000000
01001000
00000000
00001000
01000000
00001000
00000000
,
00020000
00000000
00030010
00000000
00001000
00000001
00000100
00000010
,
00002000
00000000
00000000
00000000
00003100
00000000
00000000
00001000
00000000
00000100
00000000
00010000
00000000
00000000
00001000
00000000
,
00200000
00000000
00000000
00000000
00310000
00000000
00000000
01000000
00000000
00100000
00000000
10000000
00000000
00000000
00010000
00000000
,
00020000
00000000
00000000
00000000
01030000
00000000
00000000
00010000
00000000
01000000
00000000
00001000
00000000
00000000
00010000
00000000
,
00000020
00000000
00000000
00000000
00001030
00000000
00000000
00000100
00000000
00000010
00000000
00000001
00000000
00000000
00001000
00000000
,
00001001
00000000
00000000
00000000
00001100
00000000
00000000
00000100
00000000
00010000
00000000
00001000
00000000
00001000
01000000
00000000
,
01010000
00000000
00000000
00000000
10010000
00000000
00000000
10000000
00000000
01000000
00000000
00100000
00000000
00010000
10000000
00000000
,
10010000
00000000
00000000
00000000
00110000
00000000
00000000
00100000
00000000
00001000
00000000
00010000
00000000
00010000
00000010
00000000
,
00000220
00000000
00000000
00000000
00000330
00000000
00000000
00000000
00000001
00001000
00000001
00001000
00000001
00000000
00000000
00000000
,
00001001
00000000
00000000
00000000
00000101
00000000
00000000
00000001
00000000
00000100
00000000
00000010
00000000
00001000
00000001
00000000
,
00001001
00000000
00000000
00000000
00001100
00000000
00000000
00000100
00000000
00010000
00000000
00001000
00000000
00100000
00010000
00000000
,
10010000
00000000
00000000
00000000
11000000
00000000
00000000
10000000
00000000
01000000
00000000
00100000
00000000
00010000
10000000
00000000
,
10010000
00000000
00000000
00000000
01010000
00000000
00000000
01000000
00000000
00001000
00000000
00010000
00000000
00000010
00001000
00000000
,
00002010
00000001
00000000
00003001
,
00001200
00010000
00000000
00010300
,
00012000
00100000
00000000
00103000
,
00020000
00000000
02030000
00000000
03002000
00000000
00013000
00001000
,
00022000
00000000
00000000
00033000
;

//---------------dance-double - OrangeRight----------------
#NOTEDATA:;
#CHARTNAME:OrangeRight;
#STEPSTYPE:dance-double;
#DESCRIPTION:OrangeRight;
#CHARTSTYLE:;
#DIFFICULTY:Challenge;
#METER:12;
#RADARVALUES:0.421428,0.530139,0.147500,0.236000,0.285166,300.000000,285.000000,15.000000,24.000000,0.000000,0.000000,0.000000,0.000000,0.000000,0.421428,0.530139,0.147500,0.236000,0.285166,300.000000,285.000000,15.000000,24.000000,0.000000,0.000000,0.000000,0.000000,0.000000;
#CREDIT:OrangeRight;
#NOTES:
00000000
00000000
00000000
00000000
,
00000000
00000000
00000000
00000000
,
00000000
00000000
00000000
00000000
,
00000000
00000000
00000000
00000000
,
00000000
00000000
00000000
00000000
,
00202000
00300000
00020000
00033000
,
00020020
00000030
00002000
00033000
,
00010000
01000000
10000000
00100000
00010000
00000000
00001000
00000000
,
00022000
00000000
00000000
00000000
00033000
00100000
00001000
00010000
,
00000010
00000000
00001000
00000000
00000001
00000100
00000001
00000000
,
00000100
00000000
00000010
00001000
00000100
00010000
00001000
00000000
,
00100000
00000000
00010000
00000000
10000000
01000000
10000000
00000000
,
01000000
00000000
00100000
00010000
01000000
00001000
00010000
00000000
,
00001000
00000000
00000000
00000000
00010000
00000000
00000000
00000100
00000000
00001000
00000000
00000100
00000000
00000000
00001000
00000000
,
00000010
00000000
00000000
00000000
00000100
00000000
00000000
00000001
00000000
00000010
00000000
00000100
00000000
00000000
00001000
00000000
,
00000100
00000000
00000000
00000000
00010000
00000000
00000000
00001000
00000000
00100000
00000000
00010000
00000000
00000000
01000000
00000000
,
02200000
00000000
00000000
03300000
,
00200000
00000000
00310000
00000000
,
00000020
00000000
00001030
00000000
,
00010000
00000000
00001000
00000000
00100000
00000000
00010000
01000000
,
00010000
00100000
00001000
00010000
,
00000020
00000100
00001030
00000000
,
00200000
00000000
01000000
00000000
00310000
00000000
10000000
00010000
,
10000000
00000000
01000000
00000000
00100000
00000000
00001000
00010000
,
00001000
00000000
00010000
00000000
00000010
00000100
00000001
00000000
,
00001000
00000000
00000000
00000100
00000000
00000000
00010000
00000000
00001000
00000000
00000000
01000000
00000000
00000000
00010000
00000000
,
10000000
00010000
01100000
10010000
,
02200000
00000000
00000000
00000000
03300000
00000000
01000000
00010000
,
00100000
00000000
00000000
00000000
00001000
00000000
00000000
00010000
00000000
00001000
00000000
00010000
00000000
00000000
00000100
00000000
,
00001000
00000000
00000010
00000100
00000001
00000000
00000010
00000100
,
00001000
00000000
00000000
00010100
00000000
00000000
00101000
00000000
00011000
00000000
00010100
00000000
,
02002000
00000000
00000000
03003000
,
00010000
00000000
00100000
00000000
01000000
00000000
10000000
00100000
00000000
01000000
00000000
00010000
00000000
00100000
00001000
00000000
,
00010000
00000000
00000010
00001000
00000100
00000000
00000100
00000000
,
00001000
00000000
00000100
00000000
00000010
00000000
00000001
00000100
00000000
00000010
00000000
00001000
00000000
00000100
00010000
00000000
,
00001000
00000000
00100000
00010000
01000000
00000000
00100000
00000000
,
10000000
00000000
01000000
00000000
00100000
00000000
00001000
00010000
00000000
00000100
00000000
00001000
00000000
00000100
00010000
00000000
,
00001000
00000000
00010000
00001000
00100000
00000000
00100000
00000000
,
00010000
00000000
00100000
00000000
01000000
00000000
10000000
00100000
00000000
01000000
00000000
00010000
00000000
00100000
00001000
00000000
,
00020000
00000000
00031000
00000000
00001000
00010000
00001000
00010000
,
00000010
00000100
00000001
00000010
00001000
00000010
00000001
00000100
,
00000010
00000000
00001000
00000000
00000100
00000000
00010000
00000000
00001000
00010000
00001000
00000000
00100000
00000000
00010000
00000000
,
10000000
00100000
00010000
00100000
10000000
01000000
00100000
00010000
,
01000000
00000000
00001000
00000000
00010000
00000000
00000010
00000000
00001000
00000010
00001000
00000000
00000001
00000100
00000001
00000000
,
00001000
00000100
00000001
00000100
00001000
00000010
00010000
00001000
,
00100000
00000000
10000000
00000000
00100000
00000000
00010000
00000000
01000000
00010000
01000000
00000000
00100000
00000000
10000000
00000000
,
00010000
01000000
10000000
01000000
00010000
00001000
00000100
00000001
,
00000200
00000000
00000000
00000000
00000300
00000000
00001000
00000100
00000010
00000001
00000100
00000010
00001000
00000100
00010000
00000000
,
00001000
00000000
00000000
00000000
00101000
00000000
00000000
00100000
00000000
00010000
00000000
01000000
00000000
00100000
01000000
00000000
,
00100000
00000000
00000000
00000000
00100000
00000000
00000000
01000000
00000000
00010000
00000000
00100000
00000000
00001000
00010000
00000100
,
00010000
00000000
00000000
00000000
00010010
00000000
00000000
00000010
00000000
00001000
00000000
00000100
00000000
00000010
00000100
00000000
,
00000010
00000000
00000000
00000000
00000010
00000000
00000000
00000100
00000000
00010000
00000000
00001000
00000000
00100000
00010000
01000000
,
00200000
01000000
00000000
10000000
,
00000000
01000000
00000000
00301000
,
00000020
00000100
00000000
00000001
,
00000000
00000100
00000000
00010030
,
00022000
00000000
00000000
00033000
;
