#TITLE:Saturos & Menardi;
#SUBTITLE:(GaMetal Remix);
#ARTIST:Motoi Sakuraba / Jonny Atma;
#TITLETRANSLIT:;
#SUBTITLETRANSLIT:;
#ARTISTTRANSLIT:;
#GENRE:;
#CREDIT:;
#BANNER:;
#BACKGROUND:;
#LYRICSPATH:;
#CDTITLE:;
#MUSIC:Saturos & Menardi (GaMetal Remix).ogg;
#OFFSET:0.000000;
#SAMPLESTART:21.333334;
#SAMPLELENGTH:12.666666;
#LASTBEATHINT:595.000000;
#SELECTABLE:YES;
#BPMS:0.000000=270.000000
,288.000000=300.000000
;
#STOPS:287.500000=1.600000
;
#BGCHANGES:;
#KEYSOUNDS:;
#ATTACKS:;

//---------------dance-single - ----------------
#NOTES:
     dance-single:
     :
     Hard:
     16:
     0.868483,0.981787,0.563341,0.399033,0.000000,777.000000,705.000000,72.000000,51.000000,1.000000,0.000000,0.868483,0.981787,0.563341,0.399033,0.000000,777.000000,705.000000,72.000000,51.000000,1.000000,0.000000:
1100
0000
1000
0100
0000
0000
0101
0000
,
0001
0100
0000
0000
0001
0100
0001
0010
,
1000
0010
0001
0000
0100
0000
0010
0000
,
1000
0000
1000
0100
0000
0010
0001
0000
,
1000
0000
0010
0000
0001
0000
0001
0010
,
0000
0100
0001
0000
0000
0011
0000
0000
,
1100
0000
1000
0001
0000
0001
1000
0000
,
0010
0000
0010
0000
1000
0100
1000
0010
,
0001
0010
1000
0000
0100
0020
0000
0000
,
0031
0000
0001
2000
0000
0000
3100
0000
,
1000
0000
0010
0000
0101
0000
0000
0001
,
1000
0010
1000
0001
,
0100
0001
1000
0100
1000
0001
0010
0001
,
1000
0010
0100
0001
2000
0000
0000
3100
,
2000
3002
0103
0210
,
0302
0000
0000
0013
0002
0000
2003
0000
,
3010
0000
0120
0000
2030
0000
0000
0100
,
0000
3002
0203
0310
,
0021
0000
0000
0100
0000
0000
1000
0000
,
0000
0230
0000
0000
2300
0000
0000
0200
,
0000
3300
0022
0000
0000
0000
0003
0000
,
0130
0000
0010
1000
0000
0000
0100
0000
,
0010
0001
0000
0000
1000
0001
0100
1000
,
0100
0001
0010
0000
0000
1001
0000
0000
,
1000
0000
1000
0010
0000
0100
0001
0000
,
0010
0000
0010
0000
0001
0000
0100
0010
,
0000
0010
1000
0000
0100
0000
0100
0000
,
1000
0000
0001
0010
0000
0001
1000
0000
,
1100
0000
0101
0000
0021
0000
0000
0100
,
0000
0000
2030
0000
0000
3020
0000
0000
,
0031
0000
0001
0100
0000
0010
1000
0000
,
0100
0000
0100
0000
1000
0000
0010
0100
,
0000
0100
0001
0000
0010
0000
0010
0000
,
0001
0000
1000
0100
0000
1000
0001
0000
,
0011
0000
1010
0000
1200
0000
0000
0010
,
0000
0000
0302
0000
0000
0203
0000
0000
,
1300
0000
1000
0000
0100
1000
0000
0001
,
0010
0100
0001
0000
0001
0000
0100
0001
,
0000
0100
0010
0001
1000
0000
1000
0000
,
0010
1000
0000
0010
0001
0010
0100
0000
,
0100
0000
1000
0100
0000
0010
1000
0001
,
0010
0000
0010
0000
0200
1000
0000
0301
,
0100
0010
0001
0000
0001
0000
0200
0001
,
0000
1300
0100
0010
1000
0000
1000
0000
,
0020
0100
0000
0031
0010
0100
0001
0000
,
0001
0000
0020
0100
0000
1030
0010
0100
,
1000
0010
0000
0010
0001
0000
0001
0100
,
0000
0100
1000
0000
1010
0000
0101
0000
,
0010
0000
0010
0001
0000
1000
0100
0000
,
0001
0000
0001
0000
0100
0000
1000
0001
,
0000
0001
0010
0000
1000
0000
1000
0000
,
0010
0000
0100
0001
0000
0100
0010
0000
,
0011
0000
1100
0000
0102
0000
0000
2003
,
0000
0000
0100
0000
0000
0010
0000
0000
,
3100
0000
0100
1000
0000
0001
0010
0000
,
1000
0000
1000
0000
0010
0000
0001
1000
,
0000
1000
0100
0000
0001
0000
0001
0000
,
0100
0000
0010
1000
0000
0010
0100
0000
,
1100
0000
0011
0000
2010
0000
0000
0001
,
0000
0000
3200
0000
0000
2300
0000
0000
,
3001
0000
0001
0100
0000
0100
0010
0000
,
0001
0010
0001
0000
1000
0000
1000
0100
,
0000
0100
0010
0000
1000
0010
1000
0000
,
1000
0000
0100
1000
0010
0100
0001
0000
,
0011
0000
1100
0000
1001
0000
0001
0100
,
0000
0001
0010
0100
1000
0001
0100
0010
,
1000
0000
0100
1000
0100
0000
0001
0000
,
0100
0001
0100
0000
0010
0000
0001
0010
,
0001
0000
1000
0000
0010
1000
0010
0000
,
0100
0001
0100
0001
0000
0000
1000
0100
,
1000
0100
0000
0000
0010
0001
0100
0010
,
1000
0100
0010
0100
0010
0100
0010
010M
,
1000
0100
1000
0100
0010
0000
0001
0010
,
0000
0010
0001
0000
1000
0010
0100
0000
,
0001
0100
0010
1000
0010
0000
1000
0100
,
0000
0100
1000
0000
0010
0100
0001
0000
,
0010
0001
1000
0000
0010
1000
0001
0000
,
0011
0000
0000
1100
0000
0000
1001
0000
,
0001
0100
0010
0000
0100
0001
1000
0000
,
0100
0000
0010
0100
0020
0000
0000
0000
,
0031
0100
0001
0100
0010
0000
1000
0100
,
0010
0000
0001
1000
0000
0010
1000
0000
,
0001
0010
0001
0010
0100
0000
1000
0010
,
0000
0010
1000
0000
0100
0010
0001
0000
,
0011
0000
0000
1100
0000
0000
1002
0000
,
0000
0103
0101
0101
,
1010
0000
0000
1100
0000
0000
2001
0000
,
0000
3100
0110
0110
,
0100
0000
1000
0001
0000
0100
0020
0000
,
0000
1030
0010
0100
,
0001
0010
0001
1000
0100
1000
0100
0000
,
1000
0001
0000
0100
0020
0000
0000
0000
,
0031
0000
1000
0000
0100
0000
0010
1000
,
0001
0010
0100
1000
0001
0000
0010
0100
,
0000
0010
0002
0000
0000
0000
1003
0000
,
0010
0000
0100
0000
1000
0100
0010
1000
,
0100
0010
0001
0000
0100
0010
0000
1000
,
0200
0000
1300
0001
,
0001
0000
1000
0000
0010
0100
0000
0001
,
0020
0000
0031
1000
,
1000
0000
0100
0000
0100
0010
0000
0010
,
0002
0000
1003
0010
,
0001
0000
1000
0100
0020
0000
0000
0000
,
0030
0000
1010
0000
0000
0101
0000
0000
,
1100
0000
0010
0001
1000
0100
1000
0001
,
0010
0001
1000
0100
1000
0001
0010
1000
,
0001
0100
1000
0010
0100
0001
0100
0010
,
1000
0010
0100
0001
0100
0010
1000
0100
,
0010
0001
0100
0000
0000
0001
0000
0000
,
0011
1001
0000
0100
,
0000
1000
0000
0000
1010
0000
1001
0000
,
0000
0000
0011
0000
0000
1000
0000
0000
,
1100
0000
1000
0001
,
0100
0000
1010
0000
0000
0001
0000
0000
,
0101
0000
0001
1000
,
0100
0000
1000
0100
1000
0000
0001
0100
,
0001
0000
1000
0010
1000
0000
0001
0010
,
0001
0000
0100
0010
1000
0000
0100
0010
,
0001
0000
0010
0100
1000
0001
0100
0000
,
0110
0000
0010
1000
0001
0000
0010
0100
,
1000
0000
0011
0000
0000
1100
0000
0000
,
1001
0000
0001
0100
0010
0000
1000
0001
,
0010
0000
0100
0000
0010
0000
0001
1000
,
0001
1000
0010
0100
0001
0000
0010
0100
,
1000
0000
0100
0010
0001
0000
0100
0010
,
1000
0000
0001
0100
1000
0000
0001
0010
,
1000
0100
0001
1000
,
0010
0000
0011
0000
0000
1100
0000
0000
,
1001
0000
0101
0101
,
0101
0000
1010
0000
0000
0101
0000
0000
,
0110
0000
1001
1001
,
1001
0000
0201
0000
0000
0302
0000
0000
,
0013
0100
1000
0001
,
0011
0000
0001
0000
0010
0100
0000
0010
,
0000
0001
0010
0000
1200
0000
0000
2300
,
0000
3010
0001
1000
,
0100
0000
0010
0000
1000
0000
0010
0100
,
0000
0010
0000
1000
0010
0000
2000
0000
,
3200
0000
0310
0001
0000
0010
0000
0001
,
1000
2100
3001
0100
,
0010
1000
0000
0010
0000
1000
0100
0000
,
0110
0000
0001
0000
0100
0000
0010
1000
,
0000
0010
0000
0001
1000
0000
0100
0000
,
0001
0000
0010
0000
0100
0010
0000
1000
,
0000
0001
0100
0000
1000
0000
0010
1000
,
0001
0010
0001
1000
0100
1000
0001
0100
,
0001
1000
0010
1000
0001
0010
0100
1000
,
0001
0100
0010
0000
0100
0010
0000
0000
;

//---------------dance-single - ----------------
#NOTES:
     dance-single:
     :
     Medium:
     12:
     0.600226,0.693026,0.266022,0.477275,0.000000,537.000000,503.000000,34.000000,61.000000,1.000000,0.000000,0.600226,0.693026,0.266022,0.477275,0.000000,537.000000,503.000000,34.000000,61.000000,1.000000,0.000000:
1100
0000
0000
0101
,
0000
0000
0001
0100
,
0010
1000
0100
0010
,
0002
0000
0000
0100
0000
0000
1003
0000
,
0100
0000
0010
0000
0002
0000
0000
0010
,
0000
0000
1003
0000
0000
1100
0000
0000
,
2000
0000
0000
0100
0000
0000
3001
0000
,
0010
0100
0010
0001
,
1000
0000
0010
0000
0000
0100
0000
0000
,
2001
0000
0000
3010
0000
0000
0100
0000
,
0010
0000
1000
0000
0100
0000
0000
1100
,
0000
0000
0011
0000
0000
1002
0000
0000
,
0103
0001
1000
0010
,
1000
0000
0100
0000
0010
0000
0000
1100
,
0000
1000
0001
0100
,
0010
0000
0000
0101
0000
0000
0001
0000
,
1000
0000
0100
0000
0020
0000
0000
0001
,
0000
0130
1000
0001
,
0200
0000
0000
0010
0000
0000
1000
0000
,
0000
0010
0000
0000
0302
0000
0000
0020
,
0000
0033
2200
0000
0000
0000
0000
3300
,
1000
0000
0000
1100
0000
0000
0001
0000
,
0000
0101
0000
0000
0001
0000
0010
0000
,
0100
0000
1000
0000
0000
1002
0000
0000
,
0013
0000
0010
0001
0000
0001
0010
0000
,
0100
0000
1000
0000
0010
0000
0010
1000
,
0000
1000
0010
0000
0100
0000
0001
0000
,
1000
0000
1000
0001
0000
0001
1000
0000
,
0100
0000
0010
0000
0022
0000
0000
0033
,
0000
0000
2200
0000
0000
3300
0000
0000
,
0100
0000
0100
1000
0000
1000
0100
0000
,
0010
0000
0001
0000
0100
0000
0100
0001
,
0000
0001
0100
0000
0001
0000
0010
0000
,
0001
0000
0001
1000
0000
1000
0010
0000
,
0100
0000
0001
0000
2020
0000
0000
3030
,
0000
0000
0202
0000
0000
0303
0000
0000
,
0001
0000
0001
0000
0100
0000
0000
0001
,
0000
1000
1000
0100
,
0000
1000
0000
0000
0010
0000
0010
0000
,
1000
0000
0000
0010
0000
0000
0100
0000
,
0100
0000
0001
0000
0000
1000
0000
0000
,
1100
0000
0100
0000
0010
0000
0000
0100
,
0000
0101
0100
0010
,
0000
0100
0000
0000
1010
0000
1000
0000
,
0001
0000
0000
1000
0000
0000
0011
0000
,
0001
0000
0010
0000
0000
0100
0000
0000
,
1000
0000
0000
1000
0000
0000
0001
0000
,
0000
0001
0000
0000
0110
0000
1001
0000
,
1000
0000
0010
1000
0000
0010
0100
0000
,
0001
0000
0010
0000
0001
0000
0100
0001
,
0000
0100
0010
0000
1000
0000
0001
0000
,
0010
0000
0100
1000
0000
0001
0100
0000
,
0010
0000
0100
0000
0220
0000
0000
0330
,
0000
0000
2002
0000
0000
3003
0000
0000
,
0001
0000
0010
0001
0000
1000
0100
0000
,
1000
0000
0010
0000
1000
0000
0100
1000
,
0000
0001
0010
0000
0001
0000
1000
0000
,
0010
0000
0100
0001
0000
1000
0100
0000
,
0010
0000
0100
0000
2002
0000
0000
3003
,
0000
0000
0220
0000
0000
0330
0000
0000
,
0010
0000
0010
1000
0000
0000
0001
0000
,
0001
0100
0000
0000
1000
0000
1000
0100
,
0000
0000
0001
0000
0001
0010
0000
0000
,
0100
0000
0010
0001
0000
1000
0010
0000
,
1000
1000
0001
0100
,
0010
1000
0010
0100
,
0001
0000
0010
0001
0000
0000
1000
0000
,
0100
1000
0000
0000
0010
0000
1000
0010
,
0000
0000
0100
0000
0001
0100
0000
0000
,
0001
0000
1000
0100
0000
0000
0010
0000
,
0001
1000
0000
0000
0010
0000
0100
0000
,
0001
0000
0010
0000
0010
0000
0010
M000
,
0100
0000
0100
0000
1000
0000
0000
0010
,
0000
1000
0101
0000
,
0100
0000
0100
0000
0001
0000
0000
0010
,
0000
0001
1100
0000
,
1000
1000
0001
0000
,
0010
0000
0000
0001
0000
0000
1000
0000
,
0010
0000
0010
0000
0100
0000
0000
0001
,
0000
0100
2020
0030
,
3100
0100
0010
0000
,
0001
0000
0000
0010
0000
0000
1000
0000
,
0010
0010
0100
1000
,
0001
0100
0010
0010
,
1010
0000
0000
0100
0000
0000
1010
0000
,
0000
1000
0001
0100
,
0011
0000
0000
0100
0000
0000
0011
0000
,
0000
0001
1000
0100
,
2000
0000
0000
3002
0000
0000
0023
0000
,
0000
1030
0010
0001
,
0100
0000
0000
0100
0000
0000
0002
0000
,
0000
2003
0000
0000
3020
0000
0000
0000
,
0031
0010
0100
0020
,
0000
2030
0000
0000
3002
0000
0000
2003
,
0000
3020
0000
1030
,
0100
0000
0001
0000
0100
0000
0000
0100
,
0000
0000
2000
0000
0000
3002
0000
0000
,
0023
0000
0031
0100
,
1000
0000
0200
0000
0000
0302
0000
0000
,
0023
0000
1030
0010
,
0001
0000
1000
0000
0000
0100
0000
0000
,
1000
0000
0010
1000
,
0001
0100
0020
0000
,
0030
0000
0010
0000
0000
1000
0000
0000
,
0001
0010
0100
1000
,
0010
0100
0001
0010
,
0100
0010
0001
0100
,
0010
1000
0100
0010
,
0100
0000
2000
0000
0000
0001
0000
0000
,
3010
2000
0000
3002
,
0000
1000
0000
0000
0103
0000
0002
0000
,
0000
0000
0023
0000
0000
2030
0000
0000
,
3002
0000
0103
1000
,
1000
0010
0001
1000
,
0200
0000
0301
1000
,
0100
1000
1000
0001
,
0001
0100
0100
0010
,
0010
1000
1000
0010
,
0010
0100
0100
0001
,
0001
0010
0010
0001
,
0001
0000
0010
0000
0000
0100
0000
0000
,
1000
0001
0001
0100
,
0100
0010
0010
2000
,
0000
3001
0001
1000
,
1000
0000
0100
0000
0000
0010
0000
0000
,
0100
0001
0001
1000
,
1000
0010
0010
0001
,
0001
0000
0010
0000
0000
0100
0000
0000
,
2000
0000
3001
0100
,
0100
0000
0010
0000
0000
0100
0000
0000
,
0002
0000
1003
0100
,
0100
0000
2000
0000
0000
0001
0000
0000
,
3010
1000
0001
0100
,
0010
0000
0001
0000
0010
1000
0000
0010
,
0000
0000
0100
0000
0002
0000
0000
1000
,
0000
0013
0001
1000
,
0100
0000
0010
0000
1000
0000
0010
0001
,
0000
0010
0000
0000
0100
0000
1000
0000
,
0001
0000
0100
0000
0000
0010
0000
0000
,
0010
0100
0001
1000
,
0100
0000
0000
0010
0000
0000
0010
0000
,
0100
1000
0001
0010
,
0000
0100
0000
0000
0100
0000
0010
0000
,
0001
0000
1000
0000
0010
0000
0000
0100
,
0000
0100
0010
1000
,
0010
0001
1000
0100
,
0001
1000
0100
0001
,
1000
0000
0010
0000
0000
0010
0000
0000
;

//---------------dance-single - ----------------
#NOTES:
     dance-single:
     :
     Easy:
     7:
     0.345381,0.462018,0.297319,0.485099,0.000000,309.000000,271.000000,38.000000,62.000000,1.000000,0.000000,0.345381,0.462018,0.297319,0.485099,0.000000,309.000000,271.000000,38.000000,62.000000,1.000000,0.000000:
0000
0000
0000
0000
,
0000
0000
0000
0000
1000
0000
0000
1000
,
0000
0000
0001
0000
0000
0100
0000
0000
,
0010
0000
0000
1000
,
0000
0010
0000
0000
1000
0000
0000
0000
,
0000
0000
0100
0000
0000
0010
0000
0000
,
0010
0000
0000
0001
,
0000
0010
0000
0000
0001
0000
0000
0001
,
0000
0000
0100
0000
0000
0010
0000
0000
,
1000
0000
0000
0010
,
0000
0000
0000
0000
0010
0000
0000
0001
,
0000
0000
0010
0000
0000
1000
0000
0000
,
0100
0000
0000
1000
0000
0000
0010
0000
,
0000
0100
0000
0000
0001
0000
0000
0001
,
0000
0000
1000
0000
0000
0100
0000
0000
,
1000
0000
0000
1000
0000
0000
0001
0000
,
0000
0100
0000
0000
2000
0000
0000
0000
,
0000
0000
3100
0000
0000
0001
0000
0000
,
0020
0000
0000
0000
,
0000
0000
0230
0000
,
0000
2300
0000
0000
,
3002
0000
0000
0100
0000
0000
2003
0000
,
0000
0100
0000
0000
3002
0000
0000
1003
,
0000
0000
2020
0000
0000
3030
0000
0000
,
0020
0000
0030
0010
,
0000
1000
0000
0000
0200
0000
0000
0000
,
0300
0000
0100
0000
0000
1000
0000
0000
,
0020
0000
0030
1000
,
0000
0001
0000
0000
0020
0000
0000
0000
,
0030
0200
0000
0300
,
0020
0000
0030
0010
,
0000
0001
0000
0000
0200
0000
0000
0000
,
0300
0000
0100
0000
0000
0001
0000
0000
,
0020
0000
0030
0001
,
0000
1000
0000
0000
0020
0000
0000
0000
,
0030
0200
0000
0300
,
0001
0000
0001
0000
,
0000
1000
0000
1000
,
0000
0000
0100
0000
,
0100
0000
0000
0010
,
0000
0010
0000
0000
,
0110
0000
0110
0000
,
0000
1001
0000
1001
,
0000
0000
0101
0000
,
0101
0000
0000
1010
,
0000
1010
0000
0000
,
1000
0000
0000
1000
0000
0000
0001
0000
,
0000
0001
0000
0000
1001
0000
0000
0000
,
0001
0000
0000
0010
0000
0000
1000
0000
,
0000
0010
0000
0000
0001
0000
0000
0100
,
0000
0000
1000
0000
0000
0100
0000
0000
,
0001
0000
0000
0001
0000
0000
1000
0000
,
0000
0100
0000
0000
0022
0000
0000
0000
,
0033
2200
0000
3300
,
1000
0000
0000
0010
0000
0000
0001
0000
,
0000
0010
0000
0000
1000
0000
0000
0100
,
0000
0000
0001
0000
0000
0100
0000
0000
,
1000
0000
0000
1000
0000
0000
0001
0000
,
0000
0100
0000
0000
2020
0000
0000
0000
,
3030
0202
0000
0303
,
0002
0000
0000
0100
0000
0000
2003
0000
,
0000
0100
0000
0000
3002
0000
0000
0010
,
0000
0000
0000
0000
0000
0010
0000
0000
,
2003
0000
0000
0100
0000
0000
3002
0000
,
0000
0023
0000
0000
0230
0000
0000
2300
,
0000
0000
3020
0000
0000
0230
0000
0000
,
0302
0000
0000
1000
,
0000
0000
0203
0000
,
0000
1000
0000
0000
,
0302
0000
0000
0023
,
0000
0000
0230
0000
,
0300
0000
2002
0000
0000
0000
0000
30M3
,
2000
0000
0000
0000
,
3002
0000
0103
0000
,
1020
0000
0100
0000
,
0001
0000
0230
0000
,
0302
0000
0000
0000
,
0023
0000
0230
0000
,
2300
0000
0000
0000
,
3200
0000
0300
0000
,
1002
0000
0000
0000
,
2003
0000
3200
0000
,
0320
0000
1000
0000
,
0100
0000
0031
0000
,
0011
0000
0000
1100
,
0000
0000
1000
0000
,
1010
0000
0000
0101
,
0000
0000
0001
0000
,
1000
0000
0000
0100
,
0000
0000
1000
0000
,
0101
0000
0000
0001
,
0000
0000
0100
0000
,
0000
0001
0000
1010
,
0000
0000
1000
0000
,
0000
0010
0000
0000
,
1000
0000
0011
0000
,
0000
0001
0000
0000
,
0010
0000
0000
0001
,
0000
1000
0000
0000
,
0100
0000
0000
1000
,
0000
0001
0000
0100
,
0000
0010
0000
0001
,
0000
1000
0000
0100
,
0000
0010
0000
1000
,
0000
1100
0000
0000
,
0101
0000
0000
1100
,
0000
0011
0000
0000
,
1010
0000
0000
0011
,
0000
0001
0000
0001
,
0000
0010
0000
0100
,
0000
0100
0000
1000
,
0000
0010
0000
0000
,
0100
0000
0000
0100
,
0000
0010
0000
0000
,
1000
0000
0000
0001
,
0000
0100
0000
0100
,
0000
0001
0000
1000
,
0000
0020
0000
1000
,
0000
0001
0000
2030
,
0000
3100
0000
0100
,
0000
0010
0000
0001
,
0000
2000
0000
0000
,
0000
3002
0000
0103
,
0000
0010
0000
0010
,
0000
1000
0000
0001
,
0000
0200
0000
1000
,
0000
0001
0000
1000
,
0000
0310
0000
0000
,
0101
0000
0000
1100
,
0000
0010
0000
0000
,
1100
0000
0000
0101
,
0000
0001
0000
0010
,
0000
0100
0000
0000
,
0010
0000
0010
0000
,
0100
0000
1000
0000
,
0010
0000
0100
0000
,
0000
0010
0000
0001
,
0000
0001
0000
0010
,
0000
0000
0100
0000
0000
0110
0000
0000
,
0000
0000
1000
0000
,
0001
0000
0000
1001
0000
0000
0000
0000
,
0000
0100
0000
0010
,
0000
0110
0000
0000
0000
0000
0000
0000
,
0001
0000
0000
0000
1000
0000
0000
1001
,
0000
0000
0000
0010
,
0000
1000
0000
0001
,
0000
0010
0000
0100
,
0000
0000
0010
0000
0000
0010
0000
0000
;

//---------------dance-double - ----------------
#NOTES:
     dance-double:
     :
     Challenge:
     17:
     0.868483,0.981787,0.555516,0.422505,0.000000,777.000000,706.000000,71.000000,54.000000,1.000000,0.000000,0.868483,0.981787,0.555516,0.422505,0.000000,777.000000,706.000000,71.000000,54.000000,1.000000,0.000000:
// measure 0
01010000
00000000
01000000
00001000
00000000
00000000
00010010
00000000
,  // measure 1
00001000
00000010
00000000
00000000
00001000
00000100
00001000
00000010
,  // measure 2
00000001
00000010
00001000
00000000
00000100
00000000
00010000
00000000
,  // measure 3
00100000
00000000
10000000
01000000
00000000
00100000
00010000
00000000
,  // measure 4
00100000
00000000
00001000
00000000
00010000
00000000
00010000
00000100
,  // measure 5
00000000
00001000
00000001
00000000
00000000
00000011
00000000
00000000
,  // measure 6
00001010
00000000
00000100
00010000
00000000
00001000
01000000
00000000
,  // measure 7
00100000
00000000
00100000
00000000
10000000
01000000
10000000
00100000
,  // measure 8
00010000
00100000
10000000
00000000
01000000
00200000
00000000
00000000
,  // measure 9
00301000
00000000
00010000
00000200
00000000
00000000
00000301
00000000
,  // measure 10
00000100
00000000
00000010
00000000
00001100
00000000
00000000
00000001
,  // measure 11
00001000
00000010
00010000
00001000
,  // measure 12
01000000
00010000
00100000
00001000
00010000
00000100
00000010
00001000
,  // measure 13
00000001
00000100
00010000
00001000
02000000
00000000
00000000
03010000
,  // measure 14
20000000
30020000
00130000
00102000
,  // measure 15
00023000
00000000
00000000
00030100
00002000
00000000
00003002
00000000
,  // measure 16
00000103
00000000
00000120
00000000
00020030
00000000
00000000
00001000
,  // measure 17
00000000
02030000
23000000
30100000
,  // measure 18
10200000
00000000
00000000
01000000
00000000
00000000
00010000
00000000
,  // measure 19
00000000
02300000
00000000
00000000
03002000
00000000
00000000
00003010
,  // measure 20
00000000
00020200
00000000
00030000
,  // measure 21
00000310
00000000
00000100
00001000
00000000
00000000
00000010
00000000
,  // measure 22
00000100
00000001
00000000
00000000
00000001
00000100
00000010
00010000
,  // measure 23
00000100
00001000
00000010
00000000
00000000
00011000
00000000
00000000
,  // measure 24
00100000
00000000
00001000
01000000
00000000
00001000
00100000
00000000
,  // measure 25
00001000
00000000
00010000
00000000
00000010
00000000
00010000
00000100
,  // measure 26
00000000
00010000
00000010
00000000
00001000
00000000
00000010
00000000
,  // measure 27
00000100
00000000
00000001
00001000
00000000
00000100
00010000
00000000
,  // measure 28
00011000
00000000
01001000
00000000
01200000
00000000
00000000
00320000
,  // measure 29
00000000
00000000
00032000
00000000
00000000
00003200
00000000
00000000
,  // measure 30
00000310
00000000
00001000
00000100
00000000
00010000
00000010
00000000
,  // measure 31
00010000
00000000
00001000
00000000
01000000
00000000
00001000
00100000
,  // measure 32
00000000
00001000
01000000
00000000
00010000
00000000
00100000
00000000
,  // measure 33
01000000
00000000
10000000
00010000
00000000
01000000
00001000
00000000
,  // measure 34
00011000
00000000
00010010
00000000
00000210
00000000
00000000
00000001
,  // measure 35
00000000
00000000
00002300
00000000
00000000
00023000
00000000
00000000
,  // measure 36
01030000
00000000
01000000
00000000
10000000
01000000
00000000
01000000
,  // measure 37
00010000
00001000
00000100
00000000
00000100
00000000
00000001
00000100
,  // measure 38
00000000
00000100
00001000
00010000
00100000
00000000
00100000
00000000
,  // measure 39
10000000
00100000
00000000
00100000
00010000
00001000
00000010
00000000
,  // measure 40
00000010
00000000
00000001
00000010
00000000
00000010
00001000
00010000
,  // measure 41
00000100
00000000
00000100
00000000
00020000
00000100
00000000
00031000
,  // measure 42
00010000
00001000
01000000
00000000
01000000
00000000
00002000
01000000
,  // measure 43
00000000
00013000
00001000
00010000
00000010
00000000
00000010
00000000
,  // measure 44
00020000
00000010
00000000
00031000
00010000
00001000
00100000
00000000
,  // measure 45
00100000
00000000
00002000
00100000
00000000
00013000
00001000
00010000
,  // measure 46
00000100
00010000
00000000
00002000
01000000
00000000
00103000
00001000
,  // measure 47
00000000
00020000
00000010
00000000
00030100
00000000
00001100
00000000
,  // measure 48
00000100
00000000
00010000
00000010
00000000
00010000
00000100
00000000
,  // measure 49
00010000
00000000
00001000
00000000
01000000
00000000
00001000
00100000
,  // measure 50
00000000
00001000
01000000
00000000
00010000
00000000
01000000
00000000
,  // measure 51
00100000
00000000
10000000
00010000
00000000
00100000
00001000
00000000
,  // measure 52
00011000
00000000
00010010
00000000
00000210
00000000
00000000
00002300
,  // measure 53
00000000
00000000
00023000
00000000
00000000
00230000
00000000
00000000
,  // measure 54
01300000
00000000
00010000
00100000
00000000
00001000
01000000
00000000
,  // measure 55
00001000
00000000
00010000
00000000
00000010
00000000
00010000
00000100
,  // measure 56
00000000
00010000
00000010
00000000
00001000
00000000
00000100
00000000
,  // measure 57
00000010
00000000
00000001
00001000
00000000
00000010
00010000
00000000
,  // measure 58
00011000
00000000
01001000
00000000
01200000
00000000
00000000
10000000
,  // measure 59
00000000
00000000
00320000
00000000
00000000
00032000
00000000
00000000
,  // measure 60
00013000
00000000
00000100
00001000
00000000
00000001
00000100
00000000
,  // measure 61
00000100
00000010
00000100
00000000
00001000
00000000
01000000
00010000
,  // measure 62
00000000
10000000
01000000
00000000
01000000
00100000
01000000
00000000
,  // measure 63
00100000
00000000
00010000
01000000
00001000
00010000
00000010
00000000
,  // measure 64
00000110
00000000
00001001
00000000
00001100
00000000
00000100
00010000
,  // measure 65
00001000
01000000
00100000
01000000
00001000
00010000
00000100
00000010
,  // measure 66
00000001
00000000
00000100
00000001
00000100
00000000
00001000
00000000
,  // measure 67
00000100
00001000
00000100
00000000
00000010
00000000
00010000
00000010
,  // measure 68
00010000
00000000
00001000
00000000
01000000
00001000
01000000
00000000
,  // measure 69
00100000
10000000
00100000
10000000
00000000
00000000
00010000
01000000
,  // measure 70
00010000
01000000
00000000
00000000
00001000
00010000
00000100
00000010
,  // measure 71
00001000
00000001
00000100
00010000
00000100
00010000
00000100
M0010000
,  // measure 72
00000001
00000100
00000001
00000100
00000010
00000000
00001000
00000010
,  // measure 73
00000000
00000010
00001000
00000000
00000100
00010000
00001000
00000000
,  // measure 74
01000000
00010000
01000000
00010000
00100000
00000000
10000000
00100000
,  // measure 75
00000000
00100000
10000000
00000000
00100000
00010000
01000000
00000000
,  // measure 76
00010000
00100000
00001000
00000000
00010000
00000100
00001000
00000000
,  // measure 77
00000011
00000000
00000000
00001010
00000000
00000000
00001001
00000000
,  // measure 78
00001000
00000010
00000100
00000000
00000010
00010000
00001000
00000000
,  // measure 79
01000000
00000000
00100000
01000000
00200000
00000000
00000000
00000000
,  // measure 80
10300000
00100000
10000000
00100000
01000000
00000000
00010000
00100000
,  // measure 81
00001000
00000000
00100000
00010000
00000000
01000000
00001000
00000000
,  // measure 82
00010000
00000100
00010000
00000100
00000010
00000000
00000001
00000100
,  // measure 83
00000000
00000100
00000001
00000000
00000010
00000100
00001000
00000000
,  // measure 84
00010100
00000000
00000000
00011000
00000000
00000000
02001000
00000000
,  // measure 85
00000000
03010000
00110000
00110000
,  // measure 86
00101000
00000000
00000000
00011000
00000000
00000000
00010020
00000000
,  // measure 87
00000000
00001030
00001100
00001100
,  // measure 88
00001000
00000000
00000100
00010000
00000000
00001000
00200000
00000000
,  // measure 89
00000000
10300000
00100000
01000000
,  // measure 90
10000000
01000000
10000000
00010000
00100000
00010000
01000000
00000000
,  // measure 91
01000000
00001000
00000000
00010000
00000020
00000000
00000000
00000000
,  // measure 92
00000031
00000000
00001000
00000000
00000100
00000000
00000010
00001000
,  // measure 93
00000001
00000010
00000100
00010000
00001000
00000000
01000000
00001000
,  // measure 94
00000000
00010000
00000020
00000000
00000000
00000000
00001030
00000000
,  // measure 95
00000100
00000000
00010000
00000000
01000000
00100000
00010000
01000000
,  // measure 96
00100000
00010000
10000000
00000000
00010000
00100000
00000000
01000000
,  // measure 97
00002000
00000000
00013000
00000010
,  // measure 98
00000100
00000000
00001000
00000000
00010000
00000100
00000000
01000000
,  // measure 99
00020000
00000000
00130000
01000000
,  // measure 100
10000000
00000000
00100000
00000000
00100000
01000000
00000000
01000000
,  // measure 101
00020000
00000000
00130000
00001000
,  // measure 102
00010000
00000000
00000100
00001000
00000020
00000000
00000000
00000000
,  // measure 103
00000030
00000000
00001010
00000000
00000000
00010100
00000000
00000000
,  // measure 104
01001000
00000000
00100000
00010000
10000000
01000000
10000000
00010000
,  // measure 105
00100000
00010000
10000000
01000000
10000000
00010000
00100000
00001000
,  // measure 106
00010000
00000100
00000010
00000001
00001000
00000100
00001000
00000001
,  // measure 107
00000010
00000001
00001000
00000100
00001000
00000001
00000010
00000100
,  // measure 108
00010000
00001000
01000000
00000000
00000000
00001000
00000000
00000000
,  // measure 109
00110000
10010000
00000000
01000000
,  // measure 110
00000000
00001000
00000000
00000000
00001010
00000000
00001001
00000000
,  // measure 111
00000000
00000000
00000011
00000000
00000000
00000100
00000000
00000000
,  // measure 112
00011000
00000000
00001000
01000000
,  // measure 113
00010000
00000000
10100000
00000000
00000000
01000000
00000000
00000000
,  // measure 114
00011000
00000000
00010000
00000100
,  // measure 115
00000010
00000000
00000001
00000100
00000001
00000000
00001000
00000100
,  // measure 116
00001000
00000000
00000001
00000010
00000001
00000000
00001000
00000010
,  // measure 117
00001000
00000000
00000100
00010000
00001000
00000000
01000000
00001000
,  // measure 118
00010000
00000000
00001000
00100000
01000000
10000000
00010000
00000000
,  // measure 119
10010000
00000000
01000000
00010000
10000000
00000000
01000000
00100000
,  // measure 120
00010000
00000000
00101000
00000000
00000000
00011000
00000000
00000000
,  // measure 121
00010100
00000000
00010000
00000010
00000100
00000000
00000001
00001000
,  // measure 122
00000100
00000000
00000010
00000000
00000100
00000000
00010000
00001000
,  // measure 123
00010000
00001000
00100000
01000000
10000000
00000000
00100000
01000000
,  // measure 124
00010000
00000000
01000000
00100000
10000000
00000000
01000000
00100000
,  // measure 125
00010000
00000000
10000000
01000000
00010000
00000000
01000000
00100000
,  // measure 126
00001000
00010000
00000100
00000010
,  // measure 127
00000001
00000000
00000101
00000000
00000000
00001010
00000000
00000000
,  // measure 128
00010100
00000000
00011000
00011000
,  // measure 129
00011000
00000000
01010000
00000000
00000000
10100000
00000000
00000000
,  // measure 130
10010000
00000000
00101000
00101000
,  // measure 131
00011000
00000000
00001020
00000000
00000000
00002030
00000000
00000000
,  // measure 132
00003100
00000010
00000001
00001000
,  // measure 133
00010100
00000000
00001000
00000000
01000000
00010000
00000000
10000000
,  // measure 134
00000000
00010000
01000000
00000000
10200000
00000000
00000000
20300000
,  // measure 135
00000000
31000000
00100000
00001000
,  // measure 136
00010000
00000000
00010010
00000000
00001000
00000000
00000100
00001000
,  // measure 137
00000000
00000001
00000000
00001000
00000100
00000000
00000001
00000000
,  // measure 138
00000100
00000000
00001000
00000100
00000000
00000010
00000000
00002000
,  // measure 139
00010000
01003000
00010000
01000000
,  // measure 140
10000000
01000000
00000000
00100000
00000000
00020000
00001000
00000000
,  // measure 141
00030100
00000000
00001000
00000000
00000100
00000000
00000001
00000100
,  // measure 142
00000000
00000010
00000000
00000100
00010000
00000000
00011000
00000000
,  // measure 143
00001000
00000000
01000000
00000000
10000000
01000000
00000000
00100000
,  // measure 144
00000000
10000000
00010000
00000000
01000000
00000000
00100000
10000000
,  // measure 145
00010000
01000000
00001000
00100000
00010000
00001000
00000100
00000010
,  // measure 146
00000001
00001000
00000100
00010000
00000010
00000100
00001000
00000100
,  // measure 147
00001000
00000100
00000010
00000000
00010000
00000010
00000000
00000000
;
