#VERSION:0.83;
#TITLE:San Diego;
#SUBTITLE:;
#ARTIST:Redshirt Theory;
#TITLETRANSLIT:;
#SUBTITLETRANSLIT:;
#ARTISTTRANSLIT:;
#GENRE:;
#ORIGIN:;
#CREDIT:;
#BANNER:San Diego.png;
#BACKGROUND:San Diego-bg.png;
#PREVIEWVID:;
#JACKET:San Diego-jacket.png;
#CDIMAGE:;
#DISCIMAGE:;
#LYRICSPATH:;
#CDTITLE:;
#MUSIC:San Diego.ogg;
#OFFSET:-0.035000;
#SAMPLESTART:42.975006;
#SAMPLELENGTH:15.000000;
#SELECTABLE:YES;
#BPMS:0.000=134.000;
#STOPS:;
#DELAYS:;
#WARPS:;
#TIMESIGNATURES:0.000=4=4;
#TICKCOUNTS:0.000=4;
#COMBOS:0.000=1;
#SPEEDS:0.000=1.000=0.000=0;
#SCROLLS:0.000=1.000;
#FAKES:;
#LABELS:0.000=Song Start;
#BGCHANGES:;
#KEYSOUNDS:;
#ATTACKS:
;

//---------------dance-single - ----------------
#NOTEDATA:;
#CHARTNAME:;
#STEPSTYPE:dance-single;
#DESCRIPTION:;
#CHARTSTYLE:;
#DIFFICULTY:Hard;
#METER:10;
#RADARVALUES:0.441571,0.467419,0.217794,0.234547,0.000000,369.000000,343.000000,26.000000,28.000000,0.000000,0.000000,0.000000,0.000000,0.000000,0.441571,0.467419,0.217794,0.234547,0.000000,369.000000,343.000000,26.000000,28.000000,0.000000,0.000000,0.000000,0.000000,0.000000;
#CREDIT:;
#NOTES:
0000
0000
0000
0000
,
0000
0000
0000
0000
,
0000
0000
0000
0000
,
0000
0000
0000
0000
,
1000
0100
0100
1000
0001
0100
0100
0001
,
1000
0100
0100
0010
0001
0100
0100
0010
,
1000
0010
1000
0001
1000
0100
1000
0001
,
0010
0200
0300
1000
0100
0001
0200
0300
,
1000
0000
1100
0000
0100
0010
0001
1000
,
0010
0000
0101
0000
0001
1000
0100
0010
,
0001
0000
1100
0000
1000
0010
0100
0001
,
1000
0000
0101
0000
0001
0100
0110
0000
,
1000
0001
0100
0000
0001
1000
0100
0010
,
1000
0100
0010
0000
0100
1000
0100
0001
,
1000
0010
0001
0000
0010
0100
1000
0001
,
0100
0010
0001
0000
0010
0100
1001
0000
,
2000
0000
0000
3001
0020
0000
0000
0200
,
0000
0000
0000
0030
0000
0310
0001
1000
,
0020
0000
0000
1030
0002
0000
0000
0200
,
0000
0000
0000
0000
0003
0000
0301
1000
,
0020
0100
0000
1000
,
0000
0100
0000
0031
,
0200
0010
1000
0010
,
0002
0000
0300
1003
,
1000
0100
1000
0001
0010
0001
0100
0001
,
0100
0010
1000
0010
0100
0001
1000
0010
,
1000
0010
0001
1000
0010
0100
1000
0001
,
0100
1010
0100
0011
,
0001
0100
0001
1000
0010
1000
0100
1000
,
0100
0010
0001
0010
0100
0010
0001
1000
,
0001
0010
0100
0001
1000
0100
0010
1000
,
0002
0000
0000
0000
0103
0010
1001
0000
,
0001
0002
0003
0100
0001
0010
0001
1000
,
0100
0200
0300
1000
0100
0010
0001
1000
,
0010
0020
0030
0100
0010
0001
0010
1000
,
0001
0002
0003
0001
1000
2000
3000
0010
,
1000
0100
0010
0100
1000
2000
3000
0010
,
0100
0001
1000
0001
0010
0020
0030
0100
,
0010
0100
1000
0001
0100
0200
0300
0001
,
0100
0001
1000
0010
0100
0001
1000
0100
,
0020
0100
0100
0130
,
0110
0011
0110
1100
,
1001
0110
0110
1001
,
1010
0110
0011
1001
,
0220
0000
0000
0330
,
0001
0001
0010
0100
1000
1000
0100
0010
,
0001
0001
0100
0010
1000
1000
0010
0100
,
0001
0001
1000
0100
1000
1000
0001
0100
,
0001
0100
0010
0100
1000
0100
0010
1000
,
0100
1000
0100
0010
0100
0001
0100
1000
,
0100
0010
0100
0010
0100
0010
0100
0010
,
0001
0020
0030
0001
0010
1000
0020
0030
,
0001
0010
0001
0100
0001
0100
0010
1000
,
0010
1000
0100
1000
0010
0100
0010
1000
,
0001
0010
0100
0001
1000
0100
0010
1000
,
0001
1100
1000
0101
,
0001
1000
0001
0100
0010
0100
0001
1000
,
0001
0010
0100
0010
0001
0010
1000
0010
,
0100
0010
1000
0001
0010
0100
0001
1000
,
0020
0000
0000
0000
0030
0100
1001
0000
,
0220
0000
0000
0000
,
0000
0000
0000
0000
,
0330
0000
0000
0000
;

//---------------dance-single - ----------------
#NOTEDATA:;
#CHARTNAME:;
#STEPSTYPE:dance-single;
#DESCRIPTION:;
#CHARTSTYLE:;
#DIFFICULTY:Medium;
#METER:7;
#RADARVALUES:0.277627,0.441451,0.083767,0.552861,0.000000,232.000000,222.000000,10.000000,66.000000,0.000000,0.000000,0.000000,0.000000,0.000000,0.277627,0.441451,0.083767,0.552861,0.000000,232.000000,222.000000,10.000000,66.000000,0.000000,0.000000,0.000000,0.000000,0.000000;
#CREDIT:;
#NOTES:
0000
0000
0000
0000
,
0000
0000
0000
0000
,
0000
0000
0000
0000
,
0000
0000
0000
0000
,
2000
0000
3000
0100
0002
0000
0003
0100
,
2000
0000
3000
0010
0002
0000
0003
0010
,
2000
3002
2003
3002
,
0203
0000
0300
0010
0100
0001
0200
0000
,
0301
0000
1000
0000
0010
1000
0001
0000
,
1000
0000
0001
0000
0010
0001
1000
0000
,
0001
0000
0100
0000
0010
0100
0001
0000
,
1000
0000
0100
0000
0010
0100
1000
0000
,
0001
0000
0100
0000
1000
0100
0001
0000
,
1000
0000
0010
0000
0001
0010
1000
0000
,
0001
0000
0010
0000
1000
0010
0001
0000
,
1000
0000
0100
0000
0001
0100
1000
0100
,
0020
0000
0000
0001
0000
0000
0100
0000
,
0000
1000
0000
0000
0100
0000
0130
0000
,
0002
0023
2030
3200
,
0302
0000
0000
0000
0103
0010
0100
0000
,
0020
0000
0000
1000
0000
0000
0100
0000
,
0000
0001
0000
0000
0100
0000
0130
0000
,
2000
3020
0032
0203
,
2300
0000
0000
0000
3000
1000
0001
0000
,
1000
0000
1000
0100
0000
0100
0010
0000
,
0010
0001
0000
0001
2000
0000
3002
0000
,
0203
0010
1000
0010
,
0302
0000
1003
1001
,
0001
0000
0001
0100
0000
0100
0010
0000
,
0010
1000
0000
1000
0002
0000
2003
0000
,
3200
0010
0001
0010
,
2300
0000
0000
0000
3001
0010
0100
0000
,
0010
0010
0001
0010
,
0100
0100
1000
0100
,
1000
1000
0010
1000
,
0001
0001
0100
0001
,
0100
1000
0100
0001
,
0010
1000
0010
0001
,
1000
0010
0100
0001
,
0010
0001
1000
0100
,
2002
0000
0000
0000
,
0000
0000
0000
3003
,
1001
1001
1100
1100
,
0110
0110
0011
0011
,
0002
0000
0003
1000
0200
0000
0300
0010
,
0002
0000
0003
0010
0200
0000
0300
0100
,
2000
0000
3000
0001
0200
0000
0300
0010
,
2000
0000
3000
0010
0200
0000
0300
0100
,
0002
0000
0003
0100
0020
0000
0030
0010
,
2000
0000
3000
0100
0020
0000
0030
0010
,
0200
0001
1000
0301
,
0020
0000
0000
0031
1000
0001
0200
0000
,
0320
0000
0000
2030
0000
0000
3200
0000
,
0000
0320
0000
0000
1000
0000
1030
0000
,
0002
0023
2030
3200
,
0302
0000
1003
0001
,
0020
0000
0000
0032
0000
0000
0203
0000
,
0000
0320
0000
0000
0001
0000
0031
0000
,
2000
3020
0032
0203
,
2300
0000
0000
0000
3000
0001
1000
0001
,
0020
0000
0000
0000
,
0000
0000
0000
0000
,
0030
0000
0000
0000
;

//---------------dance-single - ----------------
#NOTEDATA:;
#CHARTNAME:;
#STEPSTYPE:dance-single;
#DESCRIPTION:;
#CHARTSTYLE:;
#DIFFICULTY:Easy;
#METER:4;
#RADARVALUES:0.202237,0.259677,0.041883,0.351821,0.000000,169.000000,164.000000,5.000000,42.000000,0.000000,0.000000,0.000000,0.000000,0.000000,0.202237,0.259677,0.041883,0.351821,0.000000,169.000000,164.000000,5.000000,42.000000,0.000000,0.000000,0.000000,0.000000,0.000000;
#CREDIT:;
#NOTES:
0000
0000
0000
0000
,
0000
0000
0000
0000
,
0000
0000
0000
0000
,
0000
0000
0000
0000
,
1000
0100
0010
0001
,
0001
0010
0100
1000
,
0001
0001
0001
0001
,
2000
0000
3001
1001
,
1000
0100
0000
1000
,
0001
0100
0000
0001
,
1000
0100
0000
1000
,
0001
0001
1000
1000
,
0001
0010
0000
0001
,
1000
0010
0000
1000
,
0001
0010
0000
0001
,
0100
0100
0010
0010
,
2000
3000
0020
0030
,
2000
3000
0200
0300
,
1000
0001
1000
0010
,
0200
0000
0000
0300
,
0002
0003
0200
0300
,
0002
0003
0020
0030
,
0001
1000
0001
0100
,
0020
0000
0000
0030
,
2000
3000
0200
0300
,
0020
0030
0200
0300
,
1000
0100
1000
0001
,
0020
0000
0000
0030
,
0002
0003
0200
0300
,
0020
0030
0200
0300
,
0001
0100
0001
1000
,
0020
0000
0030
1001
,
1000
0100
1000
0100
,
0010
0001
0010
0001
,
0100
0001
0100
0001
,
1000
0010
1000
0010
,
0100
0001
0100
0001
,
0010
0001
0010
0001
,
1000
0010
1000
0010
,
1000
0100
1000
0100
,
0020
0000
0000
0000
,
0000
0000
0000
0030
,
0010
0010
0010
0010
,
0010
0001
1000
0010
,
0200
0300
0002
0003
,
2000
3000
0020
0030
,
2000
3000
0200
0300
,
0020
0030
0002
0003
,
0001
0100
0010
1000
,
1000
0010
0100
0001
,
1000
1000
1000
1000
,
2000
0000
3001
1001
,
0002
0003
0200
0300
,
2000
3000
0200
0300
,
0001
0100
1000
0010
,
0001
0000
0001
1001
,
2000
3000
0200
0300
,
0002
0003
0200
0300
,
1000
0100
0001
0010
,
2000
0000
0000
3001
,
2002
0000
0000
0000
,
0000
0000
0000
0000
,
3003
0000
0000
0000
;

//---------------dance-single - ----------------
#NOTEDATA:;
#CHARTNAME:;
#STEPSTYPE:dance-single;
#DESCRIPTION:;
#CHARTSTYLE:;
#DIFFICULTY:Beginner;
#METER:1;
#RADARVALUES:0.098127,0.150780,0.041883,0.000000,0.000000,82.000000,77.000000,5.000000,0.000000,0.000000,0.000000,0.000000,0.000000,0.000000,0.098127,0.150780,0.041883,0.000000,0.000000,82.000000,77.000000,5.000000,0.000000,0.000000,0.000000,0.000000,0.000000,0.000000;
#CREDIT:;
#NOTES:
// measure 0
0000
0000
0000
0000
,  // measure 1
0000
0000
0000
0000
,  // measure 2
0000
0000
0000
0000
,  // measure 3
0000
0000
0000
0000
,  // measure 4
1000
0000
1000
0000
,  // measure 5
0001
0000
0001
0000
,  // measure 6
0010
0000
0000
0000
,  // measure 7
0010
0000
0000
0000
,  // measure 8
0001
0000
0001
0000
,  // measure 9
0100
0000
0100
0000
,  // measure 10
0010
0000
0010
0000
,  // measure 11
1000
0000
1000
0000
,  // measure 12
0001
0000
0001
0000
,  // measure 13
0010
0000
0010
0000
,  // measure 14
0100
0000
0100
0000
,  // measure 15
1000
0000
1000
0000
,  // measure 16
1001
0000
0000
0000
,  // measure 17
0000
0000
0000
0000
,  // measure 18
0100
0000
0000
0000
,  // measure 19
0010
0000
0000
0000
,  // measure 20
0110
0000
0000
0000
,  // measure 21
0000
0000
0000
0000
,  // measure 22
0001
0000
0000
0000
,  // measure 23
1000
0000
0000
1001
,  // measure 24
0001
0000
0100
0000
,  // measure 25
0001
0000
0100
0000
,  // measure 26
0010
0000
1000
0000
,  // measure 27
0010
0000
0000
0000
,  // measure 28
1000
0000
0100
0000
,  // measure 29
1000
0000
0100
0000
,  // measure 30
0010
0000
0001
0000
,  // measure 31
0010
0000
0000
0000
,  // measure 32
0001
0000
0000
0000
,  // measure 33
0100
0000
0000
0000
,  // measure 34
0010
0000
0000
0000
,  // measure 35
1000
0000
0000
0000
,  // measure 36
1000
0000
0000
0000
,  // measure 37
0100
0000
0000
0000
,  // measure 38
0010
0000
0000
0000
,  // measure 39
0001
0000
0000
0000
,  // measure 40
1001
0000
0000
0000
,  // measure 41
0000
0000
0000
0000
,  // measure 42
0000
0000
0000
0000
,  // measure 43
0000
0000
0000
0000
,  // measure 44
1000
0000
0000
0000
,  // measure 45
0001
0000
0000
0000
,  // measure 46
1000
0000
0000
0000
,  // measure 47
0001
0000
0000
0000
,  // measure 48
1000
0000
1000
0000
,  // measure 49
0001
0000
0001
0000
,  // measure 50
0010
0000
0000
0000
,  // measure 51
0010
0000
0000
0000
,  // measure 52
0001
0000
0100
0000
,  // measure 53
0001
0000
1000
0000
,  // measure 54
0001
0000
0010
0000
,  // measure 55
0001
0000
0000
0000
,  // measure 56
1000
0000
0100
0000
,  // measure 57
1000
0000
0001
0000
,  // measure 58
1000
0000
0010
0000
,  // measure 59
1000
0000
0000
0000
,  // measure 60
1001
0000
0000
0000
;
