#VERSION:0.83;
#TITLE:最強STRONGER;
#SUBTITLE:;
#ARTIST:REDALiCE vs USAO;
#TITLETRANSLIT:;
#SUBTITLETRANSLIT:;
#ARTISTTRANSLIT:;
#GENRE:;
#CREDIT:;
#MUSIC:Saikyo Stronger.ogg;
#BANNER:Saikyo Stronger.png;
#BACKGROUND:Saikyo Stronger-bg.png;
#CDTITLE:;
#SAMPLESTART:112.371;
#SAMPLELENGTH:15.000;
#SELECTABLE:YES;
#OFFSET:0.897;
#BPMS:0.000=205.000
,124.000=102.500
,140.000=205.000
,148.000=102.500
,156.000=205.000
;
#STOPS:;
#SPEEDS:0.000=1.000=0.000=0;
#SCROLLS:0.000=1.000;
#TICKCOUNTS:0.000=4;
#TIMESIGNATURES:0.000=4=4;
#LABELS:0.000=Song Start,
124.500=Avenger ESP (Start),
127.000=Avenger ESP (End),
132.000=Avenger ESP (Start),
135.500=Avenger ESP (End),
420.000=Avenger ESP,
424.000=Avenger ESP (End),
452.000=Beautiful Dream CSP,
456.000=Beautiful Dream CSP (End)
;
#COMBOS:0.000=1;
#ORIGIN:;
#PREVIEWVID:;
#JACKET:Saikyo Stronger-jacket.png;
#CDIMAGE:;
#DISCIMAGE:;
#BGCHANGES:2.000=Saikyo Stronger.avi=1.000=0=0=0=StretchNoLoop====,
99999.000=-nosongbg-=1.000=0=0=0=StretchNoLoop====
;
#FGCHANGES:;

//--------------- dance-single - Talkion ----------------
#NOTEDATA:;
#STEPSTYPE:dance-single;
#DESCRIPTION:Talkion;
#DIFFICULTY:Beginner;
#METER:6;
#RADARVALUES:0,0,0,0,0;
#NOTES:
0000
0000
0000
0000
,
0000
0000
0000
0000
,
0000
0000
0000
0000
,
0000
0000
0000
0000
,
0000
0000
0000
0000
,
0000
0000
0000
0000
,
0000
0000
0000
0000
,
0000
0000
0000
0000
,
1001
0000
0000
0000
,
0001
0000
0001
0000
,
0001
0000
0001
0000
,
1000
1000
1000
1000
,
1000
0000
0000
0000
,
0001
0000
0001
0000
,
0001
0000
0001
0000
,
0001
0000
0001
0000
,
0020
0030
0200
0300
,
1000
0000
1000
0000
,
0001
0000
1000
0000
,
0001
0000
0001
0000
,
0100
0000
0000
0000
,
0010
0000
0010
0000
,
0100
0000
0010
0000
,
0100
0000
0010
0000
,
1000
0000
0001
0000
,
1000
0000
1000
0000
,
1000
0000
1000
0000
,
0001
0000
0000
0001
0000
0000
0001
0000
,
0002
0000
0003
0000
,
1000
0000
0001
0000
,
1001
0000
0110
0000
,
0000
1001
0000
0110
,
0000
1001
0000
0110
,
0000
1001
0000
0110
,
0000
1001
2000
0000
,
3100
0000
0100
0000
,
0100
0100
0100
0000
,
0010
0001
0100
0001
,
0010
0001
0100
0001
,
0000
1000
0000
1000
,
0000
1000
0000
1000
,
0000
0001
0000
0001
,
0000
0001
0001
0000
,
0100
0000
0010
0000
,
0100
0000
0010
0000
,
1000
0000
0001
0000
,
1000
0000
0001
0000
,
0010
0000
0010
0000
,
0010
0000
0010
0000
,
0100
0000
0000
0100
0000
0000
0100
0000
,
0200
0000
0300
0000
,
0000
0000
0000
0000
,
0000
0000
0000
0000
,
0000
0000
0000
0000
,
0000
0000
0000
0000
,
0000
1000
0000
1000
,
0000
1000
0000
1000
,
0000
1000
0000
1000
,
2000
0000
3000
0000
,
1001
0000
0000
1001
0000
0000
0000
0000
,
0001
0000
0000
0000
,
1001
0000
0000
1001
0000
0000
0000
0000
,
1000
0000
0000
0000
,
1001
0000
0000
1001
0000
0000
0000
0000
,
0001
0000
0001
0000
,
1001
0000
0000
1001
0000
0000
0000
0000
,
1000
1000
1000
1000
,
0001
0000
0001
1001
,
1000
0000
1000
1001
,
0001
0000
0001
1001
,
1000
0000
0010
0110
,
0100
0000
0100
0000
,
0100
0100
0100
0100
,
0200
0000
0300
0000
,
0020
0000
0030
0010
,
1000
1000
1000
0000
,
0001
0001
0001
0000
,
1000
1000
1000
0000
,
0001
0001
0001
0000
,
1000
1000
0100
0000
,
0001
0001
0100
0000
,
1000
1000
0001
0000
,
0200
0000
0300
0000
,
1002
0000
0000
0000
,
0000
0000
0003
0000
,
1000
0001
1000
0001
,
1000
0001
1000
0000
,
0000
1001
0000
1001
,
0000
0110
0000
0110
,
0000
1001
0000
1001
,
0002
0000
0003
0000
,
1000
0100
1000
0000
,
0001
0100
0001
0000
,
1000
0010
1000
0000
,
0001
0010
0001
0000
,
1000
0001
0100
0000
,
0001
1000
0100
0000
,
1000
0001
1000
0001
,
1000
0000
0000
1000
0000
0000
1000
0000
,
2000
0000
3000
0000
,
0001
1000
0001
0000
,
1000
0010
1000
0000
,
0001
0010
0001
0000
,
1000
0100
0010
0000
,
0001
0010
0100
0000
,
1000
1000
1000
1000
,
0002
0000
0003
0000
,
0100
0000
0100
0000
,
0100
0000
0100
0000
,
0100
0000
0100
0000
,
0100
0100
0100
0000
,
0010
0000
0010
0000
,
0010
0000
0010
0000
,
0010
0010
0010
0010
,
0010
0000
0000
0000
,
1001
0000
0000
0000
;

//--------------- dance-single - Talkion ----------------
#NOTEDATA:;
#STEPSTYPE:dance-single;
#DESCRIPTION:Talkion;
#DIFFICULTY:Easy;
#METER:12;
#RADARVALUES:0,0,0,0,0;
#NOTES:
0000
0000
0000
0000
,
0000
0000
0000
0000
,
0000
0000
0000
0000
,
0000
0000
0000
0000
,
0000
0000
0000
0000
,
0000
0000
0000
0000
,
0000
0000
0000
0000
,
0000
0000
0000
0000
,
1001
0000
0000
0000
,
0001
0001
0001
0001
,
0100
0100
0010
0010
,
1000
0001
1000
0001
1000
0001
1000
0001
,
0020
0000
0000
0130
,
1000
1000
0001
0001
,
1000
1000
0001
0001
,
0100
0100
0010
0010
,
2000
3000
0022
0033
,
0001
0000
1000
0010
0000
0100
0010
0000
,
1000
1000
0001
0000
1000
0100
0010
0000
,
0001
0000
1000
0001
0100
0001
1000
0000
,
0100
0000
1000
1000
,
0001
0000
0100
0010
0000
0100
0001
0000
,
1000
1000
0001
0000
0010
0100
1000
0000
,
0001
0000
0100
0001
0010
0000
0001
0000
,
1000
0010
0001
0110
,
1000
0000
0001
1000
0100
0100
0010
0000
,
0001
0000
1000
0001
0100
0100
0010
0000
,
1000
0000
0000
1000
0000
0000
0001
0000
0000
0001
0000
0000
0010
0000
0100
0000
,
2000
0000
0000
0000
,
3001
0000
1000
0000
,
0021
0000
1030
0000
,
0010
0001
0100
0010
1010
0010
0011
0010
,
1010
0010
0011
0010
1000
0002
0013
0000
,
0010
0001
1000
0010
0100
0001
1000
0100
,
0020
0000
0130
0010
0002
0000
0000
0000
,
1003
0000
0001
0000
,
1100
0101
1001
0000
,
1000
0000
0100
1000
0001
0000
0001
0000
0001
0000
0100
0000
0010
0000
1000
0000
,
0001
0000
0010
0001
1000
0000
1000
0000
1000
0000
0100
0000
0010
0000
0001
0000
,
1000
1010
0000
0011
,
0000
0101
0000
1100
,
0000
1001
0000
0101
,
0100
0010
1000
0001
,
0010
0010
0001
0001
,
1000
0000
1000
0000
0010
0000
0010
0100
,
0001
0001
1000
1000
,
0100
0100
0020
0030
,
0001
1000
0010
0100
0000
0001
0000
1000
,
0000
0100
0010
0001
0000
1000
1000
0000
,
0001
0100
0001
1000
0100
1000
0001
0000
,
0200
0310
2000
3001
,
0020
0000
0000
0000
,
0000
0000
0000
0000
,
0230
0000
0000
0000
,
0000
0000
0000
0000
,
1300
0010
1000
0001
,
1000
0100
1000
0001
,
1000
0010
1000
0001
,
0020
0000
0000
0130
,
1001
0000
0000
0101
0000
0000
2100
0000
,
0000
0010
0000
3010
,
0110
0000
0000
1001
0000
1000
0002
0000
,
0000
0010
0000
0013
,
0001
0000
1000
0010
0100
0010
1000
0000
,
0001
0010
0100
0010
0001
0000
0000
0000
,
1001
0000
0000
0011
0000
0000
1010
0000
,
0001
0001
0001
0001
,
1100
1100
1100
1001
,
0101
0101
0101
1001
,
1010
1010
1010
1001
,
0011
0011
0011
1001
,
1000
0010
0001
0010
,
1000
0100
0010
0001
,
0200
0000
0000
0000
,
0320
0000
1030
1001
,
0001
0010
0100
1000
0000
0001
0000
0100
,
0000
1000
0100
0010
0000
1000
0001
0000
,
1000
0100
0010
0001
0000
1000
0000
0010
,
0000
0001
0010
0100
0000
0001
1000
0000
,
0100
0001
0100
0010
0000
0001
0000
1000
,
0000
0010
0100
0001
0000
0100
0010
0000
,
1000
0010
1000
0001
0010
0001
1000
0010
,
2000
3002
0023
0230
,
2300
0000
0000
0000
0000
0000
0000
3001
,
0000
0100
0010
1000
0000
0001
0001
0000
,
1000
1000
0001
0001
,
0100
0010
0100
0001
0000
1000
0100
0000
,
0010
0011
0000
1001
,
0000
1010
0000
0110
,
0100
0010
0100
0001
1000
0001
0100
0010
,
2000
0100
3001
1001
,
1000
0000
0100
0001
0000
0100
1000
0000
,
0001
0001
0100
0000
1000
0100
0001
0000
,
1000
0000
0001
0010
0000
1000
0010
0000
,
0001
0001
1000
0001
0100
0010
1000
0000
,
0001
0000
1000
0100
0000
0001
0100
0000
,
0010
0010
0001
0000
0010
0001
0100
0000
,
0010
1000
0002
0000
0013
0001
2000
0000
,
3010
0000
0000
0010
0000
0000
0100
0000
0000
0100
0000
0000
0001
0000
0000
0000
,
2000
0000
0000
3100
,
0010
0001
0100
0010
0000
1000
0001
0000
,
1000
0100
0010
0001
0000
1000
0000
0010
,
0000
0001
0010
1000
0000
0001
0010
0000
,
0001
1000
0010
0100
0000
0001
0000
1000
,
0100
0010
0001
1000
0000
0000
1001
0000
,
0001
0100
0010
1000
0100
0010
0001
0100
,
0010
0100
0001
1001
,
1000
0100
0010
0010
,
0010
0010
0010
0010
,
0001
0001
1000
1000
,
0010
0200
0310
1001
,
0001
0010
1000
0000
0001
0100
1000
0000
,
0001
0010
1000
0000
0001
0100
1000
0000
,
0001
1000
0001
1000
0001
1000
0001
1000
,
0010
0000
0100
0000
,
1001
0000
0000
0000
;

//--------------- dance-single - Talkion ----------------
#NOTEDATA:;
#STEPSTYPE:dance-single;
#DESCRIPTION:Talkion;
#DIFFICULTY:Medium;
#METER:15;
#RADARVALUES:0,0,0,0,0;
#NOTES:
0000
0000
0000
0000
,
0000
0000
0000
0000
,
0000
0000
0000
0000
,
0000
0000
0000
0000
,
0000
0000
0000
0000
,
0000
0000
0000
0000
,
0000
0000
0000
0000
,
0000
0000
0000
0000
,
1001
0000
0000
0000
,
1000
0000
0100
1000
0000
0010
0100
0001
,
1000
1000
0001
0010
0100
1000
0001
0000
,
0100
0010
0100
0010
1000
1000
1000
1000
,
0002
0000
0000
0000
0000
0000
0000
0000
0000
0000
0000
0000
0013
0000
0100
0010
,
0001
0001
1000
1000
,
0010
0000
0010
0000
0100
0000
0100
0002
,
1003
1000
0100
0100
,
0020
1000
0031
1001
,
1000
1000
0010
0100
0000
0001
1000
0001
,
0010
0010
1000
0010
0100
1000
0001
0000
,
0200
0000
0000
0310
0100
0000
0001
1000
0001
0000
0010
0000
0100
0000
1000
0000
,
0002
0000
0000
0000
0103
0000
0000
0000
0010
0000
0000
0010
1000
0000
0001
0000
,
1000
1000
0100
0010
0000
0001
1000
0001
,
0100
0100
1000
0100
0010
1000
0001
0000
,
1000
0000
0100
1000
0020
0130
0010
1000
,
0002
0000
0013
0000
0100
0010
1001
0000
,
0001
0100
0001
1000
0100
1000
0001
0100
,
0010
0010
1000
0100
0010
0001
0100
0010
,
1000
0000
0000
0001
0000
0000
0010
0000
0000
0100
0000
0000
1000
0001
1000
0001
,
0200
0000
0000
0300
,
0110
1000
0110
0001
,
0110
1001
1200
0301
,
0100
0000
0010
0001
0200
0300
0201
0300
1200
0300
0201
0300
1200
0300
0201
0300
,
0210
0300
2001
0000
3100
0000
0010
0001
0000
0001
2000
0000
3010
0000
0100
0000
,
0001
0000
2000
0000
3200
0000
0302
0000
1003
0000
0010
0100
1000
0100
0010
0000
,
0002
0000
1003
0001
0100
0010
1000
0000
0200
0000
0001
0000
0000
0000
0300
0000
,
0110
0000
1001
0000
,
0101
0000
0000
0001
0000
1000
0200
0000
0000
0000
0000
0000
,
0310
0000
0001
1000
0020
0030
0021
0030
1020
0030
0010
1000
0100
0010
0001
0000
,
0100
0000
0001
1000
0200
0300
0201
0300
1200
0300
0100
1000
0010
0100
0001
0000
,
1001
0000
0012
0000
0103
0010
1010
0000
,
1001
0000
2100
0000
3010
0100
0101
0000
,
0001
0000
0000
1000
0000
0000
0100
0000
0000
0010
0000
0000
0001
1000
0001
1000
,
0010
0100
0001
0100
0010
1000
0001
0000
,
1001
0000
1000
0100
0001
0100
0010
0000
,
0010
1000
0001
0100
1000
0001
0100
0100
,
0001
0000
1000
0100
0010
0001
1000
0000
,
1000
0000
0010
0000
0001
0000
0010
0000
0100
0000
0000
0000
0010
1000
0010
0100
,
0001
1000
0100
0010
0000
0010
0100
1000
,
0000
1000
0001
0100
0010
1000
1001
0000
,
0002
0010
1003
2000
0010
3001
1000
0100
,
0010
0001
0100
0010
2000
0000
3001
0000
,
0020
0000
0000
0000
,
0000
0000
0000
0000
0000
0001
0000
0000
,
0230
0000
0000
0000
,
0000
0000
0000
0000
0000
1000
0000
0000
,
0310
0010
0001
0001
,
1000
1000
0010
0010
,
0100
0100
0001
0001
,
2000
0000
0000
0000
3002
0000
0000
0000
0023
0000
0000
0000
0031
0010
0100
1000
,
0002
0000
0003
0101
0000
0000
1001
0000
,
1000
0100
0010
0100
1000
0001
0101
0000
,
0200
0000
0300
0110
0000
0010
1010
0000
,
1000
0001
0010
0001
1000
0010
0110
0000
,
0101
0000
0000
0000
0000
0000
0001
0000
0000
1000
0000
0000
0100
0000
0000
1000
0000
0000
0001
0000
0100
0000
0001
0000
,
0100
0010
1000
0010
0200
0000
0301
0000
,
2000
0000
0001
3001
1000
0000
0100
0000
,
0010
0010
0010
1001
,
0001
0100
0001
0100
0000
0001
1000
0100
1000
0100
0000
0000
,
0010
0001
0010
0001
0000
1000
0010
0100
0010
0100
0000
0000
,
0001
1000
0100
0010
0000
0001
1000
0010
0100
0001
0000
1000
,
0001
0010
0100
1000
0000
0001
0200
0000
0000
0310
0000
0000
,
1010
0000
0000
0011
0000
0000
1010
0000
0000
0011
0000
0001
,
1000
0000
1000
0100
0000
0100
0010
0000
0010
0001
1000
0001
,
0200
0000
1000
0301
,
1000
0100
0001
0010
1000
0000
1001
0000
,
0001
0010
0100
1100
0000
1001
0000
0101
,
0000
0000
0100
0000
1000
0000
0001
0000
0010
0000
1000
0000
0001
0000
1000
0100
,
0010
0001
1000
1010
0000
0110
0000
1001
,
0000
0000
0001
0000
1000
0000
0100
0000
0010
0000
0001
0000
1000
0000
0010
0100
,
0001
0100
0010
1010
0000
1001
0000
0011
,
0000
0000
0010
0000
1000
0000
0001
0000
0100
0000
1000
0000
0001
0000
0100
0010
,
1000
0001
1000
0100
0001
1000
0010
0001
,
0010
0000
0100
0000
1000
0000
0001
0000
0200
0000
0000
0000
0310
0100
0010
1000
,
0002
0000
0000
0010
0000
0013
0000
0210
,
0000
0000
1300
0100
0010
0000
0002
0000
0000
0000
1000
0000
1003
0000
0010
0100
,
0001
1000
0100
1000
0001
1000
0100
1000
,
0001
0000
0100
0000
1000
0000
0100
0000
0010
0000
1000
0000
0001
0000
1000
0100
,
0010
0001
1001
0000
1000
0010
0110
0000
,
0010
0100
0010
1000
0001
0000
0010
0000
0100
0000
1000
0000
0001
0000
0100
0010
,
1000
0001
1000
0100
0001
1000
0010
0001
,
0010
0000
0100
0000
1000
0000
0001
0000
0200
0000
0000
0000
0310
0000
0100
0010
,
1000
0001
0010
0011
0000
1001
0001
1000
,
0010
0000
0010
0000
0001
0000
1000
0000
0100
0000
0001
0000
1000
0000
0001
1000
,
0100
0010
0001
1001
0000
1010
0010
0100
,
0001
0000
0001
0000
0010
0000
0100
0000
1000
0000
1000
0000
0001
0000
0010
0001
,
1000
0001
0100
0101
0000
1001
0001
1000
,
0100
0000
0100
0000
0001
0000
1000
0000
0010
0000
0001
0000
1000
0000
0001
0100
,
0010
0000
1000
0000
0002
0000
0000
0000
0013
0000
0001
0000
1000
0010
0100
0000
,
0010
0000
0000
1000
0000
0000
0001
0000
0000
0010
0000
0000
0100
0000
0000
0000
,
1200
0000
0000
0000
0001
0000
0000
0000
1000
0000
0000
0000
0310
0000
0100
0010
,
0001
0000
1000
0000
0010
0000
0110
0000
0000
0000
0101
0000
0001
0000
1000
0100
,
0010
0001
1000
1010
0000
0011
0000
1010
,
1000
0000
0001
0010
0100
0000
1000
0000
0001
0000
0001
0000
0100
0000
0010
1000
,
0001
0010
0100
1100
0000
0101
0000
1100
,
1000
0000
0001
0100
0010
0000
1000
0000
0000
0001
0000
0000
0010
0000
0100
0000
,
1000
0000
0001
0010
0001
0000
1000
0010
1000
0000
0001
0010
0001
0000
1000
0000
,
0001
0100
1000
0001
0010
1000
1001
0000
,
0001
0001
0010
0000
0110
0000
1100
0000
,
0101
1100
1001
0011
,
1010
0011
1001
0110
,
1000
0000
1000
0100
0000
0100
0020
0000
0000
0031
0000
0000
,
1000
0010
0100
0010
1000
0010
0001
0010
,
1000
0100
0010
0100
1000
0100
0001
0100
,
1000
1000
1000
1000
0001
0001
0001
0001
,
0200
0000
0310
0000
,
1001
0000
0000
0000
;

//--------------- dance-single - Talkion ----------------
#NOTEDATA:;
#STEPSTYPE:dance-single;
#DESCRIPTION:Talkion;
#DIFFICULTY:Hard;
#METER:18;
#RADARVALUES:0.967795,1.507625,0.673205,0.432269,0.683835,956,861,95,61,0,0,0,0,0,0.967795,1.507625,0.673205,0.432269,0.683835,956,861,95,61,0,0,0,0,0;
#CHARTNAME:;
#CHARTSTYLE:;
#CREDIT:;
#NOTES:
0000
0000
0000
0000
,
0000
0000
0000
0000
,
0000
0000
0000
0000
,
0000
0000
0000
0000
,
0000
0000
0000
0000
,
0000
0000
0000
0000
,
0000
0000
0000
0000
,
0000
0000
0000
0000
,
1001
0000
0000
0000
,
0001
0000
0010
0001
0000
0100
0010
1000
,
0001
0000
0001
0000
1000
0000
0100
0000
0010
0000
0100
1000
0001
0000
0100
0000
,
0010
0000
0010
0000
1000
0000
1000
0000
0001
1000
0001
1000
0001
1000
0001
1000
,
0200
0000
0320
0000
0032
0000
0203
0000
0320
0000
0030
0000
1001
0000
1000
0001
,
0010
0001
0100
0001
0010
0001
0100
0010
,
1000
0000
0100
0000
0010
0000
0100
0000
1000
0000
0100
0000
0010
0000
0010
0001
,
1000
0010
0100
0010
1000
0010
0100
0001
,
2000
0000
3200
0010
0310
0000
1001
0000
,
0001
0000
0001
0000
0100
0000
0010
0000
1000
0000
0001
0000
0010
0000
0001
1000
,
0010
0000
0010
0000
1000
0000
0001
0000
0010
0000
0100
0010
0001
0000
1000
0000
,
0020
0000
0000
0130
0010
0000
1000
0100
0010
0000
0010
0000
0001
1000
0010
0100
,
0002
0000
0000
0000
1003
0000
0000
0000
0001
0000
0000
0001
0010
0000
0100
0000
,
1000
0000
1000
0000
0010
0000
0100
0000
0001
0000
1000
0000
0100
0000
1000
0001
,
0100
0000
0100
0000
0001
0000
1000
0000
0100
0000
0010
0100
1000
0000
0001
0100
,
0002
0000
0000
0000
0103
0001
0010
0000
0011
0000
0001
0000
0010
0000
0100
0000
,
1000
0010
1000
0000
0010
0000
0100
0000
0001
0010
0001
0000
1001
0000
0000
0000
,
1000
0000
0100
0000
0001
0000
1000
0000
0010
0000
0001
0000
1000
0000
0001
0100
,
0010
0000
0010
0000
0001
0000
0010
0000
1000
0000
0001
1000
0100
0000
0010
0000
,
0011
0000
0000
1010
0000
0000
1100
0000
0000
0101
0000
0000
0001
1000
0100
0010
,
0002
2003
3020
0230
0302
0000
1003
0000
,
1200
0301
0201
1300
,
1000
0000
0100
0000
0001
0000
0100
0000
1000
0100
0001
0100
0010
0000
0000
0000
,
0110
0100
1000
1010
0011
1010
1100
0101
,
1100
0000
1001
0000
0001
0100
0010
1010
0000
1000
1200
0000
0310
0000
1001
0000
,
0110
0100
0001
0101
1100
0101
0011
1000
,
0001
0000
1000
0000
0001
0000
1000
0000
0000
0100
0000
0000
0001
0000
0000
0100
0000
0000
1000
0000
0000
0000
0000
0000
0020
0000
0000
0000
0000
0000
0001
0000
0000
0000
0000
0000
0000
0000
0000
0000
0000
0000
0030
0000
0000
0000
0000
0000
,
0110
0000
0000
0000
0000
0000
1001
0000
0001
0100
0000
0000
,
1100
0000
0000
0101
0000
0001
2000
0000
0000
0000
0000
0000
,
3100
0000
1000
0000
0100
0000
0001
0000
0100
0000
0010
0000
0001
1000
0001
0000
0100
0000
0010
0000
0001
0000
0010
0000
1000
0000
0010
0000
0100
0010
0100
0010
,
1000
0000
0001
0000
1000
0000
0100
0000
1000
0000
0010
0000
0100
0010
1000
0000
0001
0000
0010
0000
0200
0000
1300
0000
0002
0000
1003
0000
0010
0000
0000
0000
,
0110
0000
0101
0001
0010
0100
1100
0000
,
1001
0000
1100
1000
0010
0100
0101
0000
,
0011
0000
0000
1010
0000
0000
1100
0000
0000
0101
0000
0000
0001
1000
0100
0010
,
0001
0000
1000
0000
0010
0000
1000
0000
0001
0000
0100
0010
1000
0000
0000
0000
,
0001
0010
0100
1000
0001
0100
1000
0100
,
0001
0100
1000
0001
0010
1000
0001
0001
,
1000
0100
0010
0001
1000
0010
0001
1000
,
0100
0000
0001
0000
0010
0000
0100
0000
1000
0000
0000
0000
1000
0001
0100
0010
,
1000
0001
0010
0110
0000
1100
1000
1001
,
0000
0101
0100
0010
2000
0001
3001
0000
,
1000
0100
1000
0100
1000
0000
0001
0100
0001
0100
0001
0000
1000
0000
0100
0000
,
0010
0001
0100
0000
0010
0000
0100
0001
0010
0000
0001
0000
1000
0100
0010
0000
,
0002
0000
0000
0203
0000
0000
2300
0000
,
0000
0000
0000
0000
0000
3002
0000
0000
,
0023
0000
0000
2030
0000
0000
3200
0000
,
0000
0000
0000
0000
0000
0302
0000
0000
,
1003
0000
0010
0001
1000
0000
1001
0000
,
0001
0000
0100
0010
1000
0002
0013
0000
,
0100
0000
0010
0001
1000
0000
1001
0000
,
0201
0000
0000
0000
0310
0000
0000
0100
0010
0000
1000
0000
0001
0010
0100
1000
,
0020
0000
0030
2002
0000
3003
0011
0000
,
0010
1000
0001
0100
1000
0001
1001
0000
,
2000
0000
3000
1010
0000
0100
0101
0000
,
0001
0100
0010
0100
0001
1000
1100
0000
,
0200
0000
0000
0000
0000
0000
0310
0000
0000
0011
0000
0000
0001
0000
0000
1000
0000
0000
0001
0000
0100
0000
0001
0000
,
0100
0010
1000
0010
0200
0000
0301
0000
,
2000
0000
3100
0011
0001
0000
1001
0000
,
0100
0100
0100
1010
,
1000
0100
0100
0001
0000
0001
1000
0100
0100
0001
0000
0000
,
0001
0010
0010
1000
0000
1000
0001
0010
0010
1000
0000
0000
,
0001
0010
0010
0100
0000
0001
0010
0100
0100
0001
0000
1000
,
0001
0010
0010
1000
0000
0001
1000
0100
0100
0001
0000
0000
,
1100
0000
0000
0011
0000
0001
1000
0000
0000
1010
0000
1000
,
0001
0000
0000
0000
1000
0000
0100
0000
0000
0000
0100
0000
0010
0000
0001
1000
0001
0000
0100
0000
0010
0000
1000
0000
,
0002
0000
0010
0103
,
0010
0000
0001
0010
1000
0000
0100
0000
0010
0000
0001
0000
1001
0000
0000
0000
,
0001
0100
1000
1100
0000
0101
0001
1000
,
0100
0001
0100
0010
0001
0000
2000
0000
0000
0000
0010
0000
3010
0000
0100
0001
,
1000
0100
0010
0011
0000
1001
1000
0010
,
0100
0010
1000
0000
0001
0000
0020
0000
0000
0000
0100
0000
0130
0000
0010
0001
,
1000
0010
0001
0011
0000
1010
1000
0001
,
0010
1000
0010
0100
1000
0000
0002
0000
0000
0000
0100
0000
0103
0000
0010
1000
,
0001
1000
0100
0001
1000
0010
0001
1000
,
0100
0000
0001
0000
0100
0000
0010
0000
0002
0000
0000
0000
1003
0001
0100
0010
,
2000
0000
0000
0100
0000
3100
0000
0120
,
0000
0000
0031
0010
0100
0000
1000
0010
0100
0000
0010
0000
1000
0010
1000
0001
,
0010
0001
0100
0001
0010
0001
1000
0010
,
0001
0010
1000
0010
0100
0000
0010
0000
1000
0000
0001
0000
1000
0000
0100
0010
,
0001
1000
1010
0010
0100
0001
1001
1000
,
0100
0010
0001
0100
0010
0000
1000
0000
0001
0000
1000
0000
0100
0000
0010
0001
,
1000
0001
0100
1000
0001
0010
1000
0001
,
0020
0000
0000
0031
1000
0000
0001
0100
0000
0010
1000
0000
0001
1000
0100
0010
,
0001
1000
0010
0110
0000
0101
0001
1000
,
0001
0010
1000
0010
0100
0000
0001
0000
1000
0000
0010
0001
1000
0010
0100
0001
,
1000
0001
0010
0110
0000
1100
1000
0001
,
0100
0010
0001
0000
0010
0000
1000
0000
0001
0000
0001
0000
1000
0001
0010
0100
,
1000
0000
0001
0000
0100
0000
0110
0000
0000
0000
0010
0000
1000
0010
0001
0010
,
0100
0000
0001
0000
1000
0000
1100
0000
0000
0000
0100
0000
0001
0100
1000
0100
,
0010
0000
0001
0000
1000
0010
1000
0010
0100
0000
0001
0000
1000
0100
0010
0000
,
0011
0000
0000
0001
0100
0000
0110
0000
0000
1010
0000
0000
1001
0000
0000
0000
,
1200
0000
0000
0000
0001
0000
0000
0000
1000
0000
0000
0000
0310
0000
0010
0001
,
1000
0000
0010
0000
0100
0000
0001
0000
1000
0000
0001
0010
0100
1000
0010
0100
,
0001
0000
1000
0000
0100
0000
0110
0000
0000
0000
0011
0000
0010
0000
1000
0010
,
0001
0000
0001
0100
0010
0000
1000
0000
0010
0001
0010
0000
0100
0001
1000
0100
,
0010
0000
0001
0000
1000
0000
1010
0000
0000
0000
0010
0000
0100
0000
0010
1000
,
0001
0000
0001
0010
0100
0000
1000
0000
0000
1001
0000
0000
0101
0000
0100
0000
,
0010
1000
0010
1000
0100
1000
0100
1000
0010
0100
0001
0010
0100
1000
0001
0100
,
0010
0000
0001
0010
0100
0000
0010
0000
1000
0000
0001
0000
1001
0000
0000
0000
,
0001
0001
0010
0000
0110
0000
1100
0000
,
0101
0000
0000
0000
1100
0000
0000
0000
1000
0000
1000
0001
0010
0000
0001
0000
,
0100
0000
0100
0000
0010
0000
1000
0010
0100
0010
1000
0000
0001
0000
0000
0000
,
0011
0000
0010
0100
0000
0100
1000
0010
0100
0001
0000
0000
,
1000
0000
0100
0000
1000
0000
0001
0100
0010
0000
0001
0000
0010
0100
0001
0000
,
1000
0100
0001
0000
0100
0000
0001
0100
1000
0000
0001
0000
1000
0010
0100
0001
,
1000
0100
0010
0100
1000
0100
0010
0100
1000
0100
0010
0100
1000
0100
0001
0100
,
2000
0000
3010
0000
,
0101
0000
0000
0000
;
