#TITLE:SUNSET;
#SUBTITLE:(Michael Cassette Remix);
#ARTIST:THE MIDNIGHT;
#TITLETRANSLIT:;
#SUBTITLETRANSLIT:;
#ARTISTTRANSLIT:;
#GENRE:;
#CREDIT:;
#BANNER:SUNSET (Michael Cassette Remix).png;
#BACKGROUND:SUNSET (Michael Cassette Remix)-bg.png;
#LYRICSPATH:;
#CDTITLE:cdtitle.png;
#MUSIC:SUNSET (Michael Cassette Remix).mp3;
#OFFSET:-0.023843;
#SAMPLESTART:54.935001;
#SAMPLELENGTH:12.100000;
#SELECTABLE:YES;
#BPMS:0.000000=122.000000
;
#STOPS:
;
#BGCHANGES:;
#KEYSOUNDS:;
#ATTACKS:;

//---------------dance-single - ----------------
#NOTES:
     dance-single:
     :
     Hard:
     10:
     0.368921,0.535540,0.074087,0.127006,0.174633,244.000000,237.000000,7.000000,12.000000,0.000000,0.000000,0.368921,0.535540,0.074087,0.127006,0.174633,244.000000,237.000000,7.000000,12.000000,0.000000,0.000000:
0000
0000
0000
0000
,
0000
0000
0000
0000
,
0000
0000
0000
0000
,
0000
0000
0000
0000
0000
0000
0000
0000
0000
0000
0000
0010
0000
0010
0000
0000
,
1000
0000
0000
0000
0100
0000
0000
0000
0010
0000
0000
0000
0001
0100
0001
0000
,
1000
0000
0000
0000
0010
0000
0000
0000
0100
0000
0000
0000
0001
0000
0000
0001
,
1000
0000
0000
0000
0100
0000
0000
0000
0010
0000
0000
0000
0001
0100
0010
1000
,
0100
0000
0000
0000
0010
0000
0000
0000
0001
0000
0000
1000
0000
1000
0000
0000
,
0010
0000
0000
0000
0100
0000
0000
0000
0001
0000
0000
0010
0000
0000
0010
0000
,
0100
0000
1000
0000
0010
0000
0100
0001
,
1000
0000
0000
0000
0100
0000
0000
0000
0010
0000
0000
0000
0001
0100
0000
0000
,
0010
0000
0000
0000
1000
0000
0000
0000
1100
0000
0000
1001
0000
0000
0101
0000
,
0010
0000
0001
0000
1000
0000
0001
0000
0010
0000
0000
0010
0000
0000
0001
0000
,
1000
0000
0000
1000
0000
0000
0100
0000
0010
0000
0000
0010
0000
0000
0001
0000
,
1000
0000
0010
0000
0100
0000
0001
0000
0010
0000
0000
0010
0000
0000
0001
0000
,
1000
0000
0000
1000
0000
0000
0100
0000
0010
0000
0001
0000
0000
1000
0000
0000
,
0001
0000
0010
0000
0100
0000
1000
0000
0001
0000
0000
0001
0000
0000
0010
0000
,
0100
0000
1000
0000
0010
0000
1000
0000
0010
0000
0100
0010
0000
0000
0010
0000
,
2000
0000
0000
0000
0200
0000
0000
0300
,
0020
0000
0000
3030
,
2001
0000
0000
3010
0000
0000
0100
0000
,
1002
0000
0000
0013
0000
0000
0000
0000
,
0020
0000
0000
0000
,
0000
0000
0000
0030
,
0210
0000
0000
0301
0000
0000
0010
0000
,
1200
0000
0000
0310
0000
0000
0000
0000
,
0010
0001
0010
0000
0100
1000
0100
0000
1000
0001
1000
0000
0001
0100
0001
0000
,
1000
0010
1000
0000
0001
0010
0001
0000
1000
0000
0010
0000
0100
0000
0001
0000
,
1000
0000
0010
0000
1000
0000
0100
0000
1000
0000
0010
1000
0000
1000
0100
0000
,
0010
0000
0001
0000
0100
0000
0001
0000
0010
0000
0001
0100
0000
0100
0001
0000
,
2000
3100
0020
0031
,
0001
0100
0001
0100
0010
1000
1000
0000
,
0001
0000
0100
0000
1000
0000
0100
0000
0001
0000
1000
0001
0000
1000
0001
0000
,
1000
0000
0100
0000
0001
0000
0100
0000
1000
0000
0001
1000
0000
0001
1000
0000
,
0002
0103
0020
1030
,
0100
1000
0100
1000
0001
0010
0100
1000
,
0001
0100
0001
1000
0010
1000
0100
0000
,
0010
0001
1000
0100
0001
0100
1000
0000
,
0001
0100
0001
0000
1000
0010
1000
0000
,
0001
0010
0100
0000
1000
0010
0100
0001
,
1000
0010
1000
0001
0010
0001
0100
0000
,
0010
1000
0100
0001
0100
1000
0001
0000
,
0100
0010
0100
0000
0010
1000
0001
0000
,
0010
0100
1000
0001
0010
0100
1000
0001
,
0010
0000
0000
0000
;

//---------------dance-single - ----------------
#NOTES:
     dance-single:
     :
     Medium:
     7:
     0.331122,0.395834,0.105838,0.127006,0.005292,219.000000,209.000000,10.000000,12.000000,0.000000,0.000000,0.331122,0.395834,0.105838,0.127006,0.005292,219.000000,209.000000,10.000000,12.000000,0.000000,0.000000:
0000
0000
0000
0000
,
0000
0000
0000
0000
,
0000
0000
0000
0000
,
0000
0000
0000
0000
0000
0000
1000
0100
,
0010
0001
1000
0100
0010
0001
1000
0100
,
0010
0001
1000
0100
0010
0000
0001
0100
,
0010
1000
0001
0100
0010
1000
0001
0100
,
0010
1000
0001
0100
0010
0000
0100
1000
,
0100
1000
0100
1000
0100
1000
0100
0010
,
0001
0100
0001
0100
0001
0100
0010
0000
,
0100
0001
0100
0001
0100
0001
0100
0010
,
1000
0000
0001
0000
1000
0000
0001
0000
0010
0000
0000
0010
0000
0000
0010
0000
,
0001
1000
0100
0000
0010
0001
1000
0000
,
0001
0100
1000
0100
0001
1000
0100
0000
,
0100
1000
0010
0000
0100
0001
0010
0000
,
0001
0010
1000
0010
0001
1000
0010
0000
,
1000
0010
1000
0010
0100
0001
0100
0001
,
0010
1000
0001
0010
1000
0010
0001
0000
,
1001
0000
1010
0000
,
0011
0000
0000
0000
,
2100
0000
0000
3100
0000
0000
0010
0000
,
0012
0000
0000
0013
0000
0000
0000
0000
,
0020
0000
0000
0000
,
0000
0000
0000
0030
,
1002
0000
0000
0103
0000
0000
0000
0000
,
2001
0000
0000
3100
0000
0000
0000
0000
,
0020
0000
0000
0000
,
0000
0000
0030
0000
1000
0001
1000
0000
,
0100
1000
0001
0000
0010
1000
0001
0000
,
0010
1000
0100
0010
0001
0000
1010
0000
,
0100
0001
0010
0000
1000
0001
0010
0000
,
0100
0010
1000
0100
0010
0000
0101
0000
,
0010
1000
0100
0000
0010
0001
0100
0000
,
0010
1000
0100
1000
0001
0000
0101
0000
,
1000
0001
0010
0000
1000
0001
0100
0000
,
0010
1000
0100
1000
0001
0100
0010
0000
,
2000
0000
0000
3100
0000
0010
0001
0000
,
0002
0000
0000
0103
0000
0010
1000
0000
,
0020
1000
0001
0130
,
0010
1000
0001
1000
0100
0010
0001
0000
,
2000
0000
0000
3001
0000
0010
1000
0000
,
0002
0000
0000
0013
0000
1000
0001
0000
,
0020
1000
0001
0130
,
0010
1000
0100
1000
0001
1000
0010
0100
,
0001
0000
0000
0000
;

//---------------dance-single - ----------------
#NOTES:
     dance-single:
     :
     Easy:
     5:
     0.237380,0.302697,0.243427,0.328098,0.000000,157.000000,134.000000,23.000000,31.000000,0.000000,0.000000,0.237380,0.302697,0.243427,0.328098,0.000000,157.000000,134.000000,23.000000,31.000000,0.000000,0.000000:
0000
0000
0000
0000
,
0000
0000
0000
0000
,
0000
1000
0000
0000
,
0000
0000
0000
2000
,
3100
0002
0013
2000
,
3100
0002
0013
0020
,
0130
0200
0310
0020
,
1030
0200
0310
0002
,
1003
0020
0130
0002
,
0013
0200
1300
0020
,
0130
0002
1003
0200
,
0301
0200
0310
1001
,
0100
1000
0100
1000
,
0001
0010
0001
0010
,
1001
0100
1001
0010
,
0110
0001
0110
1000
,
0100
0010
0001
0100
,
0010
0100
0001
1000
,
1100
0000
0011
0000
,
1001
0000
0000
0000
,
0200
0000
0000
0300
,
0020
0000
0000
0030
,
0002
0000
0000
0000
,
0000
0000
0003
0000
,
2000
0000
0000
3000
,
0002
0000
0000
0003
,
0200
0000
0000
0000
,
0000
0000
0010
0310
,
0010
1000
0100
1001
,
0100
0010
0010
1001
,
0010
1001
0100
1100
,
0001
0010
0100
1001
,
0010
0100
0001
0101
,
0010
1000
0010
1010
,
0001
1001
0100
1001
,
0010
0100
0001
1000
,
0200
0010
1000
0310
,
0002
0100
0010
0103
,
0020
1000
0001
1030
,
0010
0010
0010
0010
,
1200
0010
1000
0310
,
0102
0010
0100
1003
,
2010
3100
0012
0103
,
2010
3100
0012
1003
,
0001
0000
0000
0000
;

//---------------dance-single - ----------------
#NOTES:
     dance-single:
     :
     Beginner:
     1:
     0.092230,0.162991,0.031751,0.042335,0.000000,61.000000,58.000000,3.000000,4.000000,0.000000,0.000000,0.092230,0.162991,0.031751,0.042335,0.000000,61.000000,58.000000,3.000000,4.000000,0.000000,0.000000:
// measure 0
0000
0000
0000
0000
,  // measure 1
0000
0000
0000
0000
,  // measure 2
0000
0000
0000
0000
,  // measure 3
0000
0000
0000
0000
,  // measure 4
0010
0000
0000
0000
,  // measure 5
0010
0000
0000
0000
,  // measure 6
0010
0000
0000
0000
,  // measure 7
0100
0000
0000
0000
,  // measure 8
1000
0000
0000
0000
,  // measure 9
1000
0000
0000
0000
,  // measure 10
1000
0000
0000
0000
,  // measure 11
0001
0000
0000
0000
,  // measure 12
0010
0000
0010
0000
,  // measure 13
0010
0000
0000
0000
,  // measure 14
0100
0000
0100
0000
,  // measure 15
0100
0000
0000
0000
,  // measure 16
1000
0000
1000
0000
,  // measure 17
1000
0000
0000
0000
,  // measure 18
1001
0000
1001
0000
,  // measure 19
1001
0000
0000
0000
,  // measure 20
0010
0000
0000
0000
,  // measure 21
0001
0000
0000
0000
,  // measure 22
2000
0000
0000
0000
,  // measure 23
0000
0000
0000
3000
,  // measure 24
0001
0000
0000
0000
,  // measure 25
0010
0000
0000
0000
,  // measure 26
0200
0000
0000
0000
,  // measure 27
0000
0000
0000
0300
,  // measure 28
1000
0010
1000
0000
,  // measure 29
0001
0100
0001
0000
,  // measure 30
0010
0000
0010
0000
,  // measure 31
0010
0010
0010
0000
,  // measure 32
2000
0000
3100
0000
,  // measure 33
0002
0000
0013
0000
,  // measure 34
0100
0010
0100
0000
,  // measure 35
1000
0001
1000
0000
,  // measure 36
0010
0000
1000
0000
,  // measure 37
0100
0000
0010
0000
,  // measure 38
0001
0000
0000
0000
,  // measure 39
0000
0000
0000
0000
,  // measure 40
0010
0000
1000
0000
,  // measure 41
0100
0000
0010
0000
,  // measure 42
0001
0000
0000
0000
,  // measure 43
0000
0000
0000
0000
,  // measure 44
0010
0000
0000
0000
;
