#TITLE:STOIC HYPOTHESIS;
#SUBTITLE:;
#ARTIST:BEMANI Sound Team "Expander";
#TITLETRANSLIT:;
#SUBTITLETRANSLIT:;
#ARTISTTRANSLIT:Expander;
#GENRE:;
#CREDIT:;
#MENUCOLOR:;
#METERTYPE:DDR;
#BANNER:STOIC HYPOTHESIS.png;
#BACKGROUND:STOIC HYPOTHESIS-bg.png;
#LYRICSPATH:;
#CDTITLE:./CDTITLES/BEATMANIA IIDX.PNG;
#MUSIC:STOIC HYPOTHESIS.ogg;
#OFFSET:0.000;
#SAMPLESTART:69.176;
#SAMPLELENGTH:15.000;
#SELECTABLE:YES;
#LISTSORT:;
#BPMS:0.000=170.000;
#STOPS:;
#BGCHANGES:;
#ATTACKS:;

//---------------dance-single - ----------------
#NOTES:
     dance-single:
     t7r:
     Beginner:
     5:
     0.163,0.197,0.039,0.000,0.000:
0000
0000
0000
0000
,
0000
0000
0000
0000
,
0000
0000
0000
0000
,
0000
0000
0000
0000
,
0000
0000
0000
0000
,
0000
0000
1000
0000
,
0001
0000
0000
0000
,
0000
0000
0001
0000
,
1000
0000
0000
0000
,
0000
0000
0010
0000
,
0010
0010
0010
0000
,
0000
0000
0100
0000
,
0100
0100
0100
0000
,
0000
0000
0001
0000
,
0001
0001
0001
0000
,
0000
0000
1000
0000
,
1000
1000
1000
0000
,
0000
0001
0000
0001
,
0000
0001
0000
0001
,
0000
1000
0000
1000
,
0000
1000
0000
1000
,
0000
0010
0000
0010
,
0000
0010
0000
0010
,
0000
0100
0000
0100
,
0000
0100
0000
0100
,
0000
0001
0000
0001
,
0000
0010
0000
0010
,
0000
0100
0100
0000
,
1000
0000
0000
0000
,
0000
0001
0000
0001
,
0000
0100
0000
0100
,
0000
0010
0010
0000
,
1000
0000
0000
0000
,
0001
0000
1000
0000
,
0001
0000
1000
0000
,
0010
0000
0100
0000
,
0010
0000
0100
0000
,
0001
0000
0010
0000
,
0001
0000
0010
0000
,
0100
0000
1000
0000
,
0100
0000
0000
0000
,
1000
1000
1000
0000
,
1000
0000
1000
0000
,
0001
0001
0001
0000
,
0001
0000
0001
0000
,
0100
0100
0100
0000
,
0100
0000
0100
0000
,
0010
0010
0010
0000
,
0010
0000
0000
0000
,
1000
0000
1000
0000
,
0001
0000
1001
0000
,
0001
0000
0001
0000
,
1000
0000
1001
0000
,
0100
0000
0100
0000
,
0010
0000
0110
0000
,
0010
0000
0100
0000
,
0010
0000
0110
0000
,
1001
0000
0000
0000
,
0000
0000
0000
0000
,
0000
0000
0000
0000
,
0000
0000
0000
0000
,
1000
0000
1000
0000
,
1000
0000
0000
0000
,
0001
0000
0001
0000
,
0001
0000
0000
0000
,
0010
0000
0010
0000
,
0010
0000
0000
0000
,
0100
0000
0100
0000
,
0100
0000
0000
0000
,
1000
1000
1000
0000
,
0001
0000
1000
0000
,
0010
0010
0010
0000
,
0100
0000
0010
0000
,
0100
0100
0100
0000
,
0010
0000
0100
0000
,
0010
0010
0010
0000
,
1000
0000
0001
0000
,
1000
0000
0000
0000
,
0100
0000
0000
0000
,
0010
0000
0000
0000
,
0001
0000
0000
0000
,
0100
0000
0000
0000
,
0010
0000
0000
0000
,
1000
0000
0000
0000
,
0001
0000
1000
0000
;

//---------------dance-single - ----------------
#NOTES:
     dance-single:
     t7r:
     Easy:
     8:
     0.436,0.434,0.209,0.372,0.035:
0000
0000
0000
0000
,
0000
0000
0000
0000
,
0000
0000
0000
0000
,
0000
0000
0000
0000
,
0000
0000
0000
0000
,
0002
0000
1003
0100
1000
0000
0001
0000
,
1000
0000
0001
0100
0001
0000
1000
0000
,
0010
0000
0100
0010
0100
0000
0010
0000
,
1000
0001
1000
0001
1000
0000
0001
0000
,
2000
0000
3001
0010
,
0001
0100
0001
0000
0100
0000
0001
0000
,
1000
0010
1000
0000
0010
0000
1000
0000
,
0001
0010
0001
0000
1000
0000
0200
0000
,
0320
0000
0130
1000
,
0001
1000
0001
0000
1000
0000
0010
0000
,
1000
0000
0001
1000
0001
0000
1000
0000
,
0001
0010
0100
0000
1000
0000
0001
0000
,
1000
0010
0001
0010
,
1000
0100
0001
0100
,
1000
0000
0000
0000
0001
0000
0000
2002
0000
0000
0000
0000
3003
0000
0000
0000
,
0010
0010
0100
0110
,
0001
0010
1000
0010
,
0001
0100
1000
0100
,
0001
0000
0000
0000
1000
0000
0000
2002
0000
0000
0000
0000
3003
0000
0000
0000
,
0020
0230
0302
1003
,
0001
0010
0100
1000
,
0001
0100
1000
0100
,
0010
0000
0000
0000
1000
0000
0000
2002
0000
0000
0000
0000
3003
0000
0000
0000
,
1000
0100
1000
0000
0001
0010
0001
0000
,
1000
0010
0100
0001
,
1000
0010
0001
0010
,
0100
0000
0000
0000
0001
0000
0000
2002
0000
0000
0000
0000
3003
0000
0000
0000
,
0001
1000
0001
0000
0100
0000
0110
0000
,
1000
0100
0000
1000
0001
0000
0010
0000
,
0001
0100
0000
0001
1000
0000
0010
0000
,
1000
0010
0000
1000
0100
0000
1000
0000
,
0001
0010
0000
0001
0100
0000
0001
0000
,
1000
0100
0000
0001
0100
0000
0010
0000
,
0001
0010
0000
1000
0010
0000
0100
0000
,
1000
0001
0000
0100
0010
0000
1000
0000
,
0001
1000
0001
1000
0001
0000
1001
0000
,
1000
0000
0000
0100
0000
0000
0110
0000
,
0001
0000
0000
1000
0000
0000
0001
0000
0000
0000
0000
0000
1001
0000
0000
0000
,
0001
0000
0000
0010
0000
0000
0110
0000
,
1000
0000
0000
0001
0000
0000
1000
0000
0000
0000
0000
0000
0110
0000
0000
0000
,
0010
0000
0000
1000
0000
0000
1010
0000
,
0100
0000
0000
0001
0000
0000
0100
0000
0000
0000
0000
0000
0101
0000
0000
0000
,
0010
0000
0000
0001
0000
0000
0011
0000
,
2000
0000
0000
3001
,
1001
0000
1100
0000
,
0001
1000
2020
3030
,
1000
0001
0022
0033
,
0100
0100
0220
0330
,
1001
0000
0101
0000
,
1000
0001
0022
0033
,
0001
1000
2020
3030
,
0010
0100
0010
0100
0010
0000
0110
0000
,
2002
0000
0000
0000
,
0000
0000
0000
3003
,
1000
0100
1000
0000
0001
0010
0001
0000
,
1000
0001
0100
0010
2000
0000
3001
0000
,
2000
0000
0010
3001
,
0020
0000
0000
0000
0130
1000
0100
0000
,
2000
0000
0010
3100
,
0002
0000
0000
0000
0103
0010
2000
0000
,
3002
0000
0010
1003
,
0200
0000
0000
0000
0000
0000
0000
0000
0310
0000
0000
1000
0000
0000
0001
0000
,
2000
0000
0100
3001
,
0100
0000
0010
1000
0001
0000
1001
0000
,
0001
0010
0000
0100
1000
0000
0001
0000
,
1000
0010
0000
0100
0001
0000
1000
0000
,
0001
0100
1000
0100
,
0001
0010
0001
0000
1000
0010
1000
0000
,
0001
2000
0000
0000
0010
0000
3100
0000
,
1000
0000
0000
0000
0001
0000
0000
0000
0010
0000
0000
0100
0000
0000
0010
0000
,
0001
0000
1000
0010
0000
0100
0001
0000
,
1000
0000
0100
0000
0010
0001
2000
0000
,
3002
0000
0010
0103
,
2000
0000
0100
3010
,
0002
0000
0100
0013
,
2000
0000
0010
3100
,
0020
0000
0100
0031
,
0200
0000
0010
1300
,
0002
0000
0010
1003
,
0100
0010
1000
2002
,
0000
0000
0000
0000
,
3003
0000
0000
0000
;

//---------------dance-single - ----------------
#NOTES:
     dance-single:
     t7r:
     Medium:
     13:
     0.692,0.667,0.155,0.279,0.578: // measure 1
0000
0000
0000
0000
,  // measure 2
0000
0000
0000
0000
,  // measure 3
0000
0000
0000
0000
,  // measure 4
0000
0000
0000
0000
,  // measure 5
0000
0000
0000
0000
,  // measure 6
0020
0000
0000
0000
1030
0000
0100
0000
1000
0000
0001
0000
1000
0010
0000
1000
,  // measure 7
0001
0000
0010
0000
0001
0000
0100
0000
0001
0000
1000
0000
0001
0010
0000
0001
,  // measure 8
1000
0100
0010
0100
1000
0000
1010
0000
,  // measure 9
0001
0100
0010
0100
0001
0010
0001
0001
,  // measure 10
2000
0000
0000
0000
0000
0000
0000
0000
3001
0000
0000
0000
0010
0100
0000
1000
,  // measure 11
0100
0010
0001
0100
0010
0010
1000
0000
,  // measure 12
0001
0000
0000
0000
0101
0000
0000
0000
1001
0000
0000
0000
1000
0100
1000
0000
,  // measure 13
0001
0010
0001
0010
0001
0000
1000
0000
0010
0100
0010
0100
0010
0000
1000
0000
,  // measure 14
0002
0000
0000
0000
0000
0000
0000
0000
1003
0000
0000
0000
0010
0100
0000
0010
,  // measure 15
0001
0000
0100
0000
0010
0000
1000
0000
0001
0000
0001
0000
0010
0001
0000
1000
,  // measure 16
0001
0010
0100
0000
0010
0000
1001
0000
,  // measure 17
0010
1000
0010
0000
0100
0000
0001
0000
2000
0000
0000
0000
3001
0000
0000
0000
,  // measure 18
1000
0000
0000
0000
1100
0000
0000
0000
0010
0000
0100
1000
0000
0100
0010
0000
,  // measure 19
0001
0000
0100
0000
0010
0000
0100
0001
0000
1000
0001
0000
0010
0000
0001
0000
,  // measure 20
0100
0000
0000
0001
0010
0000
0000
2100
0000
0000
0000
0000
3001
1000
0000
0001
,  // measure 21
0100
0000
0100
0000
0010
0000
1000
0001
0000
0100
0001
0000
1000
0000
0000
0000
,  // measure 22
0001
0000
0000
0000
0011
0000
0000
0100
0000
0000
0010
0001
0000
0010
0100
0000
,  // measure 23
1000
0000
0010
0000
0100
0000
0010
1000
0000
0001
1000
0000
0100
0000
1000
0000
,  // measure 24
0010
0000
0000
1000
0100
0000
0000
0012
0000
0000
1003
0001
0000
0000
0100
0000
,  // measure 25
0001
0000
0010
0000
0100
0000
1000
0000
0100
0000
0010
0000
0002
0000
0000
0000
0000
0000
1003
0000
0000
0010
0000
0000
,  // measure 26
1000
0000
0100
1000
0100
0000
0000
0000
1000
0000
0010
1000
0000
0001
0010
0000
,  // measure 27
0001
0000
0100
1000
0000
0100
0000
0010
0000
1000
0000
0001
1000
0000
0001
0000
,  // measure 28
0010
0000
0001
0010
0001
0000
0000
0012
0000
0000
0000
0000
1003
0100
0000
1000
,  // measure 29
0001
0000
0000
0000
0000
0000
0100
0000
0000
0000
0000
0000
0010
0000
0000
1000
0000
0000
0010
0000
0000
0000
0000
0000
1000
0000
0000
0100
0000
0000
0000
0000
0000
0010
0000
0000
0100
0000
0000
0000
1000
0000
0000
0000
0001
0000
0000
0000
,  // measure 30
2000
0000
0000
0000
3010
0000
0000
1000
0000
0000
0000
0010
0000
0100
0001
0000
,  // measure 31
1000
0000
0100
0001
0000
0100
0000
0010
0000
0001
0000
1000
0001
0000
1000
0000
,  // measure 32
0100
0000
1000
0010
1000
0000
0000
1020
0000
0000
0000
1030
0000
0001
0000
0000
,  // measure 33
1000
0010
0100
0001
0100
0010
2000
0000
0000
3001
0000
0000
,  // measure 34
1000
0100
0010
1000
0010
0100
0010
0001
,  // measure 35
1000
0010
0100
1000
0100
0010
1000
0001
,  // measure 36
1000
0100
0010
0001
0010
1000
0010
0100
,  // measure 37
1000
0010
0100
0001
0100
1000
0100
0010
,  // measure 38
1000
0100
1000
0000
0010
0000
1000
0000
0010
0000
0100
0000
1000
0000
0100
0000
,  // measure 39
0001
0010
0001
0000
0100
0000
0001
0000
0100
0000
0010
0000
0001
0000
0010
0000
,  // measure 40
1000
0010
1000
0000
0100
0000
0001
0000
0100
0000
0010
0000
0001
0000
1000
0000
,  // measure 41
0010
0010
0010
0010
0100
0000
0110
0000
,  // measure 42
1010
0000
1000
0100
0000
0010
0100
0000
1000
0100
0000
0000
0010
0000
0000
0000
,  // measure 43
0001
0000
0100
0001
0000
0100
0010
0000
0100
0001
0000
0000
1000
0000
0000
0000
,  // measure 44
0010
0000
1000
0010
0000
1000
0100
0000
0010
0100
0000
0000
1000
0000
0000
0000
,  // measure 45
0001
0000
0010
0001
0000
0100
0001
0000
0010
0001
0000
0000
1000
0000
0001
0000
,  // measure 46
1000
0000
0100
0010
0000
0100
1000
0000
0100
0001
0000
0000
0100
0000
0010
0000
,  // measure 47
0001
0000
0010
0100
0000
0010
1000
0000
0010
0001
0000
0000
0010
0000
0100
0000
,  // measure 48
1000
0000
0010
1000
0000
0010
0100
0000
0001
1000
0000
0001
0010
0000
0001
0000
,  // measure 49
2000
0000
0000
3001
,  // measure 50
1100
0000
1000
0100
0010
0000
0001
0100
,  // measure 51
1000
0000
0100
0001
0000
0100
0010
0000
2000
0000
0000
0000
3000
0000
0000
0000
,  // measure 52
0001
0010
1000
0000
0020
0000
0030
0000
,  // measure 53
0100
0100
2010
3001
,  // measure 54
0011
0000
0001
0010
0100
0000
1000
0010
,  // measure 55
0001
0000
0010
1000
0000
0010
0100
0000
0002
0000
0000
0000
0003
0000
0000
0000
,  // measure 56
1000
0100
0001
0000
0200
0000
0300
0000
,  // measure 57
0010
0100
0010
0000
0100
0010
0100
0000
1000
0000
0000
0000
0001
0000
0000
0000
,  // measure 58
2002
0000
0000
0000
,  // measure 59
0000
0000
0000
3003
,  // measure 60
0010
0100
0100
0100
0001
1000
0100
0000
,  // measure 61
1000
0010
1000
0010
1000
0000
0001
0000
0020
0000
0000
0000
0130
0000
0000
0000
,  // measure 62
2100
0000
0000
0000
0000
0000
3001
0010
0001
0000
0000
0100
0000
0000
0010
0000
,  // measure 63
2000
0000
3100
0000
1000
0010
0100
0001
,  // measure 64
0020
0000
0031
0100
1000
0000
0200
0000
,  // measure 65
0310
0000
0000
0000
1000
0000
0000
0000
0001
0000
0010
0001
0020
0000
0000
0000
,  // measure 66
0032
0000
0000
0000
0000
0000
1003
0010
1000
0000
0000
0100
0000
0000
0010
0000
,  // measure 67
0002
0000
0000
0000
0103
0000
0000
0000
0001
0000
0010
0100
0000
1000
0010
0000
,  // measure 68
2000
0000
3100
0010
0001
0000
0200
0000
,  // measure 69
0310
0100
0010
1001
,  // measure 70
1000
0000
0010
0000
0100
0000
0010
1000
0010
0000
1000
0000
0100
0000
0010
0000
,  // measure 71
1000
0000
0010
0000
0100
0000
0010
0001
0010
0000
0001
0000
0100
0000
0010
0000
,  // measure 72
1000
0000
0100
0001
0000
0100
1000
0010
1000
0001
0010
0100
,  // measure 73
1000
0000
1000
0010
0000
0010
0100
0001
1000
0002
0000
0000
,  // measure 74
1003
0000
0020
0000
0000
0000
1030
0000
0100
0000
1000
0010
1000
0000
0001
0000
,  // measure 75
0100
0000
0001
0000
1000
0000
0010
0000
0100
0000
0000
0110
0000
0000
1001
0000
,  // measure 76
0001
0000
0010
1000
0000
0010
0001
0100
0001
1000
0100
0010
,  // measure 77
0001
0000
0000
0000
0001
0000
0100
0000
0000
0000
0100
0000
0010
0000
0000
1000
0000
0000
0002
0000
0000
0000
0000
0000
,  // measure 78
1003
0000
0000
0000
0000
0000
0100
0000
0010
0000
0000
0001
0000
1000
0001
0000
,  // measure 79
2000
0000
0000
0000
3010
0100
0001
1000
,  // measure 80
0001
0000
0000
0000
0000
0000
0010
0000
0100
0000
0000
1000
0000
0001
1000
0000
,  // measure 81
0020
0000
0000
0000
0000
0000
0130
0000
0001
0000
1000
0100
1000
0000
0000
0000
,  // measure 82
0010
0000
0000
0000
0000
0000
1000
0000
0001
0000
0000
0100
0000
0010
0100
0000
,  // measure 83
0020
0000
0000
0000
0000
0000
1030
0000
0001
0000
0000
0010
0000
0000
1000
0000
,  // measure 84
0010
0000
0000
0000
0000
0000
0001
0000
1000
0000
0000
0010
0000
0100
0010
0000
,  // measure 85
1000
0100
1000
0001
0100
0001
1000
0010
0100
0002
0000
0000
,  // measure 86
0000
0000
0000
0000
,  // measure 87
0003
0000
0000
0000
;

//---------------dance-single - ----------------
#NOTES:
     dance-single:
     t7r:
     Hard:
     16:
     0.867,0.834,0.217,0.326,0.966: // measure 1
0000
0000
0000
0000
,  // measure 2
0000
0000
0000
0000
,  // measure 3
0000
0000
0000
0000
,  // measure 4
0000
0000
0000
0000
,  // measure 5
0000
0000
0000
0000
,  // measure 6
0020
0000
0000
0000
0130
0000
0100
0000
0001
0000
0100
0000
0010
1000
0000
0100
,  // measure 7
1000
0000
0100
0000
0100
0000
0010
0000
0100
0000
0100
0000
1000
0001
0000
0100
,  // measure 8
0001
0010
0010
0100
0010
0000
0011
0000
,  // measure 9
1000
0000
0100
1000
0100
0000
1000
0000
0001
0000
0100
0001
0100
0000
0001
0000
,  // measure 10
2000
0000
0000
0000
0000
0000
0000
0000
3001
0000
0000
0000
1000
0100
0000
1000
,  // measure 11
0001
0100
0100
0010
1000
1000
0001
0000
,  // measure 12
1000
0000
0000
0000
1010
0000
0000
0000
0100
1000
0100
0000
1000
0001
1000
0000
,  // measure 13
0001
0100
0001
0100
0001
0100
0001
0100
0010
1000
0010
1000
0020
0000
0000
0000
,  // measure 14
0230
0000
0000
0000
0000
0000
0000
0000
0310
0000
0000
0000
1000
0100
0000
1000
,  // measure 15
0001
0000
0010
0000
0010
0000
0100
0000
0010
0000
0010
0000
0001
0010
0000
0001
,  // measure 16
1000
0000
0010
0100
0010
0000
0000
0000
0100
0000
0001
0000
1000
0001
1000
0000
,  // measure 17
0001
0010
0001
0010
0001
0010
0001
0010
0100
0000
1000
0000
0001
0000
1000
0000
,  // measure 18
2001
0000
0000
0000
3010
0000
0000
0000
0101
0000
1000
0100
0000
1000
0001
0000
,  // measure 19
0012
0000
0000
0000
0103
0000
0001
0010
0000
0001
1000
0000
0100
0000
1000
0000
,  // measure 20
0001
0100
0001
0100
0001
0000
0000
2010
0000
0000
3100
0000
0010
0001
1000
0000
,  // measure 21
0001
0000
0100
0000
0001
0010
0001
1000
0000
0010
0100
0000
0010
0000
0000
0000
,  // measure 22
1002
0000
0000
0000
0103
0000
0000
1010
0000
0000
0001
0100
0000
0001
1000
0000
,  // measure 23
0100
0000
1000
0100
1000
0000
0001
0100
0000
0001
0010
0000
0001
0000
1000
0001
,  // measure 24
1000
0000
0010
0100
0001
0000
0000
2010
0000
0000
3100
0000
1000
0001
0010
0000
,  // measure 25
0001
0000
0100
0000
0010
0000
1000
0000
0100
0000
0010
0000
0002
0000
0000
0000
0000
0000
1003
0000
0000
0001
0000
0000
,  // measure 26
1000
0100
1000
0100
0010
0000
0100
1000
0000
0001
0010
0000
0001
1000
0000
0001
,  // measure 27
0010
0000
0001
0100
0000
1000
0000
0100
0000
0010
0000
1000
0001
1000
0100
0000
,  // measure 28
1000
0000
0100
0010
0001
0000
0000
0120
0000
0000
1030
0000
0001
1000
0100
0000
,  // measure 29
1000
0000
0000
0000
0000
0000
0010
0000
0000
0000
0000
0000
1000
0000
0000
0100
0000
0000
0010
0000
0000
0100
0000
0000
1000
0000
0000
0100
0000
0000
0000
0000
0000
0100
0000
0000
0010
0000
0000
0000
0001
0000
0000
0000
1000
0000
0000
0000
,  // measure 30
0001
0100
0001
0100
0010
0000
1000
0100
0000
1000
0001
1000
0000
0000
0001
0000
,  // measure 31
0100
0000
0001
0010
0001
0000
0010
1000
0000
0010
0000
0100
1000
0000
0001
0000
,  // measure 32
1000
0000
0010
0100
0001
0000
0000
0210
0000
0000
0301
0000
1000
0001
0010
0000
,  // measure 33
0001
0100
1000
0100
0010
1000
0002
0000
0000
1003
0000
0000
,  // measure 34
0100
1000
0010
0000
0100
0000
0001
0010
0001
0010
0100
0000
1000
0000
0001
0100
,  // measure 35
0001
0100
0010
0000
1000
0000
0001
1000
0001
1000
0010
0000
1000
0000
0001
0010
,  // measure 36
0100
0010
0001
0000
1000
0000
0100
1000
0100
1000
0010
0000
1000
0000
0001
0100
,  // measure 37
0001
0100
0010
0000
0100
0000
0001
1000
0001
1000
0010
0000
1000
0000
0100
0010
,  // measure 38
0001
1000
0010
0000
0100
0000
0001
1000
0010
0100
0001
0000
1000
0000
0100
1000
,  // measure 39
0001
0010
0100
0000
0010
0000
0001
0100
0010
1000
0001
0000
1000
0000
0010
0100
,  // measure 40
0001
1000
0100
0000
1000
0000
0001
0010
0100
1000
0001
0000
0100
0000
0010
1000
,  // measure 41
0100
0100
0100
0100
0010
0010
0011
0000
,  // measure 42
0101
0000
0001
0100
0000
0100
0010
0000
0010
1000
0000
1000
0001
0000
1000
0100
,  // measure 43
1000
0000
1000
0100
0000
0100
0010
0000
0010
0001
0000
0001
1000
0000
0001
0100
,  // measure 44
0001
0000
0001
0010
0000
0010
0100
0000
0100
1000
0000
1000
0001
0000
1000
0010
,  // measure 45
1000
0000
1000
0010
0000
0010
0100
0000
0100
0010
0000
0010
1000
0000
0001
0010
,  // measure 46
0100
0000
0010
0001
0000
0010
1000
0000
0010
0100
0000
1000
0001
0000
1000
0100
,  // measure 47
0010
0000
0100
1000
0000
0100
0001
0000
0100
0010
0000
0001
1000
0000
0001
0100
,  // measure 48
0010
0000
0100
0001
0000
0100
1000
0000
0100
0010
0000
1000
0001
0000
0010
0001
,  // measure 49
0200
0000
0000
0310
,  // measure 50
1010
0000
1000
0100
0110
0000
0001
1000
,  // measure 51
0001
0000
0100
1000
0000
0100
0001
0000
2020
0000
0000
0000
3030
0000
0000
0000
,  // measure 52
1000
0100
0001
0000
2200
0000
3300
0000
,  // measure 53
0110
0110
2001
3010
,  // measure 54
1010
0000
0001
0100
0110
0000
1000
0001
,  // measure 55
1000
0000
0010
0001
0000
0010
1000
0000
0202
0000
0000
0000
0303
0000
0000
0000
,  // measure 56
0001
0010
1000
0000
0022
0000
0033
0000
,  // measure 57
1000
0100
1000
0000
0001
0100
0001
0000
1000
0010
0100
0001
1000
0000
0000
0000
,  // measure 58
0220
0000
0000
0000
,  // measure 59
0000
0000
0000
0330
,  // measure 60
0010
0100
0100
0100
0100
0100
0100
0100
,  // measure 61
0001
0100
0001
0100
0001
0100
0010
1000
0002
0000
0000
0000
1003
0000
0000
0000
,  // measure 62
2001
0000
0000
0000
3001
0010
0100
0010
0001
0010
0000
0010
0001
0000
1000
0000
,  // measure 63
0010
0000
1000
0100
1000
0000
0001
0100
0001
0000
0010
0000
1000
0000
0010
0000
,  // measure 64
0001
0000
0100
0000
0010
1000
0010
0100
0010
1000
0000
1000
0001
0000
1000
0000
,  // measure 65
0100
0010
0100
0010
0100
0000
0010
0000
0001
0100
0010
0100
0002
0000
0000
0000
,  // measure 66
2003
0000
0000
0000
3100
1000
0010
1000
0100
1000
0000
1000
0001
0000
0010
0000
,  // measure 67
0001
0000
0100
0001
0100
0000
0010
1000
0010
0000
1000
0100
0000
0001
0100
0000
,  // measure 68
1000
0000
0000
0000
0000
0000
0000
0000
0000
0001
0000
0000
1000
0000
0000
0000
0100
0000
0000
0000
0010
0000
0000
0000
0100
0000
0000
0000
0100
0000
0000
0000
1000
0000
0000
0000
0000
0000
0000
0000
0000
0000
0001
0000
0000
0000
0000
0000
,  // measure 69
1000
0010
1000
0010
1000
0010
1000
0010
2000
0000
0000
0000
3001
0000
0000
0000
,  // measure 70
1000
0000
0100
0000
1000
0010
0100
0001
1000
0000
0001
0000
1000
0100
0010
0001
,  // measure 71
1000
0010
0100
0010
0000
0010
1000
0010
1000
0100
1000
0000
0001
0000
1000
0000
,  // measure 72
0001
0000
0010
1000
0000
0010
0001
0100
0010
1000
0100
0010
,  // measure 73
0001
0000
0100
1000
0000
0100
0001
0100
0010
2000
0000
0000
,  // measure 74
3001
0000
0020
0000
0000
0000
0031
0100
0001
0010
0100
1000
0001
0010
0100
1000
,  // measure 75
0010
0000
0100
0000
0001
1000
0001
0000
0100
0000
0000
0101
0000
0000
1010
0000
,  // measure 76
1000
0000
0100
0010
0100
0000
0001
0000
0100
0010
0001
0000
0100
0010
0000
1000
,  // measure 77
0001
0000
0000
0000
0010
0000
1000
0000
0000
0000
0010
0000
0100
0000
0000
1000
0000
0000
0002
0000
0000
0000
0000
0000
,  // measure 78
2003
0000
0000
0000
0000
0000
3001
0010
0100
0010
0000
0010
0000
0000
0001
0000
,  // measure 79
2000
0000
3010
0100
0001
0010
0001
1000
,  // measure 80
0002
0000
0000
0000
0000
0000
1003
0010
0100
0010
0000
0010
0000
0000
1000
0000
,  // measure 81
0002
0000
0000
0000
0103
0000
0001
0000
1000
0000
0010
1000
0020
0000
0000
0000
,  // measure 82
2030
0000
0000
0000
0000
0000
3100
0010
0001
0010
0000
0010
0000
0000
0001
0000
,  // measure 83
0200
0000
0000
0000
0310
1000
0010
0000
1000
0000
0010
0001
0000
0010
1000
0000
,  // measure 84
0002
0000
0000
0000
0000
0000
0000
0000
0000
0000
0000
0000
0013
0000
0000
0000
0100
0000
0000
0000
1000
0000
0000
0000
0100
0000
0000
0010
0000
0000
0000
0000
0000
0010
0000
0000
0000
0000
0000
0000
0000
0000
0001
0000
0000
0000
0000
0000
,  // measure 85
1000
0100
0001
0100
0010
0001
1000
0010
0100
0002
0000
0000
,  // measure 86
0000
0000
0000
0000
,  // measure 87
0003
0000
0000
0000
;

//---------------dance-single - ----------------
#NOTES:
     dance-single:
     t7r really did this?!:
     Challenge:
     18:
     0.922,1.000,0.240,0.341,1.000: // measure 1
0000
0000
0000
0000
,  // measure 2
0000
0000
0000
0000
,  // measure 3
0000
0000
0000
0000
,  // measure 4
0000
0000
0000
0000
,  // measure 5
0000
0000
0000
0000
,  // measure 6
0012
0000
0000
0000
1003
0000
1000
0000
0100
0000
0100
0000
0001
0100
0000
1000
,  // measure 7
0100
0000
1000
0000
0010
0000
0100
0000
0001
0000
0001
0000
0010
1000
0000
0010
,  // measure 8
0001
0100
1000
1000
0100
0000
1010
0000
,  // measure 9
0001
0010
0001
0010
0100
1000
0100
1000
0001
0010
0100
1000
0002
0000
0000
0000
,  // measure 10
2003
0000
0000
0000
0000
0000
0000
0000
3010
0000
0000
0000
1000
0100
0000
0001
,  // measure 11
0100
1000
1000
0010
0001
0001
0010
0000
,  // measure 12
1010
0000
0000
0000
0101
0000
0000
0000
1000
0000
0100
0000
0001
0100
0010
0000
,  // measure 13
0001
0010
0001
0010
0100
1000
0100
1000
0001
0100
0001
0100
0020
0000
0000
0000
,  // measure 14
1030
0100
0010
0001
1000
0100
0010
0001
1000
0000
0000
0000
0010
1000
0000
0010
,  // measure 15
0001
0000
0010
0000
0100
0000
0100
0000
1000
0000
0100
0000
0001
0010
0000
1000
,  // measure 16
0010
0000
0001
1000
0100
0000
1000
0000
0001
1000
0010
0000
1000
0001
0010
0000
,  // measure 17
0001
0010
0001
0010
0100
1000
0100
1000
0001
0000
0100
0000
1000
0000
0100
0000
,  // measure 18
0102
0000
0000
0000
0013
0000
0000
0000
0001
0100
0000
1000
0000
0100
0001
0000
,  // measure 19
1000
0000
0100
0010
0001
0000
1000
0100
0000
0001
0000
0100
1000
0001
1000
0000
,  // measure 20
0010
0000
0100
0001
1000
0000
0000
0012
0000
0000
1003
0000
0100
0010
0001
0000
,  // measure 21
2000
0000
3010
0000
1000
0100
0010
0002
0000
0103
1000
0000
0110
0000
0000
0000
,  // measure 22
2010
0000
0000
0000
3100
0000
0000
1000
0010
1000
0000
0010
0000
1000
0001
0000
,  // measure 23
1000
0000
0010
0100
0001
0000
1000
0010
0000
0001
0000
0010
1000
0001
1000
0000
,  // measure 24
0100
0000
0010
0001
1000
0000
0000
2100
0000
0000
3001
0000
0010
0100
1000
0000
,  // measure 25
0001
0000
0010
0000
0100
0000
0001
0000
0100
0000
0010
0000
0002
0000
0000
0000
0000
0000
1003
0000
0000
0001
0000
0000
,  // measure 26
1000
0100
1000
0100
0010
0000
0001
0100
0000
010M
0000
1000
0000
0010
0000
0100
,  // measure 27
0001
0000
1000
0100
0000
M100
0000
0001
0000
0010
0000
0001
0100
0010
1000
0000
,  // measure 28
0010
0000
0100
0001
1000
0000
0000
0120
0000
0000
1030
0000
0001
1000
0100
0000
,  // measure 29
0010
0000
0000
0000
0000
0000
1000
0000
0000
0000
0000
0000
0010
0000
0000
0001
0000
0000
0100
0000
0000
0010
0000
0000
1000
0000
0000
0100
0000
0000
0000
0000
0000
0001
0000
0000
0100
0000
0000
0000
1000
0000
0000
0000
0010
0000
0000
0000
,  // measure 30
0001
0010
0100
0001
0100
0000
0001
0010
0000
1000
0010
0100
0000
1000
0001
0000
,  // measure 31
1000
0000
0001
0010
0000
001M
0000
1000
0000
0100
0000
1000
0010
0100
0001
0000
,  // measure 32
0100
0000
0010
1000
0001
0000
0000
0210
0000
0000
0301
0000
1000
0001
0010
0000
,  // measure 33
0001
0100
1000
0010
0001
0010
0200
0000
0000
0301
0000
0000
,  // measure 34
1000
0100
0010
0000
0001
0010
1000
0010
0100
1000
0001
0000
1000
0010
0001
0010
,  // measure 35
0100
0001
1000
0000
0001
0010
1000
0010
0100
1000
0001
0000
1000
0100
0001
0100
,  // measure 36
0010
0001
0100
0000
0001
0010
1000
0010
0100
1000
0010
0000
1000
0010
0001
0010
,  // measure 37
0100
0001
0010
0000
0001
0100
1000
0100
0010
1000
0100
0000
1000
0010
0100
0001
,  // measure 38
1000
0100
0010
0100
1000
0010
0100
1000
0100
0010
1000
0001
1000
0000
0001
1000
,  // measure 39
0001
0100
0010
0100
0001
0010
0100
0001
0100
0010
0001
1000
0001
0000
0100
0010
,  // measure 40
1000
0100
0010
1000
0010
0100
1000
0001
0100
0010
0001
0010
0100
0000
0010
1000
,  // measure 41
0004
0000
0000
1003
,  // measure 42
0101
0000
1000
0100
0000
0010
1000
0000
0010
0100
0000
0010
0001
0000
1000
0001
,  // measure 43
0100
0000
0001
0100
0000
0010
0100
0000
0010
0001
0000
0010
0100
0000
0010
1000
,  // measure 44
0100
0000
1000
0010
0000
0100
1000
0000
0100
0001
0000
0100
0010
0000
1000
0001
,  // measure 45
0010
0000
0001
0010
0000
0100
0001
0000
0100
1000
0000
0010
0100
0000
0001
1000
,  // measure 46
0010
0000
0001
0010
0000
001M
1000
0000
0001
0100
0000
010M
1000
0000
0001
1000
,  // measure 47
0100
0000
1000
0010
0000
M010
0100
0000
1000
0010
0000
M010
0100
0000
1000
0001
,  // measure 48
0010
0000
M001
0100
0000
010M
0010
0000
0001
0100
0000
010M
0010
0000
0001
1000
,  // measure 49
0040
0000
0000
0130
,  // measure 50
1010
0000
0000
0000
0001
0000
0100
0000
0011
0000
1000
0100
0000
0001
0100
0000
,  // measure 51
1000
0000
0010
1000
0000
0010
0001
0000
2200
0000
0000
0000
3300
0000
0000
0000
,  // measure 52
0001
0010
1000
0000
0202
0000
0303
0000
,  // measure 53
1000
0001
0100
0000
0001
1000
0100
0000
2010
0000
0000
0000
3001
0000
0000
0000
,  // measure 54
0101
0000
0000
0000
1000
0000
0010
0000
1100
0000
0001
0010
0000
1000
0010
0000
,  // measure 55
0001
0000
0100
0001
0000
0100
1000
0000
0022
0000
0000
0000
0033
0000
0000
0000
,  // measure 56
1000
0100
0001
0000
2020
0000
3030
0000
,  // measure 57
0001
1000
0010
0000
1000
0001
0010
0000
0001
0010
0100
1000
0001
0000
0000
0000
,  // measure 58
0220
0000
0000
0000
,  // measure 59
0000
0000
0000
0330
,  // measure 60
0040
0000
0000
0000
,  // measure 61
1030
0100
1000
0100
0010
0001
0010
0001
1000
0000
0000
0000
0110
0000
0000
0000
,  // measure 62
2010
0000
0000
0000
3001
0100
0001
0010
0001
0100
0000
010M
1000
0000
0010
0000
,  // measure 63
1000
0100
0010
1000
0010
0001
0010
0000
0001
0000
0100
0000
1000
0000
0100
0000
,  // measure 64
0002
0000
0000
0000
1003
0010
1000
0100
1000
0010
0000
M010
0001
0000
1000
0000
,  // measure 65
0001
0010
0001
0010
0100
1000
0100
1000
0001
0100
1000
0100
0002
0000
0000
0000
,  // measure 66
2003
0000
0000
0000
0000
0000
0000
0000
0000
0000
0000
0000
3001
0000
0100
0000
0001
0000
0100
0000
0010
0000
1000
0000
0001
0000
0000
0010
0000
0000
0000
0000
0000
001M
0000
0000
0100
0000
0000
0000
0000
0000
0010
0000
0000
0000
0000
0000
,  // measure 67
1000
0100
0010
1000
0010
0100
1000
0001
0100
0000
0001
0010
0000
1000
0010
0000
,  // measure 68
0002
0000
0000
0000
0000
0000
1003
0000
0100
0000
0001
0000
0100
0000
0100
0000
0010
0000
0000
0000
0000
100M
0000
0000
,  // measure 69
0001
0100
0001
0100
0010
1000
0010
1000
0001
0010
0100
1000
0001
0000
0000
0000
,  // measure 70
1000
0000
0100
0000
1000
0010
0001
0010
0100
0000
0001
0000
1000
0000
0001
0010
,  // measure 71
0001
0100
0001
0010
0000
0001
0010
0100
0001
0100
0010
0000
0001
0000
1000
0000
,  // measure 72
0001
0000
0000
0000
0100
0001
0010
0000
0000
0000
0100
0000
1000
0010
0100
0000
0001
0000
1000
0000
0100
0000
0010
0000
,  // measure 73
0001
0000
100M
0100
0000
M001
0100
1000
0010
0002
0000
0000
,  // measure 74
0013
0000
0200
0000
0000
0000
0310
1000
0100
0001
0100
1000
0100
0010
0001
1000
,  // measure 75
0001
0010
0100
1000
0100
0001
0100
0000
1M10
0000
0000
M011
0000
0000
10M1
0000
,  // measure 76
0110
0000
0000
0000
0001
0010
0100
0000
0000
0000
1000
0000
0100
1000
0001
0000
0100
0000
0010
0000
1000
0000
0100
0000
,  // measure 77
0001
0000
0000
0000
100M
0000
0010
0000
0000
0000
M001
0000
0100
0000
0000
0001
0000
0000
2002
0000
0000
3003
0000
0000
,  // measure 78
2040
0000
0000
0000
3030
0000
1000
0100
0010
0100
0000
01M0
0000
0000
1000
0000
,  // measure 79
0001
0000
0100
0000
0010
0000
0001
0010
0100
0000
0001
0000
1000
0000
0100
0000
,  // measure 80
0040
0000
0000
0000
0030
0000
0001
0100
0010
0100
0000
01M0
0000
0000
0001
0000
,  // measure 81
1000
0000
0010
0000
0100
0000
1000
0000
0100
0000
0001
0010
1000
0000
0000
0000
,  // measure 82
M042
0000
0000
0000
0033
0000
1000
0010
1000
0100
0000
M100
0000
0000
0001
0000
,  // measure 83
0010
0001
0100
1000
0100
0000
0001
0010
0100
0000
1000
0010
0000
M001
0100
0000
,  // measure 84
400M
0000
0000
0000
0000
0000
0000
0000
0000
0000
0000
0000
3001
0000
0000
0000
0010
0000
0000
0000
0001
0000
0000
0000
0100
0000
0000
0010
0000
0000
0000
0000
0000
0M10
0000
0000
0000
0000
0000
0000
0000
0000
0001
0000
0000
0000
0000
0000
,  // measure 85
1000
0100
0001
0100
0010
1000
0010
0001
0100
0020
0000
0000
,  // measure 86
0000
0000
0000
0000
,  // measure 87
0030
0000
0000
0000
;
