#TITLE:STEP you;
#SUBTITLE:;
#ARTIST:浜崎あゆみ;
#TITLETRANSLIT:;
#SUBTITLETRANSLIT:;
#ARTISTTRANSLIT:Ayumi Hamasaki;
#GENRE:;
#CREDIT:;
#BANNER:Step You-bn.png;
#BACKGROUND:Step You-bg.png;
#LYRICSPATH:;
#CDTITLE:;
#MUSIC:02. STEP you.mp3;
#OFFSET:0.215360;
#SAMPLESTART:56.060017;
#SAMPLELENGTH:15.000000;
#SELECTABLE:YES;
#DISPLAYBPM:103.000000;
#BPMS:0.000000=103.000000
;
#STOPS:
;
#BGCHANGES:0.750=Step You.mp4=1.000=1=0=1=StretchNormal==CrossFade==,
199.000=Step You-bg.png=1.000=0=0=1=====,
99999=-nosongbg-=1.000=0=0=0 // don't automatically add -songbackground-
;
#KEYSOUNDS:;
#ATTACKS:;

//---------------dance-single - ----------------
#NOTES:
     dance-single:
     :
     Hard:
     12:
     0.478005,0.517550,0.446699,0.134853,0.151709,397.000000,344.000000,53.000000,16.000000,0.000000,0.000000,0.478005,0.517550,0.446699,0.134853,0.151709,397.000000,344.000000,53.000000,16.000000,0.000000,0.000000:
// measure 0
0000
0000
0000
0000
,  // measure 1
0000
0000
0100
0000
,  // measure 2
0100
0000
0100
0000
,  // measure 3
0100
0100
1001
0000
0010
0000
0000
0000
,  // measure 4
0010
0000
0010
0000
,  // measure 5
0010
0010
1001
0000
1000
0000
0000
0000
,  // measure 6
1000
1000
0011
0000
1100
0000
0110
0000
,  // measure 7
1002
0000
1003
1000
0100
0001
0001
0100
,  // measure 8
1000
1000
0010
0001
0001
0010
1000
1000
,  // measure 9
0100
0001
0001
0100
1000
0010
0001
1000
,  // measure 10
0100
0001
1000
0010
0001
0100
1000
0001
,  // measure 11
2002
0000
0000
0000
,  // measure 12
0000
0000
3003
0000
0001
1000
0010
0100
,  // measure 13
0010
0000
0020
1000
1030
0000
0200
0010
,  // measure 14
0310
0000
1001
0000
1000
0100
0010
0001
,  // measure 15
1000
0001
0011
0000
1100
0000
0101
0000
,  // measure 16
1010
0000
1001
0000
1000
0010
0100
0001
,  // measure 17
1000
0000
2000
0100
3100
0000
0020
0001
,  // measure 18
0031
0000
0100
0010
0100
0001
0100
0010
,  // measure 19
1000
0001
0101
0000
1001
0000
1100
0000
,  // measure 20
1010
0000
2001
0001
3001
0001
0100
0010
,  // measure 21
0101
0000
2100
0100
3100
0100
1000
0001
,  // measure 22
1010
0000
0210
0010
0310
0010
1000
0100
,  // measure 23
1000
0001
0101
1000
1100
0010
2002
0000
,  // measure 24
3003
0000
0000
0000
0001
0000
0100
0000
0010
0000
1000
0000
0010
1000
0010
0000
,  // measure 25
1000
0000
0100
0000
1000
0000
0010
0000
0100
0000
0001
0000
0100
0010
1000
0000
,  // measure 26
1001
0000
0001
0100
1000
0100
0001
0010
,  // measure 27
1000
0010
0011
0000
0101
0000
1001
0000
,  // measure 28
1010
0000
0000
0000
0100
0000
0001
0000
1000
0000
0001
0000
0100
0010
0100
0000
,  // measure 29
0001
0000
1000
0000
0100
0000
0010
0000
0100
0000
1000
0000
0001
0010
0100
0000
,  // measure 30
1001
0000
0001
0010
0001
0000
0100
0000
1000
0000
0100
0000
0001
0010
0100
1000
,  // measure 31
0001
0010
0011
0010
0110
0100
1100
1000
,  // measure 32
1001
0000
0000
0000
1000
0010
0100
0000
0001
0000
0010
0000
1000
0010
1000
0000
,  // measure 33
0010
0000
0001
0000
1000
0001
0100
0000
0010
0000
0100
0000
0001
1000
0001
0000
,  // measure 34
0100
0000
0010
0000
1001
0000
0001
0000
1000
0000
0100
0000
0010
0100
0000
0100
,  // measure 35
1000
0010
1010
1000
1001
0001
0011
0010
,  // measure 36
0110
0000
0000
0000
1000
0100
0010
0000
0100
0000
1000
0000
0100
0010
0100
0000
,  // measure 37
0010
0000
0001
0000
0100
0010
0001
0000
0010
0000
1000
0000
0100
0010
0100
0000
,  // measure 38
1100
0000
1000
0100
1000
0000
0001
0000
1000
0000
0100
0000
1000
0010
0100
0001
,  // measure 39
1000
0001
0101
0100
0110
0010
1010
1000
,  // measure 40
1001
0000
0000
0000
1000
0000
0100
0000
1000
0000
0001
1000
0001
1000
0001
0000
,  // measure 41
1000
0000
0001
0000
0100
0000
0010
0000
0100
0000
0001
0100
0010
0100
0001
0000
,  // measure 42
1000
0000
0001
0000
0100
0000
0010
0000
1000
0000
0100
0010
0100
0010
0100
0000
,  // measure 43
1000
0001
1001
0100
1001
0010
1001
0100
,  // measure 44
2002
0000
3003
0000
0001
0000
0100
0000
0010
0000
1000
0010
1000
0010
1000
0000
,  // measure 45
0001
0000
0001
0000
0100
0000
0010
0000
1000
0000
0010
0100
0010
1000
0010
0000
,  // measure 46
0100
0000
0001
0010
0001
0000
1000
0000
0001
0000
0100
0001
0100
0001
0100
0000
,  // measure 47
0010
1000
0110
0001
0110
1000
0110
0001
,  // measure 48
0220
0000
0330
0000
0000
0000
0000
0000
0000
0000
0000
0000
0001
0100
0010
1000
,  // measure 49
0100
0010
0001
0000
0000
0000
0000
0000
0000
0000
0000
0000
0000
0000
0000
0000
;

//---------------dance-single - ----------------
#NOTES:
     dance-single:
     :
     Beginner:
     2:
     0.092711,0.124212,0.008428,0.033713,0.000000,77.000000,76.000000,1.000000,4.000000,0.000000,0.000000,0.092711,0.124212,0.008428,0.033713,0.000000,77.000000,76.000000,1.000000,4.000000,0.000000,0.000000:
0000
0000
0000
0000
,
0000
0000
1000
0000
,
0000
0000
0001
0000
,
0000
0000
0100
0000
,
0000
0000
0010
0000
,
0000
0000
1000
0000
,
0000
0001
0000
0000
,
0000
0100
0000
0000
,
0100
0000
0000
0000
,
0000
0100
0000
0100
,
0000
0100
0100
0100
,
0000
0000
0000
0000
,
0000
0000
0001
0000
,
1000
0000
0001
0000
,
1000
0000
0010
0000
,
0100
0000
0010
0000
,
0100
0000
0001
0000
,
0001
0000
1000
0000
,
1000
0000
0001
0000
,
0001
0100
0100
0100
,
0000
0002
0000
0003
,
0000
2000
0000
3000
,
0000
2000
0000
3000
,
0000
0002
0000
0003
,
0000
0001
0001
0000
,
0000
0001
0001
0000
,
0000
0100
0100
0000
,
0100
0100
0000
0000
,
0000
0010
0010
0000
,
0000
1000
1000
0000
,
0000
0100
0000
0100
,
0000
0010
0000
0010
,
0000
0001
0000
0001
,
0000
1000
0000
1000
,
0000
0001
0000
0001
,
0000
1000
0000
1000
,
0000
0001
0000
0001
,
0000
0100
0000
0100
,
0000
0010
0000
0010
,
0000
1000
0000
1000
,
0000
0001
0000
0000
,
0000
0001
0000
0000
,
0000
0100
0000
0000
,
0000
0100
0000
0000
,
0000
0010
0000
0000
,
0000
0010
0000
0000
,
0000
1000
0000
0000
,
0000
1000
0000
0000
,
0000
1000
0000
0000
,
0000
1001
0000
0000
0000
0000
0000
0000
;

//---------------dance-single - ----------------
#NOTES:
     dance-single:
     :
     Easy:
     5:
     0.204687,0.207020,0.109568,0.109568,0.000000,170.000000,157.000000,13.000000,13.000000,0.000000,0.000000,0.204687,0.207020,0.109568,0.109568,0.000000,170.000000,157.000000,13.000000,13.000000,0.000000,0.000000:
0000
0000
0000
0000
,
0000
0000
1000
0000
,
1000
0000
1000
0000
,
0001
0001
0100
0000
,
0100
0000
0100
0000
,
0100
0100
0010
0000
,
0010
0010
0000
0010
,
0000
1000
0000
0001
,
1000
0000
0001
1000
,
0000
0010
0010
1000
,
0100
0100
0010
0010
,
1001
0000
0000
0000
,
0000
0000
1000
1000
,
0001
0200
0310
0200
,
0310
0000
1000
1000
,
0100
0020
0032
0203
,
0320
1030
0100
1000
,
0001
1000
1000
0001
,
0001
0000
0100
0010
,
1000
0200
0310
0001
,
0100
0010
0010
1001
,
0000
0100
0100
1001
,
0000
1000
1000
0110
,
0000
0001
0001
0110
,
0000
1000
0100
0020
,
0031
0001
0100
0020
,
1030
1000
0100
0001
,
0100
1100
0000
1010
,
0000
1001
0000
0001
,
0001
1000
0000
0010
,
0010
1000
0100
0010
,
0001
0100
0100
0100
,
0010
1001
0000
1000
,
1000
0001
0000
0001
,
0001
0100
0010
0100
,
0100
0001
0001
1000
,
1000
1001
0000
1000
,
1000
1001
0000
0001
,
0001
0100
1000
0100
,
0001
0010
0010
0010
,
0010
2000
3000
0010
,
0010
0002
0003
0010
,
0010
2000
3000
0010
,
0010
0002
0003
0010
,
0010
1001
0001
0010
,
1000
0010
0001
0100
,
1000
0100
0001
1000
,
0001
1000
0100
0010
,
0001
0000
1001
0000
0000
0000
1000
0001
,
1000
0001
0000
0000
0000
0000
0000
0000
;

//---------------dance-single - ----------------
#NOTES:
     dance-single:
     :
     Medium:
     8:
     0.279338,0.351934,0.210707,0.109568,0.000000,232.000000,207.000000,25.000000,13.000000,0.000000,0.000000,0.279338,0.351934,0.210707,0.109568,0.000000,232.000000,207.000000,25.000000,13.000000,0.000000,0.000000:
0000
0000
0000
0000
,
0000
0000
1000
0000
,
0001
0000
1000
0000
,
0001
1000
0001
0000
0100
0000
0000
0000
,
0100
0000
0100
0000
,
0010
0100
0010
0000
1000
0000
0000
0000
,
0100
0011
0011
0022
,
0000
0033
0001
0001
0000
1000
1000
0000
,
0001
0001
0000
1000
1000
0000
0001
0001
,
0000
0100
0010
0100
0010
0100
0010
0100
,
0010
0100
0010
0100
0010
0100
0010
0100
,
0220
0000
0000
0000
,
0000
0330
0100
0001
,
0100
0010
1000
0010
,
0100
0000
0001
0001
,
1000
1000
0100
0010
,
0001
1001
1000
0100
,
0001
0100
1000
0010
,
0100
0000
0100
0010
,
1000
0001
0001
1000
,
1000
0000
0010
1000
0010
1000
0000
0000
,
0000
0000
0001
0100
0001
0100
0000
0000
,
0000
0000
0010
0100
0010
0100
0000
0000
,
0010
1000
1001
0000
1001
0000
2002
0000
,
3003
0000
1000
0000
0100
0000
0010
0010
,
0001
0000
0100
0000
0010
0000
0100
0010
,
0100
0010
1000
0100
,
0010
0011
0011
1100
,
1100
0000
1000
0000
0010
0000
0100
0100
,
0010
0000
1000
0000
0001
0000
1000
0001
,
1000
0000
0100
0000
0100
0000
1000
0100
,
1000
0101
0101
1010
,
1010
0000
0020
0000
0130
0000
0100
0100
,
0100
0000
0002
0000
1003
0000
1000
1000
,
1000
0000
0100
0000
0010
0000
0001
0100
,
0001
1001
1001
0110
,
0110
0000
2000
0000
3100
0000
0100
0100
,
0100
0000
0020
0000
0031
0000
0001
0001
,
0001
0000
1000
0000
0001
0000
1000
0010
,
1000
1010
1010
0101
,
0101
0000
0001
0000
0100
0000
1000
0100
,
0001
0000
0001
0000
0010
0000
1000
0010
,
0001
0000
1000
0000
0100
0000
0001
0100
,
1000
0020
0100
0100
,
0130
0000
1000
0000
0100
0000
0001
0100
,
1000
0000
0010
0000
0100
0000
0001
0100
,
0010
0000
1000
0000
0100
0000
0001
0100
,
1000
0010
1000
0010
,
0100
0000
2002
0000
0000
3003
0001
0100
,
1000
0100
0000
0000
0000
0000
0000
0000
;
