#VERSION:0.83;
#TITLE:SNOWY EXTRA HYPE;
#SUBTITLE:;
#ARTIST:dj VERTICAI;
#TITLETRANSLIT:;
#SUBTITLETRANSLIT:;
#ARTISTTRANSLIT:;
#GENRE:;
#ORIGIN:;
#CREDIT:;
#BANNER:SNOWY EXTRA HYPE.png;
#BACKGROUND:SNOWY EXTRA HYPE-bg.png;
#PREVIEWVID:;
#JACKET:SNOWY EXTRA HYPE-jacket.png;
#CDIMAGE:;
#DISCIMAGE:;
#LYRICSPATH:;
#CDTITLE:;
#MUSIC:SNOWY EXTRA HYPE.ogg;
#OFFSET:-1.625000;
#SAMPLESTART:27.235027;
#SAMPLELENGTH:15.000000;
#SELECTABLE:YES;
#DISPLAYBPM:75.000000:150.000000;
#BPMS:0.000=150.000,
40.000=75.000,
40.125=150.000,
40.250=300.000,
40.500=75.000,
40.625=150.000,
40.750=300.000,
41.000=150.000,
48.000=75.000,
48.250=150.000,
48.500=300.000,
49.000=150.000,
62.000=75.000,
62.250=150.000,
62.500=300.000,
63.500=150.000,
63.750=75.000,
64.000=150.000,
103.000=75.000,
103.250=150.000,
103.500=300.000,
104.000=150.000,
111.000=75.000,
111.250=150.000,
111.500=300.000,
112.000=150.000,
119.000=75.000,
119.250=150.000,
119.500=300.000,
120.000=150.000,
160.000=75.000,
176.000=150.000,
207.000=75.000,
207.250=150.000,
207.500=300.000,
208.000=150.000;
#STOPS:;
#DELAYS:;
#WARPS:;
#TIMESIGNATURES:0.000=4=4;
#TICKCOUNTS:0.000=4;
#COMBOS:0.000=1;
#SPEEDS:0.000=1.000=0.000=0;
#SCROLLS:0.000=1.000;
#FAKES:;
#LABELS:0.000=Song Start;
#BGCHANGES:;
#KEYSOUNDS:;
#ATTACKS:
;

//---------------dance-single - ----------------
#NOTEDATA:;
#CHARTNAME:;
#STEPSTYPE:dance-single;
#DESCRIPTION:;
#CHARTSTYLE:;
#DIFFICULTY:Challenge;
#METER:14;
#RADARVALUES:0.657202,0.790540,0.398592,0.622799,0.577127,554.000000,506.000000,48.000000,75.000000,0.000000,0.000000,0.000000,0.000000,0.000000,0.657202,0.790540,0.398592,0.622799,0.577127,554.000000,506.000000,48.000000,75.000000,0.000000,0.000000,0.000000,0.000000,0.000000;
#CREDIT:;
#DISPLAYBPM:75.000000:150.000000;
#NOTES:
0000
0000
0000
0000
,
0000
0000
0000
0000
,
0000
0000
0000
0000
,
0000
0000
0000
0000
,
0000
0000
0000
0000
,
0000
0000
0000
0000
,
2100
3002
0100
2003
,
3100
0000
1000
0100
0010
0000
0001
0100
0010
0100
0000
0001
0000
1000
0000
1000
,
0010
0000
0100
0001
0100
0000
0001
2000
3000
0000
1000
0000
0001
0000
0010
0000
,
0001
0000
0010
0100
0010
0000
0001
0000
1000
0100
1000
0100
0010
0001
0010
0001
,
0100
0000
0100
0000
0001
0000
0000
0100
0000
0010
0100
0000
0001
0000
1000
0010
,
0100
0000
0002
0003
1000
0000
0002
0003
0010
0000
0001
0010
0100
0000
0010
0000
,
2000
0000
0000
0000
3010
0000
0100
1000
0000
1000
0000
0001
0010
0000
0001
0000
,
0100
0000
0001
0000
0100
0000
0010
0000
1000
0000
0010
0000
1000
0001
1000
0001
,
0010
0000
0010
0001
0100
0000
0001
0000
1000
0000
0010
0000
0100
0000
0010
0000
,
1010
1000
1100
0100
0220
0000
0330
0000
,
0001
0000
0010
0100
0010
0000
1000
0000
0010
0000
0002
0000
0003
0000
0001
0010
,
0001
1000
0010
0100
0001
0100
0010
2000
,
3000
0000
1000
0010
0100
0000
0010
0100
0001
0000
2000
0000
3000
0000
0001
1000
,
0001
1000
0100
0000
0110
0000
0100
0010
0001
0000
0001
1000
0100
0000
1000
0000
,
0001
0001
1000
0001
0100
0001
1000
0001
,
0010
0010
0100
0010
1001
1000
0100
0020
,
0030
0000
0011
0000
0000
0000
0001
0010
0100
1000
0100
1000
0001
0000
0010
0000
,
0000
0000
0010
0000
0001
0000
1000
0000
0010
1000
0010
1000
0002
0000
0103
0000
,
0010
0000
0000
0010
0000
0000
0010
0100
0001
0200
0300
0001
,
1000
0010
1000
0001
0010
0100
1000
0000
1000
0002
0000
0000
,
0013
0000
0000
0010
0000
0010
0001
1000
0001
0100
0001
1000
,
0010
0100
0001
1000
0001
0010
0100
0000
0100
0020
0000
0000
,
0031
0000
0000
0001
0000
0000
0001
1000
0100
1000
0001
0010
,
0001
1000
0010
1000
0001
0100
0010
0000
0010
2000
0000
0000
,
3100
0000
0000
0100
0000
0010
0100
1000
0010
1000
0010
0100
,
0001
0000
0000
0000
0010
0000
0000
0000
0100
0000
0000
0000
0010
0000
0000
0000
0100
0000
0000
0000
1000
0000
0000
0000
0002
0000
0000
0000
0000
0000
0000
0000
0000
1003
0000
0000
0000
0000
0000
0000
0000
0000
1000
0000
0000
0001
0000
0000
,
0100
0000
0100
0000
0010
0000
0010
0000
1000
0000
0020
0000
0030
0000
0010
1000
,
0001
0001
0010
0010
0100
1000
0100
0020
,
0030
0000
0001
0010
0001
0000
0100
0001
0100
0000
0020
0000
0030
0000
0010
1000
,
0001
1000
0001
0000
0100
0000
0001
0100
0010
0000
0010
1000
0001
0000
0001
1000
,
0100
0100
1100
0100
0110
0010
0011
0010
,
0100
1000
0001
1000
1010
0010
0100
0002
,
0003
0000
1001
0000
0000
0000
1000
0000
0001
0100
0001
1000
0010
0000
0020
0000
,
0030
0000
1000
0000
0010
0000
1000
0000
0100
1000
0100
0010
0001
0000
1000
0000
,
0020
0000
0000
2030
3002
0000
0023
0000
,
0230
0000
0000
0000
0000
0310
0001
1000
0002
0000
0203
0000
0310
1000
0001
1000
,
0200
0000
0000
0000
0000
1300
0001
0100
0002
0000
2003
0000
3200
0000
0010
0000
,
0320
0000
0000
0000
0000
0000
0032
0000
0023
0000
0230
0000
1300
0001
0100
0001
,
0020
0000
0000
0000
,
0000
0000
0000
0000
,
0031
0010
0001
0010
0100
0010
0100
0010
,
0100
1000
0100
1000
0001
1000
0001
1000
,
0010
0000
1000
0010
1000
0000
0001
1000
0001
0000
0100
0001
0100
0000
0010
0100
,
0010
0000
1000
0001
1000
0000
0100
1000
0100
0000
0010
0100
0010
0000
0001
0010
,
0001
0000
1001
0000
1000
0000
1001
0000
0001
0100
0001
0100
0010
1000
0010
1000
,
0001
0000
1000
0100
0010
0000
0100
1000
0001
0000
0011
0000
0220
0330
0000
0000
,
2002
3003
0000
0000
2020
3030
0000
0101
0000
0101
0000
0000
0220
0330
0000
0000
,
0202
0303
0000
0000
0022
0033
0000
0000
2200
3300
0000
0000
0022
0033
0000
0000
,
2020
3030
0000
0000
2002
3003
0000
1100
0000
0100
1000
0000
0001
0000
0010
0000
,
0002
0000
1003
0000
1010
1010
0110
0101
,
2002
3003
0000
0000
2200
3300
0000
0011
0000
0001
1000
0000
0100
0000
1000
0000
,
0010
0100
0001
0100
0110
1000
0001
0010
,
0220
0330
0000
0000
2002
3003
0000
0011
0000
1010
0000
0000
0010
0000
0010
1000
,
0001
0000
0001
1000
0000
0100
1000
0000
1000
0001
0000
0010
,
0001
0000
0001
0010
0000
0010
0100
0000
2200
3300
0000
1000
,
0010
0000
0010
0100
0000
0100
0001
0000
0202
0303
0000
0100
,
0001
0000
0001
1000
0000
1000
0010
0000
2020
3030
0000
1000
,
0001
0000
0010
0001
0000
0001
1000
0000
0010
1000
0000
1000
,
0001
0100
0001
1000
0001
0011
0010
0100
,
1000
0100
1000
0001
1000
1010
1000
0010
,
0100
0001
1000
0001
0100
0110
0010
1000
,
1001
0000
0001
0000
0010
0000
0100
0000
0110
0000
0010
0000
0100
1000
0001
1000
,
0010
0000
0000
0000
;

//---------------dance-single - ----------------
#NOTEDATA:;
#CHARTNAME:;
#STEPSTYPE:dance-single;
#DESCRIPTION:;
#CHARTSTYLE:;
#DIFFICULTY:Hard;
#METER:12;
#RADARVALUES:0.497053,0.536438,0.107952,0.531456,0.274032,419.000000,406.000000,13.000000,64.000000,0.000000,0.000000,0.000000,0.000000,0.000000,0.497053,0.536438,0.107952,0.531456,0.274032,419.000000,406.000000,13.000000,64.000000,0.000000,0.000000,0.000000,0.000000,0.000000;
#CREDIT:;
#DISPLAYBPM:75.000000:150.000000;
#NOTES:
// measure 0
0000
0000
0000
0000
,  // measure 1
0000
0000
0000
0000
,  // measure 2
0000
0000
0000
0000
,  // measure 3
0000
0000
0000
0000
,  // measure 4
0000
0000
0000
0000
,  // measure 5
0000
0000
0000
0000
,  // measure 6
0002
0203
0320
2030
,  // measure 7
3100
0000
1000
0000
0100
0000
0010
0000
0001
1000
0000
0010
0000
0010
0000
1000
,  // measure 8
0001
0000
0100
0000
0001
0000
0000
0010
0000
0000
0010
0000
0100
0000
1000
0000
,  // measure 9
0001
0000
1000
0000
0100
0000
1000
0000
0001
0000
0001
0000
1000
0001
1000
0000
,  // measure 10
0010
0000
0010
0000
0100
0000
0000
0010
0000
0100
0010
0000
1000
0000
0001
0000
,  // measure 11
0010
0000
0001
0000
0010
0000
0100
0000
0010
0000
0001
1000
0001
0000
0100
0000
,  // measure 12
0020
0000
0000
0000
0130
0000
0000
0001
0000
1000
0000
0001
0010
0000
0010
0000
,  // measure 13
0100
0000
0001
0000
0100
0000
1000
0000
0001
0000
0000
0000
1000
0010
1000
0010
,  // measure 14
1000
0001
0100
0001
0010
0001
1000
0100
,  // measure 15
0010
0010
0100
1000
0002
0000
0003
0000
,  // measure 16
0100
0100
0001
1000
0010
0020
0030
0100
,  // measure 17
0001
0001
1000
1000
0100
1000
0001
0020
,  // measure 18
0030
0010
0001
1000
0001
0200
0300
0001
,  // measure 19
0100
0010
1000
0001
0010
0100
1000
0100
,  // measure 20
0010
0010
0100
1000
0001
0001
0100
0010
,  // measure 21
1000
1000
0001
0001
0010
0001
1000
0020
,  // measure 22
0030
0000
0110
0000
0000
0000
0100
0000
0001
1000
0001
0000
0010
0000
0200
0000
,  // measure 23
0300
0000
0100
0000
0010
0000
0100
0000
1000
0001
1000
0000
0010
0000
0200
0000
,  // measure 24
0301
0000
0000
0001
0000
0000
1000
0000
1000
0001
0000
0001
,  // measure 25
0100
0000
0100
0001
0000
0001
0020
0000
0000
0030
0000
0000
,  // measure 26
0100
0000
0000
0100
0000
0000
1000
0000
1000
0010
0000
0010
,  // measure 27
0100
0000
0100
0001
0000
0001
0020
0000
0000
0030
0000
0000
,  // measure 28
0001
0000
0000
1000
0000
0000
0001
0000
0001
0100
0000
0100
,  // measure 29
0010
0000
0010
1000
0000
1000
0200
0000
0000
0300
0000
0000
,  // measure 30
1000
0000
0000
0001
0000
0000
1000
0100
1000
0001
0000
0001
,  // measure 31
0100
0000
0001
0000
0100
0000
0001
0000
1000
0000
0100
0000
0020
0000
0000
0000
0000
0000
0030
0000
0000
0010
0000
0000
,  // measure 32
0001
0010
0100
0010
0001
2000
3000
1000
,  // measure 33
0010
0010
0100
0100
0001
0100
0010
2000
,  // measure 34
3000
0001
1000
0010
1000
0200
0300
0100
,  // measure 35
1000
0001
1000
0000
0100
0000
0010
0000
0001
0000
0010
0000
1000
0000
0001
0000
,  // measure 36
0100
1000
0001
0001
0100
0100
0001
1000
,  // measure 37
0010
0010
1000
0001
0010
0001
1000
0200
,  // measure 38
0300
0000
0110
0000
0000
0000
0100
0000
1000
0001
1000
0000
0010
0000
0200
0000
,  // measure 39
0300
0000
0100
0000
0010
0000
1000
0000
0001
1000
0001
0000
0010
0000
0001
0000
,  // measure 40
2000
0000
0000
3002
0023
0000
0032
0000
,  // measure 41
0203
0000
0000
0000
0300
0001
1000
0100
0020
0000
0230
0000
1300
0001
1000
0100
,  // measure 42
0020
0000
0000
0000
0030
0100
0010
0001
2000
0000
3002
0000
0203
0000
0010
0000
,  // measure 43
0320
0000
0000
0000
0000
0000
2030
0000
3020
0000
0230
0000
0301
1000
0001
0010
,  // measure 44
0200
0000
0000
0000
,  // measure 45
0000
0000
0000
0300
,  // measure 46
2000
3100
0200
0310
,  // measure 47
0020
0031
0002
1003
,  // measure 48
2010
3001
0102
1003
,  // measure 49
0021
0130
1200
0310
,  // measure 50
0010
0001
0100
1000
0100
0001
0010
1000
,  // measure 51
0010
0000
0000
0000
0010
0000
0000
0000
0010
0000
0010
0000
2002
3003
0000
0000
,  // measure 52
2001
0000
0000
0000
0010
0000
0000
0100
0000
0100
0000
0000
3002
0000
0000
0000
,  // measure 53
0203
0000
0300
0000
0100
0000
0010
0000
2020
3030
0000
0000
2020
3030
0000
0000
,  // measure 54
1002
0000
0000
0000
0100
0000
0000
0010
0000
0010
0000
0000
1003
0000
0001
0000
,  // measure 55
0020
0000
0230
0000
0310
0001
1000
0100
,  // measure 56
0120
0000
0000
0000
0001
0000
0000
1000
0000
1000
0000
0000
0031
0000
0010
0000
,  // measure 57
0002
0203
2300
3020
,  // measure 58
0031
0000
0000
0000
0201
0000
0000
0010
0000
0010
0000
0000
0301
0000
0000
0000
,  // measure 59
1000
0000
1000
0001
0000
0001
1000
0000
1000
0001
0000
0001
,  // measure 60
0010
0000
0000
0100
0000
0000
0010
0000
0100
0010
0000
0010
,  // measure 61
0001
0000
0000
1000
0000
0000
0001
0000
1000
0001
0000
0001
,  // measure 62
0100
0000
0000
0010
0000
0000
0100
0000
0010
0100
0000
0100
,  // measure 63
0001
0000
0000
1000
0000
0100
1000
0000
0000
0001
0000
0010
,  // measure 64
0001
0100
0001
1000
0001
0010
0001
1000
,  // measure 65
0100
1000
0001
1000
0010
1000
0001
0100
,  // measure 66
0010
0100
0010
0100
0010
1000
0001
0100
,  // measure 67
0001
0001
0010
0100
1000
1000
0010
0200
,  // measure 68
0301
0000
0000
0000
;
