#TITLE:SHOX;
#SUBTITLE:;
#ARTIST:RAM;
#TITLETRANSLIT:;
#SUBTITLETRANSLIT:;
#ARTISTTRANSLIT:;
#GENRE:DRUM'N'BASS;
#CREDIT:Graphics made by TonyAkita;
#MUSIC:SHOX.ogg;
#BANNER:SHOX.png;
#BACKGROUND:SHOX-bg.png;
#CDTITLE:;
#SAMPLESTART:10.980;
#SAMPLELENGTH:15.000;
#SELECTABLE:YES;
#OFFSET:1.342;
#BPMS:0.000=175.000;
#STOPS:;
#DISPLAYBPM:175.000;
#BGCHANGES:;
#FGCHANGES:;

//--------------- dance-single - forcednature ----------------
#NOTES:
     dance-single:
     forcednature:
     Beginner:
     5:
     0,0,0,0,0:
0000
0000
0000
0000
,
0000
0000
0000
0000
,
0000
0000
0000
0000
,
0000
0000
0000
0000
,
0000
0000
0000
0000
,
0000
0000
0000
0000
,
0000
0000
0000
0000
,
0000
0000
0000
0000
,
1000
0000
0000
0001
0000
0000
1000
0000
,
0000
0001
0000
1000
,
0000
0010
0000
0100
,
0000
0001
0000
1000
,
0000
0100
0000
0010
,
0000
0100
0000
1000
,
0000
0001
0000
0010
,
0000
0001
0000
1000
,
0001
0000
0000
1000
0000
0000
0001
0000
,
0000
0100
0000
0100
,
0000
0010
0000
0010
,
0000
1000
0000
1000
,
0000
0001
0000
0001
,
0000
0010
0000
0100
,
0000
1000
0000
0001
,
0000
0100
0000
0001
,
0000
1000
0000
0010
,
1000
0001
0000
0100
,
0000
0010
0000
1000
,
0000
0100
0000
0010
,
0000
0001
0000
0100
,
0000
0010
0000
1000
,
0000
0001
0000
0100
,
0000
0010
0000
1000
,
0100
0000
0000
0100
0000
0000
0100
0000
,
0000
1000
1000
1000
,
0000
0001
0000
0001
,
0000
0100
0100
0100
,
0000
0001
0000
0010
,
0000
0100
0100
0100
,
0000
1000
0000
0010
,
0000
0100
0100
0100
,
0010
0000
0000
0010
0000
0000
0010
0000
,
0000
0100
0100
0100
,
0000
0001
0000
0010
,
0000
0001
0001
0001
,
0000
1000
0000
0010
,
0000
0100
0100
0100
,
0000
0010
0000
1000
,
0000
0001
0001
0001
,
0010
0000
0000
0010
0000
0000
0010
0000
,
0000
0100
0100
0100
,
0000
1000
0000
0001
,
0000
0100
0100
0100
,
0000
0001
0000
1000
,
0000
0010
0010
0010
,
0000
1000
0000
0001
,
0000
0010
0010
0010
,
0100
0000
0000
0100
0000
0000
0100
0000
;

//--------------- dance-single - forcednature ----------------
#NOTES:
     dance-single:
     forcednature:
     Easy:
     5:
     0,0,0,0,0:
0000
0000
0000
0000
,
0000
0000
0000
0000
,
0000
0000
0000
0000
,
0000
0000
0000
0000
,
0000
0000
0000
0000
,
0000
0000
0000
0000
,
0000
0000
0000
0000
,
0000
0000
0000
0000
,
1000
0000
0000
0001
0000
0000
1000
0000
,
0001
1000
0000
1000
,
0001
0100
0000
0010
,
1000
0100
0000
0010
,
0001
1000
0000
0100
,
1000
0001
0000
0100
,
0010
1000
0000
0001
,
0100
0010
0000
1000
,
0001
0000
0000
1000
0000
0000
0001
0000
,
0100
0000
0010
0000
0000
1000
0000
0000
,
0001
0000
0010
0000
0000
0100
0000
0000
,
1000
0000
0001
0000
0000
0100
0000
0000
,
0001
0000
1000
0000
0000
0100
0000
0000
,
0010
0010
0010
0000
,
0100
0100
0100
0000
,
1000
1000
1000
0000
,
0001
0001
0001
0000
,
1001
0100
0000
0001
,
0010
1000
0000
0100
,
0010
1000
0000
0001
,
0100
0010
0000
0001
,
1000
0010
0000
0100
,
0001
1000
0000
0100
,
1000
0010
0000
0100
,
0001
0000
0000
1000
0000
0000
0001
0000
,
0000
0000
0200
0000
0000
0010
0000
0000
,
0320
0000
0000
1000
0000
0000
1030
0000
,
0000
0000
2000
0000
0000
0100
0000
0000
,
3200
0000
0000
0010
0000
0000
0310
0000
,
0000
0000
0002
0000
0000
0010
0000
0000
,
0023
0000
0000
0001
0000
0000
0031
0000
,
0000
0000
0002
0000
0000
0100
0000
0000
,
0203
0000
0000
0010
0000
0000
0310
0000
,
1000
0000
0002
0000
0000
0023
0000
0000
,
0230
0000
0000
2300
0000
0000
3001
0000
,
0000
0000
2000
0000
0000
3020
0000
0000
,
0230
0000
0000
0302
0000
0000
1003
0000
,
0000
0000
0002
0000
0000
2003
0000
0000
,
3200
0000
0000
0320
0000
0000
0031
0000
,
0000
0000
0200
0000
0000
0302
0000
0000
,
2003
0000
0000
3020
0000
0000
0130
0000
,
0000
0000
0002
0000
0000
2003
0000
0000
,
3200
0000
0000
0320
0000
0030
0110
0000
,
0000
0000
2000
0000
0000
3002
0000
0000
,
0203
0000
0000
0302
0000
0003
1001
0000
,
0000
0000
2000
0000
0000
3020
0000
0000
,
0230
0000
0000
0302
0000
0003
1001
0000
,
0000
0000
0002
0000
0000
0023
0000
0000
,
0230
0000
0000
2300
0000
3000
1001
0000
;

//--------------- dance-single - forcednature ----------------
#NOTES:
     dance-single:
     forcednature:
     Medium:
     9:
     0,0,0,0,0:
0000
0000
0000
0000
,
0000
0000
0000
0000
,
0000
0000
0000
0000
,
0000
0000
0000
0000
,
0000
0000
0000
0000
,
0000
0000
0000
0000
,
0000
0000
0000
0000
,
0000
0000
0000
0000
,
1000
0000
0000
0001
0000
0000
1000
0000
0000
0001
0000
0000
1000
0000
0001
0000
,
1000
0000
0000
0000
0010
0000
0000
0100
0000
0000
0001
0000
0100
0000
0000
0000
,
0010
0000
0000
0000
1000
0000
0000
0100
0000
0000
0010
0000
0001
0000
0000
0000
,
0100
0000
0000
0000
0001
0000
0000
1000
0000
0000
0010
0000
1000
0000
0000
0000
,
0001
0000
0000
0000
0010
0000
0000
0100
0000
0000
1000
0000
0100
0000
0000
0000
,
0010
0000
0000
0000
0001
0000
0000
1000
0000
0000
0010
0000
0100
0000
0000
0000
,
0001
0000
0000
0000
1000
0000
0000
0100
0000
0000
1000
0000
0001
0000
0000
0000
,
0010
0000
0000
0000
0001
0000
0000
0100
0000
0000
0010
0000
1000
0000
0000
0000
,
0100
0000
0000
0010
0000
0000
0100
0000
0000
0010
0000
0000
0100
0000
0010
0000
,
0001
0000
0000
0000
1000
0000
0000
0010
0000
0000
0220
0000
0000
0330
0000
0000
,
0001
0000
0000
0000
1000
0000
0000
0100
0000
0000
0220
0000
0000
0330
0000
0000
,
1000
0000
0000
0000
0001
0000
0000
0100
0000
0000
2002
0000
0000
3003
0000
0000
,
0001
0000
0000
0000
1000
0000
0000
0100
0000
0000
2002
0000
0000
3003
0000
0000
,
1000
0000
0000
0000
0010
0000
0000
0110
0000
0000
0000
0000
0001
0000
0000
0000
,
1000
0000
0000
0000
0001
0000
0000
0101
0000
0000
0000
0000
1000
0000
0000
0000
,
0010
0000
0000
0000
1000
0000
0000
1100
0000
0000
0000
0000
0100
0000
0000
0000
,
0010
0000
0000
0000
0001
0000
0000
1001
0000
0000
0000
0000
0100
0000
0000
0000
,
1001
0000
0000
0000
1000
0000
0000
0010
0000
0000
0100
0000
0001
0000
0000
0000
,
0100
0000
0000
0000
0010
0000
0000
1000
0000
0000
0100
0000
0010
0000
0000
0000
,
0001
0000
0000
0000
1000
0000
0000
0001
0000
0000
0100
0000
0001
0000
0000
0000
,
1000
0000
0000
0000
0010
0000
0000
1000
0000
0000
0100
0000
0010
0000
0000
0000
,
0001
0000
0000
0000
0100
0000
0000
0001
0000
0000
1000
0000
0010
0000
0000
0000
,
1000
0000
0000
0000
0001
0000
0000
0010
0000
0000
0100
0000
1000
0000
0000
0000
,
0001
0000
0000
0000
0100
0000
0000
0001
0000
0000
1000
0000
0100
0000
0000
0000
,
0010
0000
0000
0100
0000
0000
0010
0000
0000
0100
0000
0000
0010
0000
0100
0000
,
0000
0000
0000
0000
1000
0000
0000
0001
0000
0000
1000
0000
0001
0000
1000
0000
,
0001
0000
0000
0100
0000
0000
0001
0000
0000
0100
0000
0000
0001
0000
0000
0000
,
0000
0000
0000
0000
1000
0000
0000
0010
0000
0000
1000
0000
0010
0000
1000
0000
,
0100
0000
0000
1000
0000
0000
0100
0000
0000
1000
0000
0000
0100
0000
0000
0000
,
0000
0000
0000
0000
0010
0000
0000
0001
0000
0000
0010
0000
0001
0000
0010
0000
,
0100
0000
0000
0010
0000
0000
0100
0000
0000
0010
0000
0000
0100
0000
0000
0000
,
0000
0000
0000
0000
1000
0000
0000
0001
0000
0000
1000
0000
0001
0000
1000
0000
,
0001
0000
0000
0100
0000
0000
0001
0000
0000
0100
0000
0000
0001
0000
0100
0000
,
0000
0000
0000
0000
0010
0000
0000
1000
0000
0000
0010
0000
1000
0000
0010
0000
,
0100
0000
0000
0001
0000
0000
0100
0000
0000
0001
0000
0000
0100
0000
0000
0000
,
0000
0000
0000
0000
0010
0000
0000
1000
0000
0000
0010
0000
1000
0000
0010
0000
,
1000
0000
0000
0100
0000
0000
1000
0000
0000
0100
0000
0000
1000
0000
0000
0000
,
0000
0000
0000
0000
0001
0000
0000
0010
0000
0000
0001
0000
0010
0000
0001
0000
,
1000
0000
0000
0100
0000
0000
1000
0000
0000
0100
0000
0000
1000
0000
0000
0000
,
0000
0000
0000
0000
0010
0000
0000
0100
0000
0000
0010
0000
0100
0000
0010
0000
,
1000
0000
0000
0001
0000
0000
1000
0000
0000
0001
0000
0000
1000
0000
0001
0000
,
0000
0000
0000
0000
1000
0000
0000
0010
0000
0000
0100
0000
0001
0000
0010
0000
,
0100
0000
0000
1000
0000
0000
0001
0000
0000
0100
0000
0000
0001
0000
0000
0000
,
0000
0000
0000
0000
1000
0000
0000
0100
0000
0000
1000
0000
0001
0000
0010
0000
,
0001
0000
0000
1000
0000
0000
0010
0000
0000
0100
0000
0000
0001
0000
0000
0000
,
0000
0000
0000
0000
1000
0000
0000
0100
0000
0000
1000
0000
0010
0000
0100
0000
,
0001
0000
0000
0010
0000
0000
0001
0000
0000
0100
0000
0000
0010
0000
0000
0000
,
0000
0000
0000
0000
1000
0000
0000
0001
0000
0000
0100
0000
0001
0000
1000
0000
,
0010
0000
0000
1000
0000
0000
0001
0000
0000
0100
0000
0000
0001
0000
1000
0000
,
0100
0000
0000
0000
;

//--------------- dance-single - forcednature ----------------
#NOTES:
     dance-single:
     forcednature:
     Hard:
     12:
     0,0,0,0,0:
0000
0000
0000
0000
,
0000
0000
0000
0000
,
0000
0000
0000
0000
,
0000
0000
0000
0000
,
0000
0000
0000
0000
,
0000
0000
0000
0000
,
0000
0000
0000
0000
,
0000
0000
0000
0000
,
0001
0000
0000
1001
0000
0000
1000
0000
0000
1001
0000
0000
0001
0000
1000
0000
,
0010
0000
0100
0000
0001
0000
0000
0100
0000
0000
0010
0000
1000
0000
0100
0000
,
0010
0000
0001
0000
1000
0000
0000
0010
0000
0000
0100
0000
0001
0000
0100
0000
,
1000
0000
0100
0000
0010
0000
0000
1000
0000
0000
0100
0000
0001
0000
0100
0000
,
0010
0000
0001
0000
1000
0000
0000
0001
0000
0000
1000
0000
0010
0000
1000
0000
,
0001
0000
0010
0000
1000
0000
0000
0010
0000
0000
0100
0000
1000
0000
0001
0000
,
1000
0000
0010
0000
0001
0000
0000
0010
0000
0000
0100
0000
0001
0000
1000
0000
,
0100
0000
0010
0000
0001
0000
0000
0100
0000
0000
1000
0000
0100
0000
0010
0000
,
1000
0000
0000
0110
0000
0000
0001
0000
0000
0110
0000
0000
1000
0000
0001
0000
,
1000
0000
0000
0000
0010
0000
0000
0100
0000
0000
2002
0000
0000
3003
0000
0000
,
0100
0000
0000
0000
1000
0000
0000
0010
0000
0000
0220
0000
0000
0330
0000
0000
,
0001
0000
0000
0000
1000
0000
0000
0010
0000
0000
0202
0000
0000
0303
0000
0000
,
1000
0000
0000
0000
0100
0000
0000
0010
0000
0000
2002
0000
0000
3003
0000
0000
,
0001
0000
0000
0000
0110
0000
0000
0110
0000
0000
0000
0000
1000
0000
0100
0000
,
0010
0000
0000
0000
1001
0000
0000
1001
0000
0000
0000
0000
0001
0000
0100
0000
,
0010
0000
0000
0000
1001
0000
0000
1001
0000
0000
0000
0000
1000
0000
0001
0000
,
0100
0000
0000
0000
0110
0000
0000
0110
0000
0000
0000
0000
0001
0000
1000
0000
,
0110
0000
0000
0000
1001
0000
0000
1001
0000
0000
1000
0000
0010
0000
0100
0000
,
0010
0000
0000
0000
0110
0000
0000
0110
0000
0000
0001
0000
0010
0000
0100
0000
,
1000
0000
0000
0000
0110
0000
0000
0110
0000
0000
1000
0000
0001
0000
0010
0000
,
0100
0000
0000
0000
1001
0000
0000
1001
0000
0000
0010
0000
1000
0000
0010
0000
,
0001
0000
0000
0000
1001
0000
0000
1001
0000
0000
1000
0000
0100
0000
1000
0000
,
0010
0000
0000
0000
1001
0000
0000
1001
0000
0000
0001
0000
0100
0000
0001
0000
,
1000
0000
0000
0000
0110
0000
0000
0110
0000
0000
0001
0000
1000
0000
0010
0000
,
1000
0000
0000
1001
0000
0000
0001
0000
0000
1001
0000
0000
1000
0000
0001
0000
,
0000
0000
0000
0000
0100
0000
0000
0001
0000
0000
0100
0000
0001
0000
0100
0000
,
0010
0000
0000
1000
0000
0000
0010
0000
0000
0100
0000
0000
0001
0000
0010
0000
,
0100
0000
1000
0000
0010
0000
0000
0100
0000
0000
0001
0000
1000
0000
0100
0000
,
0010
0000
0000
0001
0000
0000
0100
0000
0000
0001
0000
0000
1000
0000
0100
0000
,
1000
0000
0001
0000
0100
0000
0000
1000
0000
0000
0100
0000
0010
0000
1000
0000
,
0100
0000
0000
0010
0000
0000
0001
0000
0000
1000
0000
0000
0001
0000
0100
0000
,
0001
0000
1000
0000
0010
0000
0000
0001
0000
0000
0010
0000
0100
0000
0001
0000
,
1000
0000
0000
0110
0000
0000
0001
0000
0000
0110
0000
0000
1000
0000
0001
0000
,
1000
0000
0010
0000
0100
0000
0000
0001
0000
0000
0010
0000
0100
0000
1000
0000
,
0001
0000
0000
0100
0000
0000
1000
0000
0000
0100
0000
0000
0001
0000
0100
0000
,
0010
0000
1000
0000
0100
0000
0000
0001
0000
0000
0100
0000
0010
0000
0001
0000
,
1000
0000
0000
0010
0000
0000
1000
0000
0000
0001
0000
0000
0100
0000
0001
0000
,
0010
0000
0100
0000
1000
0000
0000
0010
0000
0000
0100
0000
0001
0000
1000
0000
,
0100
0000
0000
0001
0000
0000
0100
0000
0000
1000
0000
0000
0100
0000
0010
0000
,
0001
0000
1000
0000
0010
0000
0000
0001
0000
0000
0010
0000
1000
0000
0100
0000
,
0010
0000
0000
1001
0000
0000
0100
0000
0000
1001
0000
0000
0010
0000
0100
0000
,
1001
0000
0000
0000
1000
0000
0000
0001
0000
0000
1000
0000
0010
0000
1000
0000
,
1001
0000
0000
1001
0000
0000
1001
0000
0000
1001
0000
0000
1001
0000
0000
0000
,
1000
0000
0000
0000
0001
0000
0000
0010
0000
0000
0100
0000
1000
0000
0010
0000
,
0110
0000
0000
0110
0000
0000
0110
0000
0000
0110
0000
0000
0110
0000
0000
0000
,
0001
0000
0000
0000
0100
0000
0000
0001
0000
0000
1000
0000
0010
0000
1000
0000
,
1010
0000
0000
1010
0000
0000
1010
0000
0000
1010
0000
0000
1010
0000
0000
0000
,
1000
0000
0000
0000
0001
0000
0000
0010
0000
0000
0100
0000
1000
0000
0001
0000
,
0101
0000
0000
0101
0000
0000
0101
0000
0000
0101
0000
0000
0101
0000
0000
0000
,
0010
0000
0000
0000
;

//--------------- dance-single - forcednature ----------------
#NOTES:
     dance-single:
     forcednature:
     Challenge:
     15:
     0,0,0,0,0:
0000
0000
0000
0000
,
0000
0000
0000
0000
,
0000
0000
0000
0000
,
0000
0000
0000
0000
,
0000
0000
0000
0000
,
0000
0000
0000
0000
,
0000
0000
0000
0000
,
0000
0000
0000
0000
,
0001
0000
0000
0110
0000
1000
0001
0000
0000
0110
0000
0001
1000
0000
0110
0000
,
1000
0010
1000
0010
1000
0000
0001
0100
0000
0001
0100
0000
0010
0000
1000
0000
,
0100
0010
0100
0010
0100
0000
1000
0001
0000
1000
0001
0000
0010
0000
0001
0000
,
0100
0001
0100
0001
0100
0000
0010
1000
0000
0010
1000
0000
0100
0000
0010
0000
,
0001
1000
0001
1000
0001
0000
0100
0001
0000
0100
0001
0000
1000
0000
0100
0000
,
0010
0001
0010
0001
0010
0000
0100
1000
0000
0001
0010
0000
0001
0000
0100
0000
,
0010
1000
0010
1000
0010
0000
0100
0001
0000
1000
0010
0000
1000
0000
0100
0000
,
0010
0100
0010
0100
0010
0000
0001
1000
0000
0100
0010
0000
0001
0000
0100
0000
,
0010
0000
0000
1001
0000
0100
0010
0000
0000
1001
0000
0010
0100
0000
1001
0000
,
0101
0000
0000
0000
0000
0000
0000
0000
0000
0000
0000
0000
0000
0000
0000
0000
0001
0000
0000
0000
0000
0000
0000
0000
0000
0000
0000
0000
1000
0000
0000
0000
0000
0000
0000
0000
0000
0000
0000
0000
0020
0000
0000
0000
0000
0000
0000
0000
0001
0000
0000
0000
0000
0000
0000
0000
1000
0030
0000
0000
0000
0000
0000
0000
,
0010
0000
0000
0000
0000
0000
0000
0000
0000
0000
0000
0000
0000
0000
0000
0000
0100
0000
0000
0000
0000
0000
0000
0000
0000
0000
0000
0000
0001
0000
0000
0000
0000
0000
0000
0000
0000
0000
0000
0000
0020
0000
0000
0000
0000
0000
0000
0000
1000
0000
0000
0000
0000
0000
0000
0000
0001
0030
0000
0000
0000
0000
0000
0000
,
0010
0000
0000
0000
0000
0000
0000
0000
0000
0000
0000
0000
0000
0000
0000
0000
0100
0000
0000
0000
0000
0000
0000
0000
0000
0000
0000
0000
1000
0000
0000
0000
0000
0000
0000
0000
0000
0000
0000
0000
0002
0000
0000
0000
0000
0000
0000
0000
0100
0000
0000
0000
0000
0000
0000
0000
0010
0003
0000
0000
0000
0000
0000
0000
,
0001
0000
0000
0000
0000
0000
0000
0000
0000
0000
0000
0000
0000
0000
0000
0000
1000
0000
0000
0000
0000
0000
0000
0000
0000
0000
0000
0000
0100
0000
0000
0000
0000
0000
0000
0000
0000
0000
0000
0000
2000
0000
0000
0000
0000
0000
0000
0000
0010
0000
0000
0000
0000
0000
0000
0000
0100
3000
0000
0000
0000
0000
0000
0000
,
1000
0000
0000
0000
0000
0000
0000
0000
0000
0000
0000
0000
0000
0000
0000
0000
2010
0000
0000
0000
0000
0000
0000
0000
0000
0000
0000
0000
0100
0000
0000
0000
0000
0000
0000
0000
0000
0000
0000
0000
0001
3000
0000
0000
0000
0000
0000
0000
1000
0000
0000
0000
0000
0000
0000
0000
0100
0000
0000
0000
0000
0000
0000
0000
,
0010
0000
0000
0000
0000
0000
0000
0000
0000
0000
0000
0000
0000
0000
0000
0000
0021
0000
0000
0000
0000
0000
0000
0000
0000
0000
0000
0000
1000
0000
0000
0000
0000
0000
0000
0000
0000
0000
0000
0000
0100
0030
0000
0000
0000
0000
0000
0000
0010
0000
0000
0000
0000
0000
0000
0000
0100
0000
0000
0000
0000
0000
0000
0000
,
1000
0000
0000
0000
0000
0000
0000
0000
0000
0000
0000
0000
0000
0000
0000
0000
1200
0000
0000
0000
0000
0000
0000
0000
0000
0000
0000
0000
0001
0000
0000
0000
0000
0000
0000
0000
0000
0000
0000
0000
0010
0300
0000
0000
0000
0000
0000
0000
0100
0000
0000
0000
0000
0000
0000
0000
1000
0000
0000
0000
0000
0000
0000
0000
,
0010
0000
0000
0000
0000
0000
0000
0000
0000
0000
0000
0000
0000
0000
0000
0000
0012
0000
0000
0000
0000
0000
0000
0000
0000
0000
0000
0000
0100
0000
0000
0000
0000
0000
0000
0000
0000
0000
0000
0000
1000
0003
0000
0000
0000
0000
0000
0000
0001
0000
0000
0000
0000
0000
0000
0000
0010
0000
0000
0000
0000
0000
0000
0000
,
0110
0000
0000
0000
0000
0000
0000
0000
0000
0000
0000
0000
0000
0000
0000
0000
1002
0000
0000
0000
0000
0000
0000
0000
0000
0000
0000
0000
0100
0000
0000
0000
0000
0003
0000
0000
0000
0000
0000
0000
0001
0000
0000
0000
0000
0000
0000
0000
0020
0000
0000
0000
0000
0000
0000
0000
1000
0000
0000
0000
0000
0000
0000
0000
,
0001
0030
0000
0000
0000
0000
0000
0000
0000
0000
0000
0000
0000
0000
0000
0000
1200
0000
0000
0000
0000
0000
0000
0000
0000
0000
0000
0000
0001
0000
0000
0000
0000
0300
0000
0000
0000
0000
0000
0000
0100
0000
0000
0000
0000
0000
0000
0000
0020
0000
0000
0000
0000
0000
0000
0000
0001
0000
0000
0000
0000
0000
0000
0000
,
0100
0030
0000
0000
0000
0000
0000
0000
0000
0000
0000
0000
0000
0000
0000
0000
0012
0000
0000
0000
0000
0000
0000
0000
0000
0000
0000
0000
0100
0000
0000
0000
0000
0003
0000
0000
0000
0000
0000
0000
0001
0000
0000
0000
0000
0000
0000
0000
2000
0000
0000
0000
0000
0000
0000
0000
0010
0000
0000
0000
0000
0000
0000
0000
,
0100
3000
0000
0000
0000
0000
0000
0000
0000
0000
0000
0000
0000
0000
0000
0000
1020
0000
0000
0000
0000
0000
0000
0000
0000
0000
0000
0000
0001
0000
0000
0000
0000
0030
0000
0000
0000
0000
0000
0000
0010
0000
0000
0000
0000
0000
0000
0000
0200
0000
0000
0000
0000
0000
0000
0000
0001
0000
0000
0000
0000
0000
0000
0000
,
1000
0300
0000
0000
0000
0000
0000
0000
0000
0000
0000
0000
0000
0000
0000
0000
2100
0000
0000
0000
0000
0000
0000
0000
0000
0000
0000
0000
0010
0000
0000
0000
0000
3000
0000
0000
0000
0000
0000
0000
1000
0000
0000
0000
0000
0000
0000
0000
0102
0000
0000
0000
0000
0000
0000
0000
0010
0000
0000
0000
0000
0000
0000
0000
,
1000
0003
0000
0000
0000
0000
0000
0000
0000
0000
0000
0000
0000
0000
0000
0000
0021
0000
0000
0000
0000
0000
0000
0000
0000
0000
0000
0000
1000
0000
0000
0000
0000
0030
0000
0000
0000
0000
0000
0000
0010
0000
0000
0000
0000
0000
0000
0000
2001
0000
0000
0000
0000
0000
0000
0000
0010
0000
0000
0000
0000
0000
0000
0000
,
0100
3000
0000
0000
0000
0000
0000
0000
0000
0000
0000
0000
0000
0000
0000
0000
0012
0000
0000
0000
0000
0000
0000
0000
0000
0000
0000
0000
0100
0000
0000
0000
0000
0003
0000
0000
0000
0000
0000
0000
0001
0000
0000
0000
0000
0000
0000
0000
0210
0000
0000
0000
0000
0000
0000
0000
1000
0000
0000
0000
0000
0000
0000
0000
,
0001
0300
0000
0000
0000
0000
0000
0000
0000
0000
0000
0000
0110
0000
0000
0000
0000
0000
0000
0000
1000
0000
0000
0000
0001
0000
0000
0000
0000
0000
0000
0000
0000
0000
0000
0000
0110
0000
0000
0000
0000
0000
0000
0000
0001
0000
0000
0000
1000
0000
0000
0000
0000
0000
0000
0000
0110
0000
0000
0000
0000
0000
0000
0000
,
0000
0000
0000
0000
1000
0000
0000
1000
0000
0000
1000
0000
1000
0000
1000
0000
,
0110
0000
0000
0110
0000
0000
0110
0000
0000
0110
0000
0000
0110
0000
0000
0000
,
0001
0010
0001
0010
0001
0000
1000
0100
0000
0010
0100
0000
1000
0000
0001
0000
,
0101
0000
0000
0101
0000
0000
0101
0000
0000
0101
0000
0000
0101
0000
0000
0000
,
1000
0010
1000
0010
1000
0000
0001
0100
0000
0010
1000
0000
0100
0000
0010
0000
,
0110
0000
0000
0110
0000
0000
0110
0000
0000
0110
0000
0000
0110
0000
0000
0000
,
0001
1000
0001
1000
0001
0000
0010
0001
0000
1000
0010
0000
0100
0000
0001
0000
,
0110
0000
0000
1001
0000
0100
0010
0000
0000
1001
0000
0010
0100
0000
1001
0000
,
1000
0100
1000
0001
0010
0000
0001
0100
0000
0010
0001
0000
0010
0000
1000
0000
,
1001
0000
0000
0110
0000
0000
1001
0000
0000
0110
0000
0000
1001
0000
0000
0000
,
0001
0100
0001
1000
0010
0000
1000
0001
0000
0100
1000
0000
0100
0000
0001
0000
,
0011
0000
0000
1100
0000
0000
0011
0000
0000
1100
0000
0000
0011
0000
0000
0000
,
1000
0001
0100
0010
1000
0000
0001
0010
0000
0001
0100
0000
1000
0000
0100
0000
,
0110
0000
0000
1100
0000
0000
0101
0000
0000
1001
0000
0000
0110
0000
0000
0000
,
1000
0001
0100
0001
1000
0000
0010
0001
0000
0010
1000
0000
0100
0000
0010
0000
,
0011
0000
0000
1100
0000
0001
0100
0000
0000
1010
0000
1000
0100
0000
0011
0000
,
0001
0100
0010
0100
0001
0000
1000
0001
0000
0010
0100
0000
1100
0000
1000
0000
,
0010
0100
0001
0010
0100
0000
1000
0001
0000
1000
0010
0000
0110
0000
0001
0000
,
1000
0100
0010
0100
1000
0000
0010
0100
0000
0001
1000
0000
0110
0000
1000
0000
,
0001
0100
0010
1000
0001
0000
0010
0100
0000
1000
0001
0000
0101
0000
0001
0000
,
1000
0100
0001
0100
0010
0000
0001
0100
0000
0010
1000
0000
1100
0000
0001
0000
,
1000
0010
0001
0010
0100
0000
0001
1000
0000
0010
0100
0000
1001
0000
1000
0000
,
0100
0001
0100
0010
0001
0000
1000
0001
0000
0100
1000
0000
0110
0000
0001
0000
,
0101
0000
0000
1010
0000
0100
0010
0000
0000
1001
0000
0001
0010
0000
1100
0000
,
0001
0000
0000
0000
;

//--------------- dance-double - forcednature ----------------
#NOTES:
     dance-double:
     forcednature:
     Easy:
     7:
     0,0,0,0,0:
00000000
00000000
00000000
00000000
,
00000000
00000000
00000000
00000000
,
00000000
00000000
00000000
00000000
,
00000000
00000000
00000000
00000000
,
00000000
00000000
00000000
00000000
,
00000000
00000000
00000000
00000000
,
00000000
00000000
00000000
00000000
,
00000000
00000000
00000000
00000000
,
00001000
00000000
00000000
00010000
00000000
00000000
00001000
00000000
,
00000000
01000000
00000000
00010000
,
10000000
00100000
00000000
01000000
,
00010000
00100000
00000000
01000000
,
10000000
00010000
00000000
00100000
,
00001000
00010000
00000000
00000100
,
00010000
00001000
00000000
00010000
,
00000010
00000100
00000000
00000001
,
00000100
00000000
00000000
00000010
00000000
00000000
00000100
00000000
,
00000000
00000000
00000001
00000000
00000000
00001000
00000000
00000000
,
00000000
00000000
00000100
00000000
00000000
00010000
00000000
00000000
,
00000000
00000000
00001000
00000000
00000000
00010000
00000000
00000000
,
00000000
00000000
00000010
00000000
00000000
00001000
00000000
00000000
,
00000000
00000100
00000100
00000000
,
00010000
00010000
00010000
00000000
,
00100000
00100000
00100000
00000000
,
01000000
01000000
01000000
00000000
,
00010000
00010000
00010000
00000000
,
10000000
10000000
10000000
00000000
,
01000000
01000000
01000000
00000000
,
10000000
10000000
10000000
00000000
,
00100000
00100000
00100000
00000000
,
00010000
00010000
00010000
00000000
,
00001000
00001000
00001000
00000000
,
00000010
00000000
00000000
00000100
00000000
00000000
00000010
00000000
,
00000000
00000000
00000002
00000000
00000000
00000100
00000000
00000000
,
00000203
00000000
00000000
00000010
00000000
00000000
00000310
00000000
,
00000000
00000000
00020000
00000000
00000000
00001000
00000000
00000000
,
00032000
00000000
00000000
00100000
00000000
00000000
00103000
00000000
,
00000000
00000000
02000000
00000000
00000000
10000000
00000000
00000000
,
23000000
00000000
00000000
00100000
00000000
00000000
30100000
00000000
,
00000000
00000000
02000000
00000000
00000000
00010000
00000000
00000000
,
03010000
00000000
00000000
00001000
00000000
00000000
00010000
00000000
,
00000000
00000000
00000002
00000000
00000000
00000023
00000000
00000000
,
00000230
00000000
00000000
00002300
00000000
00000000
00003001
00000000
,
00000000
00000000
00002000
00000000
00000000
00003020
00000000
00000000
,
00002030
00000000
00000000
00003200
00000000
00000000
00010300
00000000
,
00000000
00000000
00002000
00000000
00000000
00203000
00000000
00000000
,
00320000
00000000
00000000
20030000
00000000
00000000
30100000
00000000
,
00000000
00000000
02000000
00000000
00000000
03020000
00000000
00000000
,
00230000
00000000
00000000
02300000
00000000
00000000
13000000
00000000
,
00000000
00000000
00200000
00000000
00000000
02300000
00000000
00000000
,
03020000
00000000
00000000
00230000
00000000
00000000
00301000
00000000
,
00000000
00000000
00020000
00000000
00000000
00030020
00000000
00000000
,
00002030
00000000
00000000
00003002
00000000
00000000
00000103
00000000
,
00000000
00000000
00000020
00000000
00000000
00020030
00000000
00000000
,
00032000
00000000
00000000
02003000
00000000
00000000
03010000
00000000
,
00000000
00000000
20000000
00000000
00000000
32000000
00000000
00000000
,
03200000
00000000
00000000
02300000
00000000
00000000
13000000
00000000
;

//--------------- dance-double - forcednature ----------------
#NOTES:
     dance-double:
     forcednature:
     Medium:
     9:
     0,0,0,0,0:
00000000
00000000
00000000
00000000
,
00000000
00000000
00000000
00000000
,
00000000
00000000
00000000
00000000
,
00000000
00000000
00000000
00000000
,
00000000
00000000
00000000
00000000
,
00000000
00000000
00000000
00000000
,
00000000
00000000
00000000
00000000
,
00000000
00000000
00000000
00000000
,
00001000
00000000
00000000
00010000
00000000
00000000
00001000
00000000
00000000
00010000
00000000
00000000
00001000
00000000
00010000
00000000
,
00100000
00000000
00000000
00000000
10000000
00000000
00000000
01000000
00000000
00000000
10000000
00000000
00100000
00000000
00000000
00000000
,
01000000
00000000
00000000
00000000
00001000
00000000
00000000
00010000
00000000
00000000
00100000
00000000
00010000
00000000
00000000
00000000
,
00001000
00000000
00000000
00000000
00000010
00000000
00000000
00000001
00000000
00000000
00000100
00000000
00000001
00000000
00000000
00000000
,
00001000
00000000
00000000
00000000
00000100
00000000
00000000
00000010
00000000
00000000
00000100
00000000
00001000
00000000
00000000
00000000
,
00000001
00000000
00000000
00000000
00000100
00000000
00000000
00001000
00000000
00000000
00010000
00000000
01000000
00000000
00000000
00000000
,
10000000
00000000
00000000
00000000
00010000
00000000
00000000
10000000
00000000
00000000
01000000
00000000
00100000
00000000
00000000
00000000
,
00010000
00000000
00000000
00000000
01000000
00000000
00000000
00010000
00000000
00000000
00100000
00000000
00001000
00000000
00000000
00000000
,
00010000
00000000
00000000
00001000
00000000
00000000
00010000
00000000
00000000
00001000
00000000
00000000
00010000
00000000
00001000
00000000
,
00000100
00000000
00000000
00000000
00000001
00000000
00000000
00000010
00000000
00000000
00001001
00000000
00000000
00000000
00000000
00000000
,
00000001
00000000
00000000
00000000
00000010
00000000
00000000
00000100
00000000
00000000
00001001
00000000
00000000
00000000
00000000
00000000
,
00000100
00000000
00000000
00000000
00001000
00000000
00000000
00010000
00000000
00000000
00011000
00000000
00000000
00000000
00000000
00000000
,
00010000
00000000
00000000
00000000
01000000
00000000
00000000
10000000
00000000
00000000
01100000
00000000
00000000
00000000
00000000
00000000
,
10000000
00000000
00000000
00000000
01100000
00000000
00000000
00010000
00000000
00000000
00000000
00000000
01000000
00000000
00000000
00000000
,
00010000
00000000
00000000
00000000
00011000
00000000
00000000
00000100
00000000
00000000
00000000
00000000
00001000
00000000
00000000
00000000
,
00000010
00000000
00000000
00000000
00000110
00000000
00000000
00001000
00000000
00000000
00000000
00000000
00000001
00000000
00000000
00000000
,
00000100
00000000
00000000
00000000
00000110
00000000
00000000
00000001
00000000
00000000
00000000
00000000
00001000
00000000
00000000
00000000
,
00001001
00000000
00000000
00000000
00000001
00000000
00000000
00000100
00000000
00000000
00001000
00000000
00010000
00000000
00000000
00000000
,
01000000
00000000
00000000
00000000
10000000
00000000
00000000
00100000
00000000
00000000
10000000
00000000
01000000
00000000
00000000
00000000
,
00100000
00000000
00000000
00000000
00010000
00000000
00000000
01000000
00000000
00000000
00001000
00000000
00010000
00000000
00000000
00000000
,
00100000
00000000
00000000
00000000
00010000
00000000
00000000
00001000
00000000
00000000
00000010
00000000
00000001
00000000
00000000
00000000
,
00000100
00000000
00000000
00000000
00000010
00000000
00000000
00001000
00000000
00000000
00000100
00000000
00010000
00000000
00000000
00000000
,
00001000
00000000
00000000
00000000
01000000
00000000
00000000
00010000
00000000
00000000
10000000
00000000
00100000
00000000
00000000
00000000
,
10000000
00000000
00000000
00000000
01000000
00000000
00000000
00100000
00000000
00000000
00010000
00000000
01000000
00000000
00000000
00000000
,
00001000
00000000
00000000
00010000
00000000
00000000
00001000
00000000
00000000
00010000
00000000
00000000
00001000
00000000
00010000
00000000
,
00000000
00000000
00000000
00000000
00000100
00000000
00000000
00001000
00000000
00000000
00000100
00000000
00001000
00000000
00000100
00000000
,
00000010
00000000
00000000
00000001
00000000
00000000
00000010
00000000
00000000
00000001
00000000
00000000
00000010
00000000
00000000
00000000
,
00000000
00000000
00000000
00000000
00000100
00000000
00000000
00010000
00000000
00000000
00001000
00000000
01000000
00000000
00010000
00000000
,
01000000
00000000
00000000
00010000
00000000
00000000
01000000
00000000
00000000
00010000
00000000
00000000
01000000
00000000
00000000
00000000
,
00100000
00000000
00000000
00000000
10000000
00000000
00000000
01000000
00000000
00000000
00100000
00000000
00010000
00000000
01000000
00000000
,
00001000
00000000
00000000
00010000
00000000
00000000
00001000
00000000
00000000
00010000
00000000
00000000
00001000
00000000
00000000
00000000
,
00000010
00000000
00000000
00000000
00000001
00000000
00000000
00000100
00000000
00000000
00001000
00000000
00010000
00000000
01000000
00000000
,
10000000
00000000
00000000
00010000
00000000
00000000
10000000
00000000
00000000
00010000
00000000
00000000
10000000
00000000
00010000
00000000
,
01000000
00000000
00000000
00000000
00100000
00000000
00000000
01000000
00000000
00000000
00010000
00000000
00100000
00000000
01000000
00000000
,
10000000
00000000
00000000
00010000
00000000
00000000
10000000
00000000
00000000
00010000
00000000
00000000
10000000
00000000
00000000
00000000
,
00100000
00000000
00000000
00000000
01000000
00000000
00000000
00010000
00000000
00000000
00100000
00000000
00001000
00000000
00010000
00000000
,
00001000
00000000
00000000
00010000
00000000
00000000
00001000
00000000
00000000
00010000
00000000
00000000
00001000
00000000
00000000
00000000
,
00000100
00000000
00000000
00000000
00000001
00000000
00000000
00000010
00000000
00000000
00000100
00000000
00001000
00000000
00000001
00000000
,
00001000
00000000
00000000
00000001
00000000
00000000
00001000
00000000
00000000
00000001
00000000
00000000
00001000
00000000
00000000
00000000
,
00000010
00000000
00000000
00000000
00000100
00000000
00000000
00000001
00000000
00000000
00000010
00000000
00000100
00000000
00001000
00000000
,
00000001
00000000
00000000
00001000
00000000
00000000
00000001
00000000
00000000
00001000
00000000
00000000
00000001
00000000
00001000
00000000
,
00000010
00000000
00000000
00000000
00000100
00000000
00000000
00001000
00000000
00000000
00000100
00000000
00000001
00000000
00000100
00000000
,
00000010
00000000
00000000
00000100
00000000
00000000
00000010
00000000
00000000
00000100
00000000
00000000
00000010
00000000
00000000
00000000
,
00000100
00000000
00000000
00000000
00001000
00000000
00000000
00010000
00000000
00000000
01000000
00000000
00100000
00000000
01000000
00000000
,
10000000
00000000
00000000
00010000
00000000
00000000
10000000
00000000
00000000
00010000
00000000
00000000
10000000
00000000
00000000
00000000
,
00100000
00000000
00000000
00000000
01000000
00000000
00000000
00010000
00000000
00000000
00100000
00000000
00001000
00000000
00010000
00000000
,
00001000
00000000
00000000
00010000
00000000
00000000
00001000
00000000
00000000
00010000
00000000
00000000
00001000
00000000
00000000
00000000
,
00000100
00000000
00000000
00000000
00000001
00000000
00000000
00000010
00000000
00000000
00000100
00000000
00001000
00000000
00000010
00000000
,
00000100
00000000
00000000
00000010
00000000
00000000
00000100
00000000
00000000
00000010
00000000
00000000
00000100
00000000
00000010
00000000
,
00000001
00000000
00000000
00000000
;

//--------------- dance-double - forcednature ----------------
#NOTES:
     dance-double:
     forcednature:
     Hard:
     13:
     0,0,0,0,0:
00000000
00000000
00000000
00000000
,
00000000
00000000
00000000
00000000
,
00000000
00000000
00000000
00000000
,
00000000
00000000
00000000
00000000
,
00000000
00000000
00000000
00000000
,
00000000
00000000
00000000
00000000
,
00000000
00000000
00000000
00000000
,
00000000
00000000
00000000
00000000
,
00001000
00000000
00000000
00011000
00000000
00000000
00010000
00000000
00000000
00011000
00000000
00000000
00001000
00000000
00010000
00000000
,
00000100
00000000
00001000
00000000
00000010
00000000
00000000
00000100
00000000
00000000
00000001
00000000
00000100
00000000
00000010
00000000
,
00001000
00000000
00000100
00000000
00000010
00000000
00000000
00000001
00000000
00000000
00000100
00000000
00001000
00000000
00000100
00000000
,
00000001
00000000
00001000
00000000
00000100
00000000
00000000
00010000
00000000
00000000
00001000
00000000
01000000
00000000
00010000
00000000
,
10000000
00000000
00100000
00000000
10000000
00000000
00000000
00010000
00000000
00000000
00100000
00000000
10000000
00000000
00100000
00000000
,
01000000
00000000
10000000
00000000
00010000
00000000
00000000
01000000
00000000
00000000
00100000
00000000
00010000
00000000
00100000
00000000
,
01000000
00000000
00010000
00000000
10000000
00000000
00000000
01000000
00000000
00000000
00010000
00000000
00001000
00000000
00000010
00000000
,
00000001
00000000
00000100
00000000
00000001
00000000
00000000
00000010
00000000
00000000
00000001
00000000
00000100
00000000
00001000
00000000
,
00010000
00000000
00000000
00011000
00000000
00000000
00001000
00000000
00000000
00011000
00000000
00000000
00010000
00000000
00001000
00000000
,
00010000
00000000
00000000
00000000
01000000
00000000
00000000
10000000
00000000
00000000
02200000
00000000
00000000
03300000
00000000
00000000
,
00010000
00000000
00000000
00000000
10000000
00000000
00000000
00100000
00000000
00000000
02020000
00000000
00000000
03030000
00000000
00000000
,
00001000
00000000
00000000
00000000
00010000
00000000
00000000
00000100
00000000
00000000
00002002
00000000
00000000
00003003
00000000
00000000
,
00000001
00000000
00000000
00000000
00000010
00000000
00000000
00000100
00000000
00000000
00002020
00000000
00000000
00003030
00000000
00000000
,
00000001
00000000
00000000
00000000
00000110
00000000
00000000
00000110
00000000
00000000
00000000
00000000
00000100
00000000
00001000
00000000
,
00010000
00000000
00000000
00000000
00011000
00000000
00000000
00011000
00000000
00000000
00000000
00000000
00100000
00000000
00010000
00000000
,
01000000
00000000
00000000
00000000
10010000
00000000
00000000
10010000
00000000
00000000
00000000
00000000
10000000
00000000
01000000
00000000
,
00010000
00000000
00000000
00000000
00011000
00000000
00000000
00011000
00000000
00000000
00000000
00000000
00000100
00000000
00001000
00000000
,
00000010
00000000
00000000
00000000
00000110
00000000
00000000
00000110
00000000
00000000
00000100
00000000
00000001
00000000
00001000
00000000
,
00000010
00000000
00000000
00000000
00001001
00000000
00000000
00001001
00000000
00000000
00001000
00000000
00000100
00000000
00010000
00000000
,
00001000
00000000
00000000
00000000
00011000
00000000
00000000
00011000
00000000
00000000
00001000
00000000
00100000
00000000
00010000
00000000
,
10000000
00000000
00000000
00000000
10010000
00000000
00000000
10010000
00000000
00000000
10000000
00000000
01000000
00000000
00100000
00000000
,
00010000
00000000
00000000
00000000
00110000
00000000
00000000
00110000
00000000
00000000
00100000
00000000
00001000
00000000
00010000
00000000
,
00000010
00000000
00000000
00000000
00001010
00000000
00000000
00001010
00000000
00000000
00000010
00000000
00001000
00000000
00000001
00000000
,
00000100
00000000
00000000
00000000
00000110
00000000
00000000
00000110
00000000
00000000
00000100
00000000
00000001
00000000
00000010
00000000
,
00001000
00000000
00000000
00011000
00000000
00000000
00010000
00000000
00000000
00011000
00000000
00000000
00001000
00000000
00010000
00000000
,
00000000
00000000
00000000
00000000
01000000
00000000
00000000
10000000
00000000
00000000
00100000
00000000
00010000
00000000
00001000
00000000
,
00000010
00000000
00000000
00000001
00000000
00000000
00000100
00000000
00000000
00000001
00000000
00000000
00000010
00000000
00001000
00000000
,
00010000
00000000
00001000
00000000
00100000
00000000
00000000
00010000
00000000
00000000
10000000
00000000
00100000
00000000
00010000
00000000
,
00100000
00000000
00000000
01000000
00000000
00000000
00001000
00000000
00000000
00010000
00000000
00000000
00000100
00000000
00000010
00000000
,
00000001
00000000
00000100
00000000
00001000
00000000
00000000
00010000
00000000
00000000
00100000
00000000
10000000
00000000
01000000
00000000
,
00010000
00000000
00000000
01000000
00000000
00000000
00100000
00000000
00000000
00010000
00000000
00000000
01000000
00000000
00100000
00000000
,
00010000
00000000
00001000
00000000
00000010
00000000
00000000
00000001
00000000
00000000
00000100
00000000
00001000
00000000
00010000
00000000
,
00001000
00000000
00000000
00011000
00000000
00000000
00010000
00000000
00000000
00011000
00000000
00000000
00001000
00000000
00010000
00000000
,
01000000
00000000
00100000
00000000
00010000
00000000
00000000
01000000
00000000
00000000
10000000
00000000
01000000
00000000
00100000
00000000
,
00010000
00000000
00000000
00001000
00000000
00000000
00000010
00000000
00000000
00000001
00000000
00000000
00000100
00000000
00001000
00000000
,
00010000
00000000
00000100
00000000
00001000
00000000
00000000
00000010
00000000
00000000
00010000
00000000
00001000
00000000
00100000
00000000
,
01000000
00000000
00000000
10000000
00000000
00000000
00100000
00000000
00000000
00010000
00000000
00000000
00001000
00000000
00000010
00000000
,
00000001
00000000
00000100
00000000
00001000
00000000
00000000
00000100
00000000
00000000
00000001
00000000
00000010
00000000
00001000
00000000
,
00010000
00000000
00000000
01000000
00000000
00000000
10000000
00000000
00000000
00010000
00000000
00000000
01000000
00000000
00010000
00000000
,
10000000
00000000
00100000
00000000
00010000
00000000
00000000
00001000
00000000
00000000
00000010
00000000
00000001
00000000
00000100
00000000
,
00001000
00000000
00000000
00011000
00000000
00000000
00010000
00000000
00000000
00011000
00000000
00000000
00001000
00000000
00010000
00000000
,
00011000
00000000
00000000
00000000
00100000
00000000
00000000
00010000
00000000
00000000
01000000
00000000
00100000
00000000
10000000
00000000
,
11000000
00000000
00000000
11000000
00000000
00000000
11000000
00000000
00000000
11000000
00000000
00000000
11000000
00000000
00000000
00000000
,
00010000
00000000
00000000
00000000
00100000
00000000
00000000
00001000
00000000
00000000
00010000
00000000
00000010
00000000
00001000
00000000
,
00001001
00000000
00000000
00001001
00000000
00000000
00001001
00000000
00000000
00001001
00000000
00000000
00001001
00000000
00000000
00000000
,
00001000
00000000
00000000
00000000
00000001
00000000
00000000
00001000
00000000
00000000
00000100
00000000
00010000
00000000
00001000
00000000
,
00101000
00000000
00000000
00101000
00000000
00000000
00101000
00000000
00000000
00101000
00000000
00000000
00101000
00000000
00000000
00000000
,
00010000
00000000
00000000
00000000
10000000
00000000
00000000
00100000
00000000
00000000
00010000
00000000
00001000
00000000
00000100
00000000
,
00001000
00000000
00000000
00011000
00000000
00000000
00010000
00000000
00000000
00011000
00000000
00000000
00001000
00000000
00000010
00000000
,
00000001
00000000
00000000
00000000
;

//--------------- dance-double - forcednature ----------------
#NOTES:
     dance-double:
     forcednature:
     Challenge:
     17:
     0,0,0,0,0:
00000000
00000000
00000000
00000000
,
00000000
00000000
00000000
00000000
,
00000000
00000000
00000000
00000000
,
00000000
00000000
00000000
00000000
,
00000000
00000000
00000000
00000000
,
00000000
00000000
00000000
00000000
,
00000000
00000000
00000000
00000000
,
00000000
00000000
00000000
00000000
,
00001000
00000000
00000000
01010000
00000000
00001000
00010000
00000000
00000000
00001100
00000000
00010000
00001000
00000000
00011000
00000000
,
00100000
00010000
00100000
00010000
00100000
00000000
01000000
10000000
00000000
01000000
10000000
00000000
00100000
00000000
00010000
00000000
,
00001000
00010000
00001000
00010000
00001000
00000000
00000010
00000100
00000000
00000010
00000100
00000000
00000001
00000000
00000100
00000000
,
00001000
00000001
00001000
00000001
00001000
00000000
00000100
00000010
00000000
00000100
00000010
00000000
00001000
00000000
00010000
00000000
,
00100000
10000000
00100000
10000000
00100000
00000000
01000000
00010000
00000000
01000000
00010000
00000000
00100000
00000000
00001000
00000000
,
00010000
00000100
00010000
00000100
00010000
00000000
00000010
00001000
00000000
00000100
00010000
00000000
00001000
00000000
01000000
00000000
,
00100000
01000000
00100000
01000000
00100000
00000000
10000000
00010000
00000000
01000000
00100000
00000000
00010000
00000000
00001000
00000000
,
00000010
00000100
00000010
00000100
00000010
00000000
00000001
00001000
00000000
00000100
00000010
00000000
00001000
00000000
00010000
00000000
,
00100000
00000000
00000000
00011000
00000000
00000100
00000010
00000000
00000000
00011000
00000000
01000000
00100000
00000000
00011000
00000000
,
00010100
00000000
00000000
00000000
00000001
00000000
00000000
00000100
00000000
00000000
00002000
00000000
00100000
00000000
00013000
00000000
,
00001000
00000000
00000000
00000000
00000010
00000000
00000000
00001000
00000000
00000000
00020000
00000000
00001000
00000000
00130000
00000000
,
00010000
00000000
00000000
00000000
00001000
00000000
00000000
01000000
00000000
00000000
00200000
00000000
00010000
00000000
10300000
00000000
,
00100000
00000000
00000000
00000000
10000000
00000000
00000000
01000000
00000000
00000000
00020000
00000000
00001000
00000000
01030000
00000000
,
00010000
00000000
00000000
00000000
00002010
00000000
00000000
00000100
00000000
00000000
00003001
00000000
00001000
00000000
00000100
00000000
,
00000010
00000000
00000000
00000000
00102000
00000000
00000000
00000100
00000000
00000000
00013000
00000000
00001000
00000000
00100000
00000000
,
01000000
00000000
00000000
00000000
00000000
00000000
00000000
00000000
00000000
00000000
00000000
00000000
00000000
00000000
00000000
00000000
12000000
00000000
00000000
00000000
00000000
00000000
00000000
00000000
00000000
00000000
00000000
00000000
00010000
00000000
00000000
00000000
00000000
00000000
00000000
00000000
00000000
00000000
00000000
00000000
00001000
03000000
00000000
00000000
00000000
00000000
00000000
00000000
01000000
00000000
00000000
00000000
00000000
00000000
00000000
00000000
00100000
00000000
00000000
00000000
00000000
00000000
00000000
00000000
,
00001000
00000000
00000000
00000000
00000201
00000000
00000000
00001000
00000000
00000000
00010300
00000000
00000100
00000000
00001000
00000000
,
00011000
00000000
00000000
00000000
00210000
00000000
00000000
10000000
00300000
00000000
00100000
00000000
00002000
00000000
00010000
00000000
,
00003010
00000000
00000000
00000000
00000201
00000000
00000000
00000010
00000300
00000000
00000100
00000000
00002000
00000000
00010000
00000000
,
00003010
00000000
00000000
00000000
00000000
00000000
00000000
00000000
00000000
00000000
00000000
00000000
00000000
00000000
00000000
00000000
00120000
00000000
00000000
00000000
00000000
00000000
00000000
00000000
00000000
00000000
00000000
00000000
00001000
00000000
00000000
00000000
00000000
00030000
00000000
00000000
00000000
00000000
00000000
00000000
00010000
00000000
00000000
00000000
00000000
00000000
00000000
00000000
00200000
00000000
00000000
00000000
00000000
00000000
00000000
00000000
01000000
00000000
00000000
00000000
00000000
00000000
00000000
00000000
,
00301000
00000000
00000000
00000000
12000000
00000000
00000000
00010000
03000000
00000000
01000000
00000000
00002000
00000000
00000100
00000000
,
00003010
00000000
00000000
00000000
00001002
00000000
00000000
00000010
00000003
00000000
00000001
00000000
00020100
00000000
00001000
00000000
,
01000000
00030000
00000000
00000000
00000000
00000000
00000000
00000000
00000000
00000000
00000000
00000000
00000000
00000000
00000000
00000000
00210000
00000000
00000000
00000000
00000000
00000000
00000000
00000000
00000000
00000000
00000000
00000000
01000000
00000000
00000000
00000000
00000000
00300000
00000000
00000000
00000000
00000000
00000000
00000000
00100000
00000000
00000000
00000000
00000000
00000000
00000000
00000000
00021000
00000000
00000000
00000000
00000000
00000000
00000000
00000000
00100000
00000000
00000000
00000000
00000000
00000000
00000000
00000000
,
00030010
00000000
00000000
00000000
00002001
00000000
00000000
00010000
00003000
00000000
00001000
00000000
00020100
00000000
00001000
00000000
,
00130000
00000000
00000000
00011000
00000000
00000010
00000100
00000000
00000000
00011000
00000000
00100000
01000000
00000000
00011000
00000000
,
00000000
00000000
00000000
00000000
00000100
00000000
00000000
00000100
00000000
00000000
00000100
00000000
00000100
00000000
00000100
00000000
,
00001001
00000000
00000000
00001001
00000000
00000000
00001001
00000000
00000000
00001001
00000000
00000000
00001001
00000000
00000000
00000000
,
00010000
00000100
00010000
00000100
00010000
00000000
00001000
00100000
00000000
00010000
00100000
00000000
01000000
00000000
10000000
00000000
,
10100000
00000000
00000000
10100000
00000000
00000000
10100000
00000000
00000000
10100000
00000000
00000000
10100000
00000000
00000000
00000000
,
10000000
00010000
10000000
00010000
10000000
00000000
00100000
00010000
00000000
00001000
00010000
00000000
00000100
00000000
00000010
00000000
,
00001100
00000000
00000000
00001100
00000000
00000000
00001100
00000000
00000000
00001100
00000000
00000000
00001100
00000000
00000000
00000000
,
00000001
00001000
00000001
00001000
00000001
00000000
00000010
00001000
00000000
00010000
00001000
00000000
00000100
00000000
00000010
00000000
,
00011000
00000000
00000000
01100000
00000000
00010000
00001000
00000000
00000000
00000110
00000000
00001000
00010000
00000000
01100000
00000000
,
10000000
01000000
00100000
00010000
00100000
00000000
00001000
00010000
00000000
00100000
01000000
00000000
00010000
00000000
00100000
00000000
,
01010000
00000000
00000000
00101000
00000000
00000000
01010000
00000000
00000000
00101000
00000000
00000000
01010000
00000000
00000000
00000000
,
00001000
00010000
00001000
00000010
00000001
00000000
00001000
00000100
00000000
00010000
00001000
00000000
00000100
00000000
00000001
00000000
,
00000110
00000000
00000000
00011000
00000000
00000000
00000110
00000000
00000000
00011000
00000000
00000000
00000110
00000000
00000000
00000000
,
00000001
00000100
00000010
00010000
00001000
00000000
00100000
01000000
00000000
10000000
00010000
00000000
00100000
00000000
00001000
00000000
,
00010100
00000000
00000000
01001000
00000000
00000000
00010100
00000000
00000000
01001000
00000000
00000000
00010100
00000000
00000000
00000000
,
00010000
00001000
00000010
00000100
00001000
00000000
00000001
00000100
00000000
00001000
00010000
00000000
01000000
00000000
10000000
00000000
,
10010000
00000000
00000000
00101000
00000000
00010000
00001000
00000000
00000000
00000110
00000000
00000001
00000100
00000000
00011000
00000000
,
00010000
01000000
10000000
00100000
01000000
00000000
00010000
00100000
00000000
00001000
00010000
00000000
00000110
00000000
00000001
00000000
,
00000100
00001000
00010000
00000100
00001000
00000000
01000000
00010000
00000000
00001000
00100000
00000000
01100000
00000000
10000000
00000000
,
00010000
01000000
00100000
00010000
00001000
00000000
00000010
00000001
00000000
00000010
00000100
00000000
00011000
00000000
01000000
00000000
,
00010000
01000000
10000000
01000000
00010000
00000000
00100000
00001000
00000000
00010000
00000010
00000000
00001100
00000000
00000001
00000000
,
00001000
00000010
00000100
00001000
00010000
00000000
01000000
10000000
00000000
00100000
01000000
00000000
00110000
00000000
10000000
00000000
,
00010000
01000000
00001000
00010000
01000000
00000000
00010000
00001000
00000000
00000100
00000010
00000000
00001001
00000000
00000001
00000000
,
00000100
00001000
00010000
00001000
00000010
00000000
00000100
00001000
00000000
00010000
01000000
00000000
00110000
00000000
10000000
00000000
,
01100000
00000000
00000000
00011000
00000000
00000100
00000001
00000000
00000000
00000110
00000000
00001000
00010000
00000000
01100000
00000000
,
10000000
00000000
00000000
00000000
;
