#TITLE:SET YOU FREE;
#SUBTITLE:-FLIP & FILL REMIX-;
#ARTIST:N-TRANCE;
#TITLETRANSLIT:;
#SUBTITLETRANSLIT:;
#ARTISTTRANSLIT:;
#GENRE:;
#CREDIT:;
#MUSIC:SET YOU FREE -FLIP & FILL REMIX-.ogg;
#BANNER:SET YOU FREE -FLIP & FILL REMIX- BANNER.png;
#BACKGROUND:SET YOU FREE -FLIP & FILL REMIX- BG.png;
#CDTITLE:;
#SAMPLESTART:40.608;
#SAMPLELENGTH:12.000;
#SELECTABLE:YES;
#OFFSET:0.000;
#BPMS:0.000=70.000
,32.000=140.000
;
#STOPS:;
#BGCHANGES:;
#FGCHANGES:;

//--------------- dance-single - ----------------
#NOTES:
     dance-single:
     :
     Hard:
     8:
     0.536683,0.609897,0.18552,0.44834,0.552695,486,462,24,58,0,0,0.536683,0.609897,0.18552,0.44834,0.552695,486,462,24,58,0,0:
0000
0000
0000
0000
,
0000
0000
0000
0000
,
0000
0000
0000
0000
,
0000
0000
0000
0000
,
0101
0000
0000
0000
0000
0100
0010
2000
0000
0000
0001
3001
0020
0000
0130
2000
,
0000
3200
0000
0000
0000
0000
0000
0000
0300
0000
0000
0000
0000
0000
0000
0000
,
0002
0000
0000
0000
0000
0000
0103
0000
0020
0000
0000
0031
1000
0000
0002
0200
,
0000
0000
0000
0003
0020
0000
0000
0330
,
2001
0000
0000
0100
0000
0000
0100
0000
3200
0000
0000
0010
0000
0000
0310
0000
,
0002
0000
0000
0100
0000
0000
0100
0000
0203
0000
0000
0001
0000
0000
0301
0000
,
2000
0000
0000
0001
0000
0000
0001
0000
3002
0000
0000
0100
0000
0000
0103
0000
,
0020
0000
0000
1000
0000
0000
1000
0000
2030
0000
0000
0100
0000
0000
3100
0000
,
1000
0000
1000
0000
0100
0000
0100
0000
1000
0000
1000
0001
0000
0001
1000
0000
,
0010
0000
0010
0000
0100
0000
0100
0000
0001
0000
0001
1000
0000
1000
0100
0000
,
0010
0001
0010
0000
0001
1000
0001
0000
1000
0100
1000
0000
0001
0100
0001
0200
,
0002
0000
0000
0000
0303
0000
0100
0001
,
2000
0000
0000
0001
0000
0000
3001
0000
0200
0000
0000
0010
0000
0000
0310
0000
,
2000
0000
0000
0100
0000
0000
3100
0000
0020
0000
0000
0001
0000
0000
0031
0000
,
0200
0000
0000
0001
0000
0000
0301
0000
2000
0000
0000
0010
0000
0000
3010
0000
,
0200
0000
0000
0010
0000
0000
0310
0000
2000
0000
0000
0001
0000
0000
3001
0000
,
1000
0000
0000
0001
0000
0000
0100
0000
0100
0000
0000
0010
0000
0000
1000
0000
,
0001
0000
0000
1000
0000
0000
0100
0000
0100
0000
0000
0010
0000
0000
0100
0000
,
1000
0000
0000
0001
0000
0000
0100
0000
0100
0000
0000
0010
0000
0000
0100
0000
,
1000
0000
0000
0100
0000
0000
0001
0000
1000
0000
0000
0100
0000
0010
0001
0000
,
0010
0100
0000
0100
0010
0000
0001
0000
1000
0001
0000
0010
0000
0010
0001
0000
,
1000
0010
0000
0010
0100
0000
0001
0000
0100
0010
0000
1000
0000
1000
0001
0000
,
1000
0100
0000
0010
0001
0000
1000
0000
0100
0010
0000
0001
0000
1000
0001
0000
,
1000
0010
0000
1000
0010
0000
0100
0000
0001
1000
0000
0010
0000
0100
0002
0000
,
1000
0000
0000
0100
0000
0000
2003
0000
0001
0000
0000
0010
0000
0000
0010
0000
,
3002
0000
0000
0100
0000
0000
2003
0000
0001
0000
0000
0100
0000
0000
3002
0000
,
1000
0000
0000
1000
0000
0000
2003
0000
0001
0000
0000
0001
0000
0000
0001
0000
,
3010
0000
0000
0001
0000
0000
0010
0000
1010
0000
0000
0101
0000
0000
1001
0000
,
1100
1000
0001
1000
0100
0010
0001
2000
,
0100
0000
0001
0000
3010
1000
0100
0020
,
0001
0032
1000
0000
0013
0100
0010
0010
,
0001
0100
0001
1000
0010
0100
1000
0100
,
0001
0001
1000
0001
0100
0010
1000
0002
,
0010
0000
1000
1003
0020
0000
0130
0010
,
2000
0000
0001
0000
3100
0010
1000
0010
,
0100
1000
0001
0100
0010
0100
1000
0100
,
0101
0000
0100
0001
1000
0000
0010
0000
0100
0000
0001
0000
0010
0001
0010
0002
,
1000
0000
0100
0103
2000
0000
3100
0002
,
0010
0000
0023
0000
1000
0000
0000
0000
0130
0000
1000
0000
0010
1000
0010
1000
,
0010
0100
0010
1000
0001
0100
0010
0100
,
0120
0000
0000
0000
0001
0000
0000
0000
1030
0000
0100
0000
0010
0001
0010
0001
,
0020
0000
0100
0130
0002
0000
0103
0010
,
0011
0000
0000
0010
0000
0000
0100
0000
1100
0000
0000
1000
0000
0000
0010
0000
,
0110
0000
1010
0000
0011
0010
0100
1000
,
0020
0000
0000
0100
0000
0000
1000
0000
0230
0000
0000
1000
0000
0000
0010
0000
,
0302
0000
0000
0100
0000
0000
1000
0000
0023
0000
0000
0100
0000
0000
0031
0000
,
0020
0000
0000
0100
0000
0000
0031
0000
2000
0000
0000
0010
0000
0000
3001
0000
,
0200
0000
0000
0001
0000
0000
0310
0000
2000
0000
0000
0100
0000
0000
3001
0000
,
1000
0010
0000
0010
1000
0000
0001
0000
1000
0100
1000
0100
0000
0100
0010
0000
,
0001
0010
0000
0010
0001
0000
1000
0000
0001
0010
0001
0010
0000
0010
0100
0000
,
1000
0010
0000
0100
0001
0000
1000
0000
0001
1000
0001
1000
0000
0001
1000
0100
,
1000
0001
0000
1000
0001
0000
0100
0000
0010
0100
0010
0100
0020
0000
0000
0000
,
1030
0100
0000
0100
1000
0000
0001
0000
0100
0001
0000
1001
0000
1000
0001
0000
,
1000
0010
0000
0010
1000
0000
0100
0000
0001
0100
0000
0110
0000
0010
0100
0000
,
1000
0001
0000
0100
0001
0000
1000
0000
0010
0100
0000
0110
0000
0100
0010
0000
,
0001
1000
0000
1000
0010
0000
0100
0000
1000
0100
0000
0110
0000
0010
1000
0000
,
0100
0010
0000
0100
0010
0000
0001
0000
0100
0010
0000
1010
0000
0001
0100
0000
,
0010
1000
0000
0010
1000
0000
0100
0000
0001
0100
0000
0110
0000
0010
0001
0000
,
0100
0010
0000
0100
0010
0000
1000
0000
0001
0010
0000
1100
0000
0010
0001
0000
,
1000
0010
0000
1000
0010
0000
0100
0000
1000
0000
0100
0000
0002
0000
0000
0003
,
0201
0000
0010
0010
0000
0301
1010
0000
,
1200
0000
0010
0010
0000
1300
0011
0000
;
