#TITLE:SAY BAY;
#SUBTITLE:;
#ARTIST:P*Light ;
#TITLETRANSLIT:;
#SUBTITLETRANSLIT:;
#ARTISTTRANSLIT:;
#GENRE:;
#CREDIT:;
#MUSIC:SAY BAY.ogg;
#BANNER:say bay.png;
#BACKGROUND:say bay bg.png;
#CDTITLE:;
#SAMPLESTART:91.185;
#SAMPLELENGTH:11.636;
#SELECTABLE:YES;
#OFFSET:-0.276;
#BPMS:0.000=165.000;
#STOPS:;
#BGCHANGES:;
#FGCHANGES:;

//--------------- dance-single - ----------------
#NOTES:
     dance-single:
     :
     Hard:
     15:
     0,0,0,0,0:
0000
0000
0000
0000
,
0000
0000
0000
0000
,
0000
0000
0000
0000
,
0000
0000
0000
0000
,
0000
0000
0000
0000
,
0000
0000
0000
0000
,
0000
0000
0000
0000
,
0000
0000
0000
0000
,
0000
0000
0000
0000
0000
0000
0000
0000
0001
0000
0100
0000
0001
0010
0001
0000
,
0100
0010
0100
0010
0100
0000
0001
0000
1000
0000
0010
0000
1000
0100
1000
0000
,
0001
1000
0001
1000
0001
0000
1000
0000
0001
0000
0001
0000
1000
0000
1000
0000
,
0010
0010
0100
0100
2002
0000
0000
0000
,
3003
0000
0110
0000
1000
0002
0000
0000
,
0103
0000
0000
0000
0000
0000
0000
0000
0000
0000
0000
0000
0000
0000
0000
0000
0000
0000
0000
0000
0000
0000
0000
0000
0020
0000
0000
0000
0000
0000
0000
0000
0000
0000
0000
0000
0000
0000
0000
0000
0000
0000
0000
0000
0000
0000
0000
0000
0000
0000
0000
0000
0000
0000
0000
0000
0000
0000
0000
0000
0000
0000
0000
0000
0000
0000
0000
0000
0000
0000
0000
0000
0000
0000
0000
0000
0000
0000
0000
0000
0000
0000
0000
0000
0000
0000
0000
0000
0000
0000
0000
0000
0000
0000
0000
0000
2030
0000
0000
0000
0000
0000
0000
0000
0000
0000
0000
0000
0000
0000
0000
0000
0000
0000
0000
0000
0000
0000
0000
0000
0010
0000
0000
0000
0000
3000
0000
0000
0000
0000
0000
0000
0000
0000
0000
0000
0000
0000
0000
0000
0000
0000
0000
0000
0200
0000
0000
0000
0000
0000
0000
0000
0000
0000
0000
0000
0000
0000
0000
0000
0000
0000
0000
0000
0000
0000
0000
0000
0310
0000
0000
0000
0000
0000
0000
0000
0000
0000
0000
0000
0000
0000
0000
0000
0000
0000
0000
0000
0000
0000
0000
0000
,
0200
0000
0301
0000
0022
0000
0033
0000
0001
0000
1000
0000
0001
0010
0001
0000
,
1000
0010
1000
0010
1000
0000
0100
0000
1000
0000
0001
0000
0100
0010
0100
0000
,
0001
0010
0001
0010
0002
0000
0000
0000
0013
0000
0100
0000
1000
0010
0100
0000
,
0001
0100
0001
0100
0001
0000
0100
0000
0001
1000
0001
1000
0001
0000
0001
0000
,
0100
0010
0100
0010
0100
0000
0100
0000
0010
0000
1000
0000
0001
0010
0001
0000
,
1000
0010
1000
0010
1000
0000
0001
0000
1000
0000
0100
0000
1000
0001
1000
0000
,
0001
0010
0001
0010
0002
0000
0000
0000
0103
0000
0010
0000
0100
0010
0100
0000
,
0001
0000
1000
0000
0001
1000
0001
0000
1000
0000
2002
0000
0000
0000
3003
0000
,
0001
0000
0000
0001
0000
0000
0001
0000
1000
0000
0100
0000
0010
0100
0010
0000
,
0001
0100
0001
0010
0001
0000
1000
0000
0010
0000
0100
0000
0001
1000
0001
0000
,
1000
0100
1000
0010
2000
0000
0000
0000
3010
0000
0100
0000
0001
0010
0001
0000
,
0100
0010
0100
0001
0100
0000
0001
0000
1000
0010
1000
0100
1000
0000
1000
0000
,
0100
0010
0100
0010
0001
0000
0001
0000
1000
0000
0010
0000
0100
0001
0010
0000
,
0001
0010
0001
0100
0001
0000
1000
0000
0010
0000
0100
0000
0010
1000
0001
0000
,
0010
0100
0010
0001
0020
0000
0000
0000
0031
0000
0010
0000
0001
0100
0001
0000
,
0100
0000
0010
0000
1000
0100
1000
0000
0001
0000
0001
0000
0100
0000
0100
0000
,
0010
0010
2020
3030
1000
1000
0001
0001
,
0100
0100
0010
0010
1000
1000
0100
0100
,
0010
0010
0002
0000
1003
0010
0001
0010
,
1000
0100
0001
0100
1000
0001
0100
0010
,
0220
0330
2002
3003
0001
0001
0010
0010
,
1000
1000
0010
0010
0001
0001
0100
0010
,
0100
0001
2000
0000
3001
0010
0010
1000
,
0100
0100
0001
1000
2002
0000
0000
0000
,
0000
3003
0002
0000
,
0000
0000
2003
0000
,
0000
0000
3020
0000
,
0000
0000
0230
0000
,
0000
0000
0000
0000
0000
0000
0000
0000
0301
0000
0000
0000
0100
0000
0000
0100
,
0000
0000
0100
0000
0010
0000
0100
0000
0001
0000
0000
0000
0010
0000
0000
0010
,
0000
0000
0010
0000
0100
0000
1000
0000
0100
0000
0000
0000
1000
0000
0000
1000
,
0000
0000
1000
0000
0010
0000
0100
0000
0001
0000
0000
0000
0010
0000
0000
0010
,
0000
0010
0100
1000
2002
0000
0000
0000
,
0000
0000
0000
0000
,
0000
0000
0000
0000
,
0000
0000
0000
0000
,
3003
0000
0010
0000
0220
0000
0330
0000
1000
0000
0010
0000
1000
0010
0100
0000
,
0001
0000
0010
0000
0001
0010
0100
0000
0010
0000
0010
0000
0001
0000
0001
0000
,
0100
0000
0100
0000
0001
0000
0001
0000
1000
0000
0001
0000
0100
0010
0100
0000
,
0001
0000
1000
0000
0001
1000
0001
0000
1000
0000
1000
0000
0100
0000
0100
0000
,
1000
1000
0010
0010
1000
1000
0100
0100
,
0010
0010
0100
0100
0010
0010
0001
0001
,
0100
0000
0100
0000
0001
0000
0001
0000
1000
0000
0001
0010
0001
0000
0001
0100
,
0010
0000
0010
0100
0001
0000
0001
1000
0002
0000
0000
0000
0000
0000
0000
0000
,
0000
0003
0110
0000
1000
0020
0000
0000
,
1030
0200
0000
0000
2300
3010
0200
0310
,
2000
3001
0020
0000
0032
0103
0020
0130
,
0002
1003
1000
0100
1000
0100
0001
0010
,
1000
0000
0010
0000
0200
0000
0000
0000
0310
0000
0100
0000
0010
0100
0010
0000
,
1000
0010
1000
0100
1000
0000
0001
0000
0100
0000
0010
0000
1000
0001
1000
0000
,
0001
0010
0001
0100
0002
0000
0000
0000
0103
0000
0010
0000
1000
0100
1000
0000
,
0010
0100
0010
1000
0010
0000
1000
0000
0001
0100
0001
0010
0001
0000
0001
0000
,
0010
0100
0010
0100
1000
0000
1000
0000
0001
0000
0100
0000
0010
1000
0100
0000
,
1000
0100
1000
0010
1000
0000
0001
0000
0100
0000
0010
0000
0100
0001
1000
0000
,
0100
0010
0100
1000
0200
0000
0000
0000
1300
0000
0100
0000
1000
0010
1000
0000
,
0010
0000
0100
0000
0001
0010
0001
0000
1000
0000
0220
0000
0000
0000
0330
0000
,
0010
0000
0000
0010
0000
0000
0010
0000
1000
0001
1000
0000
0100
0000
0010
0100
,
0010
0000
0001
0000
0100
0010
0100
0000
0001
1000
0001
1000
0100
1000
0100
1000
,
0100
0010
0100
0010
0100
0000
0010
0000
0002
0000
0100
0000
0103
0000
0010
0000
,
2000
0000
0010
0000
3010
0000
1000
0000
0100
1000
0010
1000
0010
0000
0010
0000
,
0010
1000
0100
1000
0100
0000
0100
0000
0100
0000
1000
0000
0010
0000
0100
0010
,
0100
0000
0010
0000
1000
0001
0010
0000
0100
0010
0100
0010
0001
0100
0001
0100
,
0001
1000
0001
1000
0001
0000
1000
0000
0200
0000
1000
0000
1300
0000
0010
0000
,
0200
0001
0301
1000
1000
0100
0100
0010
,
0010
0001
0001
0000
0220
0000
0000
0000
,
0000
0000
0000
0000
,
0000
0330
1001
0000
;

//--------------- dance-single - ----------------
#NOTES:
     dance-single:
     :
     Challenge:
     17:
     0,0,0,0,0:
0000
0000
0000
0000
,
0000
0000
0000
0000
,
0000
0000
0000
0000
,
0000
0000
0000
0000
,
0000
0000
0000
0000
,
0000
0000
0000
0000
,
0000
0000
0000
0000
,
0000
0000
0000
0000
,
0000
0000
0000
0000
0000
0000
0000
0000
1000
0000
0010
0000
1000
0010
1000
0000
,
0010
1000
0100
1000
0100
1000
0100
0010
0001
0000
0010
0000
0001
0100
0001
0000
,
0010
0001
0010
0001
0010
0001
0010
0100
1000
0000
1000
0000
0010
0000
0010
0000
,
1000
1000
0100
0100
0220
0000
0000
0000
,
0330
0000
1001
0000
1000
0202
0000
0303
,
1000
0000
0000
0000
0000
0000
0000
0000
0000
0000
0000
0000
0000
0000
0000
0000
0000
0000
0000
0000
0000
0000
0000
0000
0022
0000
0000
0000
0000
0000
0000
0000
0000
0000
0000
0000
0000
0000
0000
0000
0000
0000
0000
0000
0000
0000
0000
0000
0000
0000
0000
0000
0000
0000
0000
0000
0000
0000
0000
0000
0000
0000
0000
0000
0000
0000
0000
0000
0000
0000
0000
0000
0033
0000
0000
0000
0000
0000
0000
0000
0000
0000
0000
0000
0000
0000
0000
0000
0000
0000
0000
0000
0000
0000
0000
0000
2000
0000
0000
0000
0000
0000
0000
0000
0000
0000
0000
0000
0000
0000
0000
0000
0000
0000
0000
0000
0000
0000
0000
0000
0100
0000
0000
0000
0000
3000
0000
0000
0000
0000
0000
0000
0000
0000
0000
0000
0000
0000
0000
0000
0000
0000
0000
0000
2000
0000
0000
0000
0000
0000
0000
0000
0000
0000
0000
0000
0000
0000
0000
0000
0000
0000
0000
0000
0000
0000
0000
0000
3001
0000
0000
0000
0000
0000
0000
0000
0000
0000
0000
0000
0000
0000
0000
0000
0000
0000
0000
0000
0000
0000
0000
0000
,
0200
0000
0310
0000
0220
0000
0330
0000
0001
0000
1000
0000
0001
0010
0001
0000
,
1000
0010
1000
0010
1000
0010
0100
0001
1000
0000
0001
0000
0010
0100
0010
0000
,
0001
1000
0001
1000
0002
0000
0000
0000
0103
0000
0010
0000
1000
0010
0100
0000
,
0001
0010
0001
0010
0001
0010
0100
1000
0001
0100
0001
0100
0001
0000
0001
0000
,
1000
0001
1000
0001
1000
0000
1000
0000
0100
0000
1000
0000
0001
0100
0010
0000
,
1000
0100
1000
0100
1000
0100
0010
0100
1000
0000
0001
0000
0100
0010
0100
0000
,
0001
0100
0001
0100
0002
0000
0000
0000
0013
0000
0001
0000
0100
0001
0100
0000
,
0001
0000
1000
0000
0100
1000
0100
0000
1000
0000
2002
0000
0000
0000
3003
0000
,
0001
0000
0000
0110
0000
0000
1000
0000
0010
0000
0100
0000
0001
0100
0001
0000
,
1000
0010
1000
0010
1000
0100
1000
0100
1000
0000
0100
0000
1000
0001
0100
0000
,
0010
1000
0010
1000
0020
0000
0000
0000
0130
0000
0010
0000
1000
0100
1000
0000
,
0001
1000
0001
1000
0001
0010
0100
1000
0100
1000
0100
1000
0100
0000
0100
0000
,
0100
1000
0010
1000
0010
0000
0010
0000
0010
0000
1000
0000
0010
0100
0010
0000
,
1000
0100
0010
0100
0010
0100
1000
0001
1000
0000
0001
0000
1000
0001
0100
0000
,
0010
0100
0010
0100
0020
0000
0000
0000
0130
0000
0010
0000
1000
0001
1000
0000
,
0100
0000
0010
0000
0001
1000
0001
0000
0001
0000
0100
0000
0100
0000
0010
0000
,
0010
1000
2200
3300
0001
0100
1000
0001
,
1000
0100
0001
0010
1000
0001
1000
0010
,
0001
1000
0002
0000
1003
0100
0001
1000
,
0001
0100
0010
0001
0100
1000
0100
0001
,
2002
3003
0220
0330
0001
0100
1000
0001
,
1000
0100
0010
1000
0010
0001
1000
0001
,
0100
1000
0200
0000
0301
0010
1000
0010
,
0001
0100
0010
1000
0220
0000
0000
0000
,
0000
0330
2000
0000
,
0000
0000
3002
0000
,
0000
0000
0203
0000
,
0000
0000
0320
0000
,
0000
0000
0000
0000
0000
0000
0000
0000
1030
0000
0000
0000
0010
0000
0000
0010
,
0000
0000
0010
0000
0100
0000
0001
0000
1000
0000
0000
0000
0100
0000
0000
0100
,
0000
0000
0100
0000
0010
0000
0001
0000
0100
0000
0000
0000
0001
0000
0000
0001
,
0000
0000
0001
0000
0100
0000
0010
0000
1000
0000
0000
0000
0100
0000
0000
0100
,
0000
0100
0010
0100
0220
0000
0000
0000
,
0000
0000
0000
0000
,
0000
0000
0000
0000
,
0000
0000
0000
0330
,
0000
0000
0001
0000
2002
0000
3003
0000
1000
0000
0010
0000
1000
0010
0100
0000
,
0001
0000
0010
0000
0001
0010
0100
0000
0010
0000
0001
0100
0010
0000
0010
1000
,
0100
0000
0100
1000
0001
0000
0001
0100
0010
0000
1000
0000
0100
0010
0100
0000
,
1000
0000
0001
0000
0100
0010
0100
0000
0001
0000
1000
0010
0100
0000
0100
0001
,
1000
0000
1000
0001
0010
0000
0010
0001
0010
0000
0001
0100
0001
0000
0001
0010
,
0001
0000
1000
0010
1000
0000
1000
0100
1000
0000
0001
0100
0010
0000
0010
1000
,
0100
0000
1000
0001
0100
0000
0100
0010
1000
0000
0001
0010
0001
0010
0001
0100
,
0010
0100
0010
0100
0001
1000
0001
1000
0002
0000
0000
0000
0000
0000
0000
0000
,
0000
0003
0110
0000
1000
0202
0000
0303
,
1000
0022
0000
0033
2000
3100
0020
0031
,
2000
3001
0200
0000
0302
0103
0020
0130
,
0200
0310
0010
1000
0100
1010
0001
1100
,
0010
0000
1000
0000
0002
0000
0000
0000
1003
0000
0001
0000
1000
0100
1000
0000
,
0001
0100
0001
0100
0001
0100
0010
1000
0001
0000
1000
0000
0100
0010
0100
0000
,
1000
0001
1000
0001
2000
0000
0000
0000
3010
0000
0100
0000
0001
0100
0010
0000
,
1000
0100
1000
0100
1000
0100
0010
0001
1000
0010
1000
0010
1000
0000
1000
0000
,
0001
1000
0001
1000
0001
0000
0001
0000
0010
0000
0001
0000
1000
0010
0100
0000
,
0001
0010
0001
0010
0001
0010
0100
0010
0001
0000
1000
0000
0010
0100
0010
0000
,
1000
0010
1000
0010
2000
0000
0000
0000
3100
0000
1000
0000
0010
1000
0010
0000
,
1000
0000
0001
0000
0010
0001
0010
0000
0001
0000
2002
0000
0000
0000
3003
0000
,
1000
0000
0000
0110
0000
0000
0001
0000
0100
0010
1000
0000
0100
0000
1000
0001
,
1000
0000
0010
0000
0100
0010
0100
0000
0010
1000
0100
1000
0100
0010
0001
0010
,
0100
1000
0010
0100
0010
1000
0010
0100
0020
0000
1000
0000
1030
0100
0010
0100
,
0020
0000
0001
0000
0031
1000
0100
1000
0001
0100
0010
0100
0010
0000
0010
0000
,
0010
1000
0100
1000
0100
0000
0100
0000
0100
0000
0010
0000
0001
0000
0100
0010
,
0100
0000
0010
0000
1000
0100
0010
0000
0001
0010
0100
1000
0001
0010
0100
1000
,
0010
0100
0001
1000
0010
0100
0001
1000
0002
0000
0010
0000
0013
0100
0010
0100
,
2000
0000
0010
0000
3010
0100
0010
0100
0010
0000
1000
0000
0011
0000
1000
0000
,
0101
0010
0101
0000
2002
0000
0000
0000
,
0000
0000
0000
0000
,
0000
3003
0110
0000
;
