#TITLE:S7age;
#SUBTITLE:;
#ARTIST:Zekk;
#TITLETRANSLIT:;
#SUBTITLETRANSLIT:;
#ARTISTTRANSLIT:;
#GENRE:;
#CREDIT:;
#BANNER:S7age-bn.png;
#BACKGROUND:S7age-bg.png;
#LYRICSPATH:;
#CDTITLE:;
#MUSIC:S7age.mp3;
#OFFSET:0.888000;
#SAMPLESTART:61.384998;
#SAMPLELENGTH:15.000000;
#SELECTABLE:YES;
#DISPLAYBPM:132.000000;
#BPMS:0.000000=132.000000
;
#STOPS:
;
#BGCHANGES:;
#KEYSOUNDS:;
#ATTACKS:;

//---------------dance-single - ----------------
#NOTES:
     dance-single:
     :
     Challenge:
     14:
     0.413539,0.755536,0.038597,0.357022,0.308776,300.000000,296.000000,4.000000,37.000000,0.000000,0.000000,0.413539,0.755536,0.038597,0.357022,0.308776,300.000000,296.000000,4.000000,37.000000,0.000000,0.000000:
// measure 0
0000
0000
0000
0000
,  // measure 1
0000
0000
0000
0000
,  // measure 2
0000
0000
0000
0000
,  // measure 3
0000
0000
0000
0000
,  // measure 4
0000
0000
0000
0000
,  // measure 5
0011
0000
0000
0000
,  // measure 6
0000
0000
0000
0000
,  // measure 7
0101
0000
0000
0000
,  // measure 8
0000
0000
0001
0100
0010
1000
0001
0010
,  // measure 9
0100
0000
0000
0000
1000
0000
0001
0100
0000
0001
0100
0000
0010
0000
0100
0000
,  // measure 10
0001
0010
0100
0001
0100
1000
0010
0001
,  // measure 11
0010
0000
0000
0000
1000
0000
0001
0010
0000
0001
0010
0000
0100
0000
0010
0000
,  // measure 12
0001
0000
0100
1000
0100
0000
0001
0000
,  // measure 13
0100
0000
0000
0000
0001
0000
1000
0100
0000
1000
0100
0000
0010
0000
0100
0000
,  // measure 14
1000
0000
0100
0001
0100
1000
0010
0001
,  // measure 15
0010
0000
0000
0000
1000
0000
0001
0010
0000
0001
0010
0000
0100
0000
0010
0000
,  // measure 16
0001
1000
0010
0100
0001
1000
0010
0100
0001
0000
0010
0000
0100
0000
1000
0000
,  // measure 17
0001
0000
0000
0000
0000
0000
0000
0100
0100
0001
0010
0010
,  // measure 18
0200
0000
0000
0000
0000
0000
0300
1000
,  // measure 19
2000
0000
0000
0000
0000
0000
0000
0000
0000
0000
3000
0000
0100
0010
0001
0100
,  // measure 20
0020
0000
0130
0002
,  // measure 21
0000
0000
0000
0000
0000
0000
0000
0000
1003
0000
0000
1000
0000
0000
1000
0000
,  // measure 22
0200
0000
0000
0300
0000
0000
0010
0000
0001
0000
0100
0000
0001
0000
0000
0000
0000
0000
0010
0000
0000
0000
0000
0000
,  // measure 23
0200
0000
0300
0000
1000
0010
0100
0010
1000
0000
0100
1000
0001
0000
0010
0000
,  // measure 24
0100
0000
0010
0001
0100
0001
0010
0000
0100
0000
1000
0010
0100
0010
1000
0000
,  // measure 25
0100
0000
0000
0010
0000
0000
0001
0000
0000
0100
0000
0000
0010
0000
1000
0000
,  // measure 26
0200
0000
0000
0000
,  // measure 27
2300
0000
0000
0000
,  // measure 28
3020
0000
0000
0000
,  // measure 29
0230
0000
0000
0300
,  // measure 30
0001
0100
0010
0100
0001
0000
0010
0000
0100
1000
0010
1000
0100
0000
0010
0000
,  // measure 31
0001
0010
0100
0010
0001
0000
0100
0000
0010
0100
0001
0100
0010
0000
1000
0000
,  // measure 32
0100
0010
0100
0010
0100
1000
0100
1000
0010
1000
0010
1000
0010
0100
0010
0100
,  // measure 33
0001
0000
0000
0000
,  // measure 34
0011
0000
0200
0000
2300
0000
3010
0100
,  // measure 35
0020
0000
0000
0000
0000
0000
0000
0000
0000
0030
0000
0000
0010
0000
0000
0000
0000
0000
0000
0000
0000
0000
0100
0000
0001
0000
0000
0000
0000
0000
0010
0000
0000
0000
0000
0000
0100
0000
0000
0000
0000
0000
1000
0000
0000
0000
0000
0000
,  // measure 36
0010
0000
0200
0000
0302
0000
0013
0100
,  // measure 37
0020
0000
0000
0000
0000
0000
0000
0000
0000
0030
0000
0000
0010
0000
0000
0000
0000
0000
0000
0000
0000
0000
0000
0000
0100
0000
0000
0000
1000
0000
0010
0000
0000
0000
0000
0000
0100
0000
0000
0000
0001
0000
0010
0000
0000
0000
0000
0000
,  // measure 38
0100
0000
2000
0000
3002
0000
0103
0010
,  // measure 39
0200
0000
0000
0000
0000
0000
0000
0000
0000
0300
0000
0000
0100
0000
0000
0000
0000
0000
0000
0000
0000
0000
0001
0000
0010
0000
0000
0000
0000
0000
0100
0000
0000
0000
0000
0000
1000
0000
0000
0000
0000
0000
0010
0000
0000
0000
0000
0000
,  // measure 40
0100
0000
0002
0000
2003
0000
3100
0010
,  // measure 41
0200
0000
0000
0000
0000
0000
0000
0000
0000
0300
0000
0000
0100
0000
0000
0000
0000
0000
0000
0000
0000
0000
1000
0000
0010
0000
0000
0000
0000
0000
0100
0000
0000
0000
0000
0000
0001
0000
0000
0000
0000
0000
0010
0000
0000
0000
0000
0000
,  // measure 42
0200
0000
0000
0000
,  // measure 43
0300
0000
2000
0000
3010
0001
0010
1000
,  // measure 44
0200
0000
1300
0100
0002
0000
0103
1000
,  // measure 45
0020
0000
0000
0030
0000
0000
0020
0000
0000
0030
0000
0000
0100
0000
0001
0010
0000
0000
0100
0000
1000
0010
0000
0000
,  // measure 46
0200
0000
0310
0100
2000
0000
3100
0001
,  // measure 47
0020
0000
0000
0000
0000
0000
0000
0000
0000
0030
0000
0000
0020
0000
0000
0000
0000
0000
0000
0000
0030
0000
0100
0000
1000
0000
0000
0000
0000
0000
0010
0000
0000
0000
0000
0000
0100
0000
0000
0000
0000
0000
0001
0000
0000
0000
0000
0000
,  // measure 48
0020
0000
0230
0000
0302
0000
0103
1000
,  // measure 49
0020
0000
0032
0000
0013
1000
0100
0010
,  // measure 50
0001
0000
0000
0000
0100
0001
0100
0001
0100
0000
0000
0000
0010
0000
0000
0000
,  // measure 51
1000
0000
0000
0000
0100
1000
0100
1000
0100
0000
1000
0000
0010
0000
0100
0000
,  // measure 52
0001
0000
0000
0000
1000
0001
1000
0001
0010
0001
1000
0001
1000
0000
0100
0000
,  // measure 53
0010
0000
0000
1000
0000
0000
0010
0000
0000
0001
0000
0000
0100
0000
0000
0000
,  // measure 54
0101
0000
0000
0000
;
